osu file format v14

[General]
AudioFilename: audio.mp3
AudioLeadIn: 0
PreviewTime: 80035
Countdown: 0
SampleSet: Soft
StackLeniency: 0.7
Mode: 3
LetterboxInBreaks: 0
SpecialStyle: 1
WidescreenStoryboard: 0

[Editor]
Bookmarks: 10810,58285,96610
DistanceSpacing: 0.5
BeatDivisor: 4
GridSize: 32
TimelineZoom: 8

[Metadata]
Title:Demise Quartet
TitleUnicode:Demise Quartet
Artist:Shiron + Kofu x Morimori Atsushi to Teikyo de okuri shimasu
ArtistUnicode:Shiron+こふ×モリモリあつしと提供でお送りします
Creator:Aras25
Version:NOVICE
Source:SOUND VOLTEX III GRAVITY WARS
Tags:sdvx Ibrahim Takane6 volta Surono Shinzo- OzzyOzrock
BeatmapID:992336
BeatmapSetID:463431

[Difficulty]
HPDrainRate:7
CircleSize:4
OverallDifficulty:7
ApproachRate:5
SliderMultiplier:1.4
SliderTickRate:1

[Events]
//Background and Video events
0,0,"ak a.jpg",0,0
//Break Periods
//Storyboard Layer 0 (Background)
//Storyboard Layer 1 (Fail)
//Storyboard Layer 2 (Pass)
//Storyboard Layer 3 (Foreground)
//Storyboard Sound Samples

[TimingPoints]
10,300,4,2,1,45,1,0
61210,-100,4,2,1,45,0,1
80110,-100,4,2,1,45,0,0
80710,-100,4,2,1,45,0,1
90010,-100,4,2,1,45,0,0
102010,-100,4,2,1,45,0,1
112210,-100,4,2,1,45,0,0

[HitObjects]
192,192,610,5,0,0:0:0:0:
448,192,1210,1,0,0:0:0:0:
64,192,2110,1,0,0:0:0:0:
192,192,2260,1,0,0:0:0:0:
320,192,2410,1,0,0:0:0:0:
448,192,2710,1,0,0:0:0:0:
320,192,2860,1,0,0:0:0:0:
64,192,3160,1,0,0:0:0:0:
448,192,3460,1,0,0:0:0:0:
448,192,3610,1,0,0:0:0:0:
320,192,4060,1,0,0:0:0:0:
192,192,4135,1,0,0:0:0:0:
64,192,4210,1,0,0:0:0:0:
448,192,4810,1,0,0:0:0:0:
192,192,5110,1,0,0:0:0:0:
64,192,5260,1,0,0:0:0:0:
448,192,5560,1,0,0:0:0:0:
320,192,5710,1,0,0:0:0:0:
192,192,5860,1,0,0:0:0:0:
64,192,6010,1,0,0:0:0:0:
448,192,6460,1,0,0:0:0:0:
320,192,6535,1,0,0:0:0:0:
64,192,6610,1,0,0:0:0:0:
64,192,7210,1,0,0:0:0:0:
320,192,7510,1,0,0:0:0:0:
448,192,7660,1,0,0:0:0:0:
192,192,7960,1,0,0:0:0:0:
320,192,8260,1,0,0:0:0:0:
320,192,8410,1,0,0:0:0:0:
64,192,9460,1,0,0:0:0:0:
192,192,9535,1,0,0:0:0:0:
448,192,9610,128,0,10810:0:0:0:0:
320,192,10810,1,6,0:0:0:0:
192,192,10810,128,0,12010:0:0:0:0:
448,192,12010,128,4,12910:0:0:0:0:
64,192,12010,1,2,0:0:0:0:
192,192,12910,1,2,0:0:0:0:
64,192,13210,1,4,0:0:0:0:
448,192,13210,128,2,14410:0:0:0:0:
64,192,14410,1,2,0:0:0:0:
192,192,14410,1,0,0:0:0:0:
192,192,14635,1,2,0:0:0:0:
64,192,14635,1,0,0:0:0:0:
448,192,14860,1,2,0:0:0:0:
320,192,14860,1,0,0:0:0:0:
64,192,15010,1,2,0:0:0:0:
192,192,15010,1,0,0:0:0:0:
448,192,15235,1,2,0:0:0:0:
64,192,15235,1,0,0:0:0:0:
192,192,15460,1,2,0:0:0:0:
320,192,15460,1,0,0:0:0:0:
448,192,15610,1,2,0:0:0:0:
64,192,15610,1,0,0:0:0:0:
192,192,15760,1,2,0:0:0:0:
448,192,15910,1,2,0:0:0:0:
64,192,16060,1,2,0:0:0:0:
320,192,16210,1,2,0:0:0:0:
192,192,16360,1,2,0:0:0:0:
448,192,16510,128,6,16810:0:0:0:0:
64,192,16810,1,2,0:0:0:0:
192,192,16960,1,2,0:0:0:0:
320,192,17110,1,2,0:0:0:0:
448,192,17260,1,2,0:0:0:0:
192,192,17410,1,6,0:0:0:0:
320,192,17560,1,2,0:0:0:0:
64,192,17710,128,2,18010:0:0:0:0:
448,192,18010,1,2,0:0:0:0:
192,192,18160,1,2,0:0:0:0:
192,192,18310,1,2,0:0:0:0:
448,192,18460,1,2,0:0:0:0:
192,192,18610,1,2,0:0:0:0:
192,192,18760,1,2,0:0:0:0:
320,192,18910,1,2,0:0:0:0:
192,192,19060,1,2,0:0:0:0:
320,192,19210,1,2,0:0:0:0:
448,192,19210,1,0,0:0:0:0:
64,192,19435,1,2,0:0:0:0:
192,192,19435,1,0,0:0:0:0:
320,192,19660,1,2,0:0:0:0:
448,192,19660,1,0,0:0:0:0:
64,192,19810,128,2,20110:0:0:0:0:
448,192,19810,1,4,0:0:0:0:
320,192,20110,128,0,20410:0:0:0:0:
64,192,20410,1,4,0:0:0:0:
448,192,20410,1,2,0:0:0:0:
192,192,20560,1,0,0:0:0:0:
320,192,20710,1,0,0:0:0:0:
64,192,20860,1,0,0:0:0:0:
192,192,21160,1,0,0:0:0:0:
448,192,21460,1,4,0:0:0:0:
64,192,21460,1,2,0:0:0:0:
320,192,21610,1,0,0:0:0:0:
64,192,21760,128,0,21910:0:0:0:0:
192,192,22060,128,0,22210:0:0:0:0:
320,192,22360,128,0,22510:0:0:0:0:
448,192,22660,128,0,22810:0:0:0:0:
64,192,22810,1,2,0:0:0:0:
192,192,22810,1,4,0:0:0:0:
320,192,22960,1,0,0:0:0:0:
192,192,23110,1,0,0:0:0:0:
448,192,23260,1,0,0:0:0:0:
320,192,23560,1,0,0:0:0:0:
64,192,23860,1,4,0:0:0:0:
448,192,23860,1,2,0:0:0:0:
192,192,24010,1,0,0:0:0:0:
320,192,24160,1,0,0:0:0:0:
448,192,24460,1,0,0:0:0:0:
64,192,24760,1,2,0:0:0:0:
192,192,24760,1,4,0:0:0:0:
320,192,25060,1,2,0:0:0:0:
448,192,25060,1,4,0:0:0:0:
192,192,25210,1,6,0:0:0:0:
64,192,25360,1,0,0:0:0:0:
448,192,25510,1,0,0:0:0:0:
192,192,25660,1,0,0:0:0:0:
320,192,25810,1,0,0:0:0:0:
448,192,25960,1,0,0:0:0:0:
448,192,26260,128,2,26410:0:0:0:0:
64,192,26260,1,4,0:0:0:0:
320,192,26560,128,0,26710:0:0:0:0:
192,192,26860,128,4,27010:0:0:0:0:
64,192,27160,128,2,27310:0:0:0:0:
448,192,27160,1,4,0:0:0:0:
320,192,27460,128,2,27610:0:0:0:0:
192,192,27760,128,2,27910:0:0:0:0:
64,192,28060,128,2,28210:0:0:0:0:
448,192,28360,128,2,28510:0:0:0:0:
192,192,28660,128,2,28810:0:0:0:0:
320,192,28810,1,2,0:0:0:0:
64,192,29110,1,2,0:0:0:0:
448,192,29110,1,0,0:0:0:0:
320,192,29410,1,2,0:0:0:0:
192,192,29410,1,0,0:0:0:0:
64,192,29710,1,2,0:0:0:0:
448,192,29710,1,0,0:0:0:0:
448,192,30010,1,4,0:0:0:0:
64,192,30010,1,2,0:0:0:0:
320,192,30160,1,0,0:0:0:0:
64,192,30310,1,2,0:0:0:0:
192,192,30460,1,0,0:0:0:0:
448,192,30610,1,2,0:0:0:0:
192,192,30760,1,0,0:0:0:0:
320,192,30835,1,0,0:0:0:0:
64,192,31060,128,0,31360:0:0:0:0:
448,192,31360,1,0,0:0:0:0:
320,192,31585,1,0,0:0:0:0:
192,192,31810,1,2,0:0:0:0:
64,192,32035,1,0,0:0:0:0:
320,192,32260,1,8,0:0:0:0:
64,192,32410,1,2,0:0:0:0:
192,192,32560,1,0,0:0:0:0:
448,192,32710,1,8,0:0:0:0:
320,192,32860,1,0,0:0:0:0:
64,192,33010,1,2,0:0:0:0:
320,192,33160,1,0,0:0:0:0:
192,192,33235,1,0,0:0:0:0:
448,192,33460,128,0,33760:0:0:0:0:
64,192,33760,1,0,0:0:0:0:
320,192,33985,1,0,0:0:0:0:
64,192,34210,1,2,0:0:0:0:
320,192,34435,1,0,0:0:0:0:
448,192,34660,1,8,0:0:0:0:
64,192,34960,1,0,0:0:0:0:
320,192,35110,1,2,0:0:0:0:
192,192,35260,1,0,0:0:0:0:
320,192,35410,1,2,0:0:0:0:
448,192,35560,1,0,0:0:0:0:
64,192,35710,1,10,0:0:0:0:
192,192,35860,128,0,36160:0:0:0:0:
448,192,36160,1,0,0:0:0:0:
64,192,36310,1,10,0:0:0:0:
320,192,36460,1,0,0:0:0:0:
192,192,36610,1,2,0:0:0:0:
64,192,36760,1,0,0:0:0:0:
448,192,36910,1,10,0:0:0:0:
320,192,37060,1,0,0:0:0:0:
64,192,37210,128,2,37810:0:0:0:0:
448,192,37810,1,2,0:0:0:0:
192,192,37960,1,2,0:0:0:0:
448,192,38260,128,2,39160:0:0:0:0:
64,192,38560,1,2,0:0:0:0:
320,192,38860,1,2,0:0:0:0:
192,192,39160,1,2,0:0:0:0:
64,192,39610,1,2,0:0:0:0:
192,192,39760,1,0,0:0:0:0:
320,192,39910,1,0,0:0:0:0:
448,192,40060,1,0,0:0:0:0:
192,192,40210,1,0,0:0:0:0:
320,192,40360,1,0,0:0:0:0:
64,192,40510,1,0,0:0:0:0:
192,192,40660,1,0,0:0:0:0:
448,192,40810,1,0,0:0:0:0:
320,192,40960,1,0,0:0:0:0:
192,192,41110,1,0,0:0:0:0:
64,192,41260,1,0,0:0:0:0:
192,192,41410,1,0,0:0:0:0:
320,192,41560,1,0,0:0:0:0:
448,192,41710,1,0,0:0:0:0:
320,192,41860,1,0,0:0:0:0:
64,192,42010,1,0,0:0:0:0:
192,192,42160,1,0,0:0:0:0:
320,192,42310,1,0,0:0:0:0:
448,192,42460,1,0,0:0:0:0:
192,192,42610,1,0,0:0:0:0:
64,192,42760,1,0,0:0:0:0:
320,192,42910,1,0,0:0:0:0:
192,192,43060,1,0,0:0:0:0:
448,192,43210,1,0,0:0:0:0:
320,192,43360,1,0,0:0:0:0:
192,192,43510,1,0,0:0:0:0:
320,192,43660,1,0,0:0:0:0:
448,192,43810,1,0,0:0:0:0:
64,192,43810,128,0,44410:0:0:0:0:
192,192,44410,1,2,0:0:0:0:
320,192,44410,128,4,45610:0:0:0:0:
448,192,45610,1,4,0:0:0:0:
64,192,45610,128,2,46810:0:0:0:0:
320,192,46810,1,2,0:0:0:0:
448,192,46810,128,4,48010:0:0:0:0:
192,192,48010,1,4,0:0:0:0:
64,192,48010,128,2,48610:0:0:0:0:
192,192,48610,1,4,0:0:0:0:
320,192,48610,128,2,49210:0:0:0:0:
64,192,49210,1,2,0:0:0:0:
448,192,49210,128,4,49510:0:0:0:0:
192,192,49510,1,2,0:0:0:0:
448,192,49810,1,2,0:0:0:0:
64,192,49810,128,4,50110:0:0:0:0:
320,192,50110,1,2,0:0:0:0:
64,192,50410,1,2,0:0:0:0:
448,192,50410,128,4,50710:0:0:0:0:
192,192,50710,1,2,0:0:0:0:
64,192,51010,1,2,0:0:0:0:
320,192,51010,128,4,51610:0:0:0:0:
448,192,51610,128,2,51910:0:0:0:0:
64,192,51610,1,4,0:0:0:0:
192,192,51910,1,2,0:0:0:0:
64,192,52210,1,2,0:0:0:0:
448,192,52210,128,4,52510:0:0:0:0:
320,192,52510,1,2,0:0:0:0:
64,192,52810,128,2,53410:0:0:0:0:
448,192,52810,1,4,0:0:0:0:
192,192,53410,128,2,54010:0:0:0:0:
320,192,53410,1,4,0:0:0:0:
448,192,54010,1,2,0:0:0:0:
64,192,54010,1,4,0:0:0:0:
64,192,55210,1,4,0:0:0:0:
448,192,55210,1,2,0:0:0:0:
192,192,55810,1,2,0:0:0:0:
320,192,55960,128,2,56410:0:0:0:0:
64,192,56410,1,2,0:0:0:0:
448,192,56410,1,4,0:0:0:0:
192,192,56710,1,2,0:0:0:0:
448,192,57010,1,2,0:0:0:0:
64,192,57160,1,2,0:0:0:0:
192,192,57310,1,2,0:0:0:0:
320,192,57460,1,2,0:0:0:0:
448,192,57460,1,4,0:0:0:0:
448,192,57760,1,2,0:0:0:0:
64,192,57760,1,0,0:0:0:0:
192,192,57910,1,2,0:0:0:0:
320,192,57910,1,4,0:0:0:0:
64,192,58210,1,2,0:0:0:0:
192,192,58360,1,2,0:0:0:0:
320,192,58510,1,8,0:0:0:0:
448,192,58660,1,2,0:0:0:0:
64,192,58660,1,0,0:0:0:0:
64,192,58960,1,2,0:0:0:0:
192,192,58960,1,0,0:0:0:0:
320,192,59110,1,4,0:0:0:0:
448,192,59110,1,2,0:0:0:0:
64,192,59410,1,2,0:0:0:0:
448,192,59560,1,2,0:0:0:0:
320,192,59710,1,2,0:0:0:0:
192,192,59860,1,2,0:0:0:0:
64,192,59860,1,0,0:0:0:0:
448,192,60160,1,2,0:0:0:0:
320,192,60160,1,0,0:0:0:0:
192,192,60310,1,2,0:0:0:0:
64,192,60310,1,8,0:0:0:0:
448,192,60760,128,0,60910:0:0:0:0:
192,192,60910,128,0,61060:0:0:0:0:
320,192,61060,128,0,61210:0:0:0:0:
64,192,61210,1,2,0:0:0:0:
448,192,61210,1,4,0:0:0:0:
192,192,61435,1,2,0:0:0:0:
448,192,61660,1,0,0:0:0:0:
320,192,61810,1,2,0:0:0:0:
64,192,62035,1,2,0:0:0:0:
320,192,62185,128,0,62410:0:0:0:0:
192,192,62410,1,2,0:0:0:0:
448,192,62635,1,2,0:0:0:0:
64,192,62860,1,2,0:0:0:0:
320,192,63010,1,2,0:0:0:0:
192,192,63310,128,2,63610:0:0:0:0:
64,192,63310,1,4,0:0:0:0:
320,192,63610,128,2,63910:0:0:0:0:
448,192,63610,1,4,0:0:0:0:
64,192,63910,128,10,64210:0:0:0:0:
448,192,64210,128,4,64510:0:0:0:0:
320,192,64210,1,2,0:0:0:0:
64,192,64510,1,10,0:0:0:0:
192,192,64660,1,0,0:0:0:0:
448,192,64810,1,4,0:0:0:0:
320,192,64810,1,2,0:0:0:0:
64,192,65035,1,2,0:0:0:0:
320,192,65260,1,2,0:0:0:0:
192,192,65410,1,2,0:0:0:0:
64,192,65560,1,2,0:0:0:0:
448,192,65710,128,10,66010:0:0:0:0:
192,192,65710,1,4,0:0:0:0:
64,192,66010,1,4,0:0:0:0:
320,192,66010,1,2,0:0:0:0:
192,192,66160,1,2,0:0:0:0:
448,192,66310,1,8,0:0:0:0:
320,192,66460,1,2,0:0:0:0:
192,192,66610,1,2,0:0:0:0:
64,192,66610,1,0,0:0:0:0:
320,192,66760,1,2,0:0:0:0:
448,192,66910,1,10,0:0:0:0:
64,192,67060,128,2,67210:0:0:0:0:
320,192,67210,1,4,0:0:0:0:
192,192,67360,1,2,0:0:0:0:
448,192,67510,1,8,0:0:0:0:
320,192,67660,1,0,0:0:0:0:
192,192,67810,128,4,68110:0:0:0:0:
64,192,67810,1,2,0:0:0:0:
448,192,68110,1,10,0:0:0:0:
320,192,68260,1,0,0:0:0:0:
64,192,68410,128,2,68710:0:0:0:0:
192,192,68410,1,4,0:0:0:0:
320,192,68710,1,8,0:0:0:0:
192,192,68860,1,2,0:0:0:0:
64,192,69010,1,4,0:0:0:0:
448,192,69010,128,2,69235:0:0:0:0:
320,192,69235,1,2,0:0:0:0:
192,192,69460,1,2,0:0:0:0:
64,192,69610,128,6,69910:0:0:0:0:
448,192,70060,1,2,0:0:0:0:
64,192,70210,1,2,0:0:0:0:
192,192,70660,1,2,0:0:0:0:
448,192,70810,128,0,71110:0:0:0:0:
64,192,71110,1,10,0:0:0:0:
192,192,71260,1,2,0:0:0:0:
320,192,71410,1,2,0:0:0:0:
448,192,71860,1,2,0:0:0:0:
320,192,71935,1,2,0:0:0:0:
192,192,72010,1,2,0:0:0:0:
64,192,72235,1,2,0:0:0:0:
448,192,72460,1,2,0:0:0:0:
192,192,72610,1,2,0:0:0:0:
64,192,72910,1,2,0:0:0:0:
448,192,72910,1,4,0:0:0:0:
320,192,73210,1,4,0:0:0:0:
448,192,73435,1,2,0:0:0:0:
64,192,73660,1,2,0:0:0:0:
192,192,73810,1,2,0:0:0:0:
320,192,73960,1,2,0:0:0:0:
448,192,74110,1,2,0:0:0:0:
320,192,74260,1,2,0:0:0:0:
192,192,74410,1,4,0:0:0:0:
64,192,74410,1,2,0:0:0:0:
448,192,74635,1,2,0:0:0:0:
320,192,74635,1,4,0:0:0:0:
192,192,74860,1,4,0:0:0:0:
64,192,74860,1,2,0:0:0:0:
448,192,75010,1,2,0:0:0:0:
320,192,75010,1,4,0:0:0:0:
64,192,75310,128,2,75610:0:0:0:0:
320,192,75610,1,2,0:0:0:0:
192,192,75760,1,0,0:0:0:0:
64,192,75910,1,8,0:0:0:0:
448,192,76060,1,2,0:0:0:0:
192,192,76210,1,0,0:0:0:0:
320,192,76360,1,2,0:0:0:0:
64,192,76510,1,8,0:0:0:0:
192,192,76660,1,2,0:0:0:0:
448,192,76810,1,4,0:0:0:0:
320,192,76810,1,2,0:0:0:0:
64,192,76960,1,2,0:0:0:0:
192,192,77110,1,8,0:0:0:0:
448,192,77260,1,2,0:0:0:0:
192,192,77410,1,2,0:0:0:0:
448,192,77510,1,2,0:0:0:0:
64,192,77610,1,2,0:0:0:0:
320,192,77710,1,2,0:0:0:0:
192,192,77810,1,0,0:0:0:0:
64,192,77910,1,2,0:0:0:0:
448,192,78010,1,2,0:0:0:0:
320,192,78010,1,0,0:0:0:0:
192,192,78460,1,2,0:0:0:0:
320,192,78535,1,2,0:0:0:0:
448,192,78610,1,2,0:0:0:0:
64,192,78835,1,2,0:0:0:0:
192,192,79060,1,2,0:0:0:0:
320,192,79210,128,2,79510:0:0:0:0:
448,192,79210,1,4,0:0:0:0:
192,192,79660,1,2,0:0:0:0:
64,192,79810,128,2,80110:0:0:0:0:
320,192,79810,1,0,0:0:0:0:
448,192,80110,128,2,80260:0:0:0:0:
320,192,80260,128,0,80410:0:0:0:0:
192,192,80410,128,0,80560:0:0:0:0:
64,192,80560,128,0,80710:0:0:0:0:
192,192,80710,1,2,0:0:0:0:
448,192,80710,1,4,0:0:0:0:
320,192,80860,128,2,81160:0:0:0:0:
192,192,81160,128,2,81310:0:0:0:0:
64,192,81310,128,2,81460:0:0:0:0:
448,192,81460,128,2,81760:0:0:0:0:
192,192,81760,128,2,81910:0:0:0:0:
320,192,81910,128,10,82060:0:0:0:0:
448,192,82060,128,2,82210:0:0:0:0:
64,192,82210,128,2,82360:0:0:0:0:
320,192,82360,128,2,82510:0:0:0:0:
192,192,82510,128,10,82660:0:0:0:0:
64,192,82660,128,2,82810:0:0:0:0:
448,192,82810,128,2,82960:0:0:0:0:
192,192,82960,128,2,83110:0:0:0:0:
320,192,83110,128,10,83260:0:0:0:0:
64,192,83260,128,2,83410:0:0:0:0:
448,192,83410,128,2,83560:0:0:0:0:
192,192,83560,128,2,83710:0:0:0:0:
320,192,83710,128,10,83860:0:0:0:0:
448,192,83860,128,2,84010:0:0:0:0:
64,192,84010,128,2,84160:0:0:0:0:
192,192,84160,128,2,84310:0:0:0:0:
320,192,84310,128,2,84460:0:0:0:0:
448,192,84460,128,2,84610:0:0:0:0:
192,192,84610,128,2,84760:0:0:0:0:
320,192,84760,128,2,84910:0:0:0:0:
64,192,84910,128,2,85060:0:0:0:0:
448,192,85060,128,2,85210:0:0:0:0:
320,192,85210,128,4,85510:0:0:0:0:
192,192,85210,1,2,0:0:0:0:
64,192,85510,128,2,85810:0:0:0:0:
448,192,85810,128,2,86110:0:0:0:0:
192,192,86110,128,2,86410:0:0:0:0:
448,192,86410,1,4,0:0:0:0:
64,192,86410,128,2,87610:0:0:0:0:
192,192,87610,1,2,0:0:0:0:
448,192,87760,1,2,0:0:0:0:
192,192,88060,128,2,88810:0:0:0:0:
448,192,88810,128,2,89260:0:0:0:0:
64,192,89260,128,2,89560:0:0:0:0:
320,192,89560,1,2,0:0:0:0:
192,192,89710,128,2,90010:0:0:0:0:
64,192,90010,1,2,0:0:0:0:
448,192,90010,1,4,0:0:0:0:
192,192,92410,128,2,93010:0:0:0:0:
448,192,92410,1,0,0:0:0:0:
320,192,93010,128,0,93610:0:0:0:0:
64,192,93610,128,0,94210:0:0:0:0:
448,192,94210,128,0,94810:0:0:0:0:
192,192,94810,128,0,95410:0:0:0:0:
64,192,95410,128,0,96010:0:0:0:0:
320,192,96010,128,0,96610:0:0:0:0:
192,192,96610,128,0,97210:0:0:0:0:
448,192,97210,1,4,0:0:0:0:
64,192,97210,1,2,0:0:0:0:
64,192,97810,1,2,0:0:0:0:
448,192,97810,1,0,0:0:0:0:
448,192,98410,1,2,0:0:0:0:
64,192,98410,1,4,0:0:0:0:
64,192,99010,1,2,0:0:0:0:
448,192,99010,1,0,0:0:0:0:
320,192,99310,1,2,0:0:0:0:
192,192,99460,1,2,0:0:0:0:
64,192,99610,1,2,0:0:0:0:
448,192,99610,1,4,0:0:0:0:
320,192,99910,1,2,0:0:0:0:
64,192,100210,1,2,0:0:0:0:
448,192,100210,1,4,0:0:0:0:
192,192,100510,1,2,0:0:0:0:
320,192,100810,1,4,0:0:0:0:
448,192,100810,128,2,101110:0:0:0:0:
192,192,101110,1,4,0:0:0:0:
64,192,101110,128,2,101410:0:0:0:0:
448,192,101410,1,4,0:0:0:0:
320,192,101410,128,2,101710:0:0:0:0:
64,192,101710,1,2,0:0:0:0:
192,192,101710,128,4,102010:0:0:0:0:
448,192,102010,1,2,0:0:0:0:
320,192,102010,1,4,0:0:0:0:
64,192,102310,1,2,0:0:0:0:
320,192,102610,1,2,0:0:0:0:
448,192,102610,1,0,0:0:0:0:
192,192,102910,1,2,0:0:0:0:
64,192,103210,1,2,0:0:0:0:
448,192,103210,1,0,0:0:0:0:
320,192,103510,1,10,0:0:0:0:
64,192,103810,1,2,0:0:0:0:
192,192,103810,1,0,0:0:0:0:
320,192,104110,1,10,0:0:0:0:
64,192,104410,1,4,0:0:0:0:
448,192,104410,1,2,0:0:0:0:
192,192,104710,1,8,0:0:0:0:
320,192,105010,1,2,0:0:0:0:
448,192,105010,1,0,0:0:0:0:
192,192,105310,1,10,0:0:0:0:
64,192,105610,1,2,0:0:0:0:
448,192,105610,128,4,105910:0:0:0:0:
320,192,105910,128,6,106210:0:0:0:0:
192,192,106210,128,6,106510:0:0:0:0:
64,192,106510,128,6,106960:0:0:0:0:
448,192,106960,1,2,0:0:0:0:
320,192,107110,1,2,0:0:0:0:
192,192,107260,1,2,0:0:0:0:
64,192,107410,1,4,0:0:0:0:
448,192,107410,1,2,0:0:0:0:
320,192,107560,1,2,0:0:0:0:
192,192,107710,1,2,0:0:0:0:
64,192,107860,1,2,0:0:0:0:
448,192,108010,1,4,0:0:0:0:
320,192,108010,1,2,0:0:0:0:
64,192,108160,1,2,0:0:0:0:
192,192,108310,1,2,0:0:0:0:
320,192,108460,1,2,0:0:0:0:
448,192,108610,1,4,0:0:0:0:
64,192,108610,1,2,0:0:0:0:
192,192,108760,1,2,0:0:0:0:
320,192,108910,1,2,0:0:0:0:
448,192,109060,1,2,0:0:0:0:
192,192,109210,1,2,0:0:0:0:
64,192,109210,128,4,109810:0:0:0:0:
448,192,109810,128,2,110410:0:0:0:0:
320,192,109810,1,4,0:0:0:0:
192,192,110410,128,4,111010:0:0:0:0:
64,192,110410,1,2,0:0:0:0:
320,192,111010,128,2,111510:0:0:0:0:
448,192,111010,1,0,0:0:0:0:
64,192,112210,128,2,116710:0:0:0:0:
448,192,112210,128,0,116710:0:0:0:0:
