osu file format v14

[General]
AudioFilename: audio.mp3
AudioLeadIn: 0
PreviewTime: 63123
Countdown: 0
SampleSet: Soft
StackLeniency: 0.5
Mode: 0
LetterboxInBreaks: 0
WidescreenStoryboard: 1

[Editor]
Bookmarks: 14195,20001,26582,51356,63743,76130
DistanceSpacing: 1
BeatDivisor: 8
GridSize: 4
TimelineZoom: 2

[Metadata]
Title:My Nonfiction (TV Size)
TitleUnicode:My Nonfiction (TV Size)
Artist:Shirogane Miyuki (CV: Furukawa Makoto) & Fujiwara Chika (CV: Kohara Konomi)
ArtistUnicode:白銀御行(CV: 古川慎) & 藤原千花(CV: 小原好美)
Creator:Kaguya_Sama
Version:Normal
Source:かぐや様は告らせたい-ウルトラロマンティック-
Tags:kaguya-sama wa kokurasetai tensai-tachi no renai zunousen wants to be confessed to kaguya sama love is war ultra romantic season 3 3rd kaguyasama ep episode 5 ed ending anime hiphop rap pop jpop j-pop japanese female male vocals Kawashiro Skymin Civil oath Civil_oath
BeatmapID:3604415
BeatmapSetID:1759891

[Difficulty]
HPDrainRate:4
CircleSize:3.8
OverallDifficulty:4
ApproachRate:5
SliderMultiplier:1.1
SliderTickRate:1

[Events]
//Background and Video events
0,0,"shirogane.png",0,0
Video,-570,"miyuka chika is best rapper.mp4"
//Break Periods
//Storyboard Layer 0 (Background)
//Storyboard Layer 1 (Fail)
//Storyboard Layer 2 (Pass)
//Storyboard Layer 3 (Foreground)
//Storyboard Layer 4 (Overlay)
//Storyboard Sound Samples

[TimingPoints]
1230,387.096774193548,4,2,2,60,1,0
1230,-100,4,2,2,60,0,0
1617,-100,4,2,2,5,0,0
1810,-100,4,2,2,60,0,0
2004,-100,4,2,2,5,0,0
2197,-100,4,2,2,60,0,0
3165,-100,4,2,2,5,0,0
3358,-100,4,2,2,60,0,0
3552,-100,4,2,2,5,0,0
3745,-100,4,2,2,60,0,0
4713,-100,4,2,2,5,0,0
4906,-100,4,2,2,60,0,0
5100,-100,4,2,2,5,0,0
5293,-100,4,2,2,60,0,0
6262,-100,4,2,2,5,0,0
6455,-100,4,2,2,60,0,0
12359,-100,4,2,2,5,0,0
12455,-100,4,2,2,60,0,0
12746,-100,4,2,2,5,0,0
12842,-100,4,2,2,60,0,0
13617,-100,4,2,2,75,0,0
16326,-100,4,2,2,75,0,0
16617,-100,4,2,2,5,0,0
16713,-100,4,2,2,75,0,0
17004,-100,4,2,2,5,0,0
17100,-100,4,2,2,75,0,0
25229,-100,4,2,2,75,0,0
25617,-100,4,2,2,75,0,0
25810,-100,4,2,2,75,0,0
25955,-100,4,2,2,5,0,0
26004,-100,4,2,2,80,0,0
26197,-100,4,2,2,80,0,0
26342,-100,4,2,2,5,0,0
26391,-100,4,2,2,80,0,0
27891,-100,4,2,2,5,0,0
27940,-100,4,2,2,80,0,0
31181,-100,4,2,2,5,0,0
31230,-100,4,2,2,80,0,0
35633,-100,4,2,2,5,0,0
35682,-100,4,2,2,80,0,0
38391,-100,4,2,2,90,0,0
39504,-100,4,2,2,5,0,0
39552,-100,4,2,2,90,0,0
39939,-100,4,2,2,90,0,0
41052,-100,4,2,2,5,0,0
41100,-100,4,2,2,90,0,0
41681,-100,4,2,2,90,0,0
44197,-100,4,2,2,90,0,0
44342,-100,4,2,2,5,0,0
44391,-100,4,2,2,90,0,0
44584,-100,4,2,2,90,0,0
49229,-100,4,2,2,70,0,0
49423,-100,4,2,2,70,0,0
50778,-100,4,2,2,80,0,0
52326,-100,4,2,2,80,0,0
53875,-100,4,2,2,80,0,0
55423,-100,4,2,2,80,0,0
55810,-100,4,2,2,80,0,0
56197,-100,4,2,2,80,0,0
56971,-100,4,2,2,80,0,0
58520,-100,4,2,2,80,0,0
59294,-100,4,2,2,80,0,0
60262,-100,4,2,2,80,0,0
61229,-100,4,2,2,80,0,0
63165,-100,4,2,2,100,0,0
63504,-100,4,2,2,5,0,0
63552,-100,4,2,2,100,0,0
66407,-100,4,2,2,5,0,0
66455,-100,4,2,2,100,0,0
69697,-100,4,2,2,5,0,0
69745,-100,4,2,2,100,0,0
72455,-100,4,2,2,100,0,0
72600,-100,4,2,2,5,0,0
72649,-100,4,2,2,100,0,0
72842,-100,4,2,2,100,0,0
72988,-100,4,2,2,5,0,0
73036,-100,4,2,2,100,0,0
73229,-100,4,2,2,100,0,0
73617,-100,4,2,2,100,0,0
73907,-100,4,2,2,5,0,0
74004,-100,4,2,2,100,0,0
74294,-100,4,2,2,5,0,0
74391,-100,4,2,2,100,0,0
75552,-100,4,2,2,95,0,0
86391,-100,4,2,2,85,0,0
86584,-100,4,2,2,80,0,0
86778,-100,4,2,2,75,0,0
86971,-100,4,2,2,70,0,0
87165,-100,4,2,2,65,0,0
87359,-100,4,2,2,60,0,0
87552,-100,4,2,2,70,0,0
87746,-100,4,2,2,60,0,0

[Colours]
Combo1 : 151,167,223
Combo2 : 253,193,83
Combo3 : 100,100,100
Combo4 : 243,191,12

[HitObjects]
165,265,1229,6,0,B|224:258|224:258|249:279|249:279|325:268,2,165,2|2|2,0:0|0:0|0:0,0:0:0:0:
78,341,2777,1,2,0:0:0:0:
27,175,3358,1,2,0:0:0:0:
195,134,3938,1,2,0:0:0:0:
274,50,4325,6,0,P|351:71|437:87,2,165,2|2|2,0:0|0:0|0:0,0:0:0:0:
161,24,5874,1,2,0:0:0:0:
122,192,6454,1,2,0:0:0:0:
234,218,6841,1,2,0:0:0:0:
234,218,7035,2,0,P|270:205|298:201,1,55,2|2,0:0|0:0,0:0:0:0:
344,202,7422,6,0,P|392:214|409:215,2,55,2|2|2,0:0|0:0|0:0,0:0:0:0:
175,44,8583,1,2,0:0:0:0:
91,123,8970,2,0,P|102:164|104:181,2,55,2|2|2,0:0|0:0|0:0,0:0:0:0:
304,33,10132,1,2,0:0:0:0:
404,89,10519,6,0,P|411:128|433:197,1,110,2|2,0:0|0:0,0:0:0:0:
468,246,11099,1,2,0:0:0:0:
468,246,11293,2,0,L|459:307,2,55,2|2|2,0:0|0:0|0:0,0:0:0:0:
388,329,12067,5,2,0:0:0:0:
274,310,12454,1,2,0:0:0:0:
159,291,12841,1,2,0:0:0:0:
159,291,13035,2,0,B|90:280|135:242|52:224,1,110,2|2,0:0|0:0,0:0:0:0:
20,204,13616,6,0,P|17:163|76:123,1,110,2|2,3:2|3:2,0:0:0:0:
142,35,14390,2,0,P|199:58|268:62,1,110,10|2,0:0|0:0,0:0:0:0:
301,40,14970,1,2,3:2:0:0:
301,40,15164,2,0,P|342:39|376:98,1,110,2|2,3:2|3:2,0:0:0:0:
416,200,15938,2,0,B|368:214|368:214|357:227|357:227|299:242,1,110,10|2,0:0|0:0,0:0:0:0:
251,334,16712,5,2,3:2:0:0:
135,333,17099,2,0,P|145:292|148:266,1,55,2|2,3:2|0:0,0:0:0:0:
108,235,17487,2,0,P|58:234|18:182,1,110,10|2,0:0|0:0,0:0:0:0:
31,135,18067,1,2,3:2:0:0:
31,135,18261,2,0,P|42:65|46:23,1,110,2|2,3:2|3:2,0:0:0:0:
146,82,19035,2,0,P|190:71|211:64,1,55,10|2,0:0|3:2,0:0:0:0:
254,50,19422,1,2,0:0:0:0:
363,85,19809,6,0,P|397:86|431:106,1,55,2|2,3:2|0:0,0:0:0:0:
450,140,20196,1,2,3:2:0:0:
383,234,20583,2,0,P|421:258|442:260,2,55,10|2|2,0:0|0:0|0:0,0:0:0:0:
338,205,21164,1,2,3:2:0:0:
338,205,21358,2,0,B|287:212|287:212|278:210|278:210|217:220,1,110,2|2,3:2|3:2,0:0:0:0:
138,146,22132,2,0,P|107:133|87:127,2,55,10|2|2,0:0|3:2|0:0,0:0:0:0:
224,69,22906,6,0,P|211:38|205:18,2,55,2|2|2,3:2|0:0|3:2,0:0:0:0:
324,126,23680,2,0,P|311:150|314:237,1,110,10|2,0:0|0:0,0:0:0:0:
418,275,24454,1,2,3:2:0:0:
418,275,24648,2,0,B|454:257|471:257,2,55,2|2|2,0:0|3:2|0:0,0:0:0:0:
381,319,25228,2,0,P|340:343|232:306,1,165,10|10,0:0|0:0,0:0:0:0:
122,307,26196,5,2,0:0:0:0:
122,307,26390,2,0,P|116:278|102:243,1,55,10|2,0:0|0:0,0:0:0:0:
89,199,26777,2,0,P|131:162|191:174,1,110,2|10,0:0|0:0,0:0:0:0:
219,211,27358,1,2,0:0:0:0:
336,196,27745,1,2,0:0:0:0:
336,196,27938,2,0,L|395:184,1,55,10|2,0:0|0:0,0:0:0:0:
447,191,28325,2,0,B|461:164|461:164|435:71,1,110,2|10,0:0|0:0,0:0:0:0:
423,32,28906,1,2,3:2:0:0:
323,77,29293,5,2,0:0:0:0:
323,77,29487,2,0,P|275:64|247:62,1,55,10|2,0:0|0:0,0:0:0:0:
223,93,29874,2,0,B|177:108|177:108|163:123|163:123|107:138,1,110,2|10,0:0|0:0,0:0:0:0:
75,118,30454,1,2,0:0:0:0:
75,118,30648,2,0,P|34:176|56:227,1,110,2|10,3:2|0:0,0:0:0:0:
114,299,31422,1,2,0:0:0:0:
114,299,31616,2,0,L|175:287,1,55,2|10,3:2|0:0,0:0:0:0:
224,278,32003,1,2,3:2:0:0:
331,318,32390,6,0,P|388:346|441:322,1,110,2|2,0:0|0:0,0:0:0:0:
459,286,32970,2,0,P|446:239|448:216,1,55,2|2,0:0|3:2,0:0:0:0:
455,178,33358,2,0,P|461:133|459:109,1,55,10|2,0:0|0:0,0:0:0:0:
438,73,33745,1,2,3:2:0:0:
338,26,34132,2,0,P|306:40|281:44,1,55,10|2,0:0|0:0,0:0:0:0:
237,68,34519,2,0,B|171:58|215:36|135:24,1,110,2|10,0:0|0:0,0:0:0:0:
91,51,35099,1,2,3:2:0:0:
47,154,35487,5,2,0:0:0:0:
47,154,35680,2,0,P|95:165|119:178,1,55,10|2,0:0|0:0,0:0:0:0:
135,209,36067,2,0,P|169:219|228:172,1,110,2|10,0:0|0:0,0:0:0:0:
248,130,36648,1,2,0:0:0:0:
248,130,36841,2,0,P|241:96|241:69,1,55,2|2,3:2|3:2,0:0:0:0:
283,41,37228,1,10,0:0:0:0:
353,125,37616,2,0,P|366:159|365:184,1,55,2|2,0:0|3:2,0:0:0:0:
353,230,38003,2,0,P|343:277|350:303,1,55,10|2,0:0|3:2,0:0:0:0:
363,334,38390,6,0,B|288:309|322:358|232:328,1,110,4|10,3:2|0:0,0:0:0:0:
204,317,38970,1,2,0:0:0:0:
204,317,39164,2,0,P|186:268|213:212,1,110,2|8,0:0|0:0,0:0:0:0:
157,124,39938,1,0,3:2:0:0:
157,124,40132,2,0,P|146:76|140:58,2,55,2|10|2,0:0|0:0|0:0,0:0:0:0:
138,175,40712,2,0,B|88:187|88:187|81:197|81:197|20:209,1,110,2|8,0:0|0:0,0:0:0:0:
74,314,41487,5,4,3:2:0:0:
74,314,41680,2,0,P|81:359|91:376,2,55,2|10|0,0:0|0:0|0:0,0:0:0:0:
105,268,42261,2,0,P|161:258|202:299,1,110,2|8,0:0|0:0,0:0:0:0:
231,334,42841,1,2,0:0:0:0:
231,334,43035,1,2,3:2:0:0:
340,324,43422,2,0,P|347:286|352:264,1,55,10|2,0:0|0:0,0:0:0:0:
394,236,43809,2,0,P|387:198|382:176,1,55,2|2,0:0|3:2,0:0:0:0:
362,131,44196,1,10,0:0:0:0:
345,22,44583,6,0,B|266:36|321:49|234:62,1,110,6|10,3:2|0:0,0:0:0:0:
203,97,45164,1,2,0:0:0:0:
203,97,45358,2,0,P|135:72|80:69,1,110,2|8,0:0|0:0,0:0:0:0:
24,150,46132,2,0,P|35:191|39:220,1,55,2|2,3:2|0:0,0:0:0:0:
34,258,46519,2,0,P|25:299|23:312,1,55,10|2,0:0|0:0,0:0:0:0:
47,361,46906,2,0,P|116:336|167:330,1,110,2|8,0:0|0:0,0:0:0:0:
203,349,47487,1,2,3:2:0:0:
203,349,47680,6,0,P|237:320|214:250,1,110,2|10,3:2|0:0,0:0:0:0:
121,232,48454,2,0,P|99:209|100:175,1,55,2|2,0:0|3:2,0:0:0:0:
129,142,48841,2,0,P|162:140|200:131,1,55,10|2,0:0|0:0,0:0:0:0:
216,92,49228,1,8,0:0:0:0:
216,92,49422,6,0,P|294:83|312:47,2,110,2|2|2,3:2|3:2|3:2,0:0:0:0:
177,52,50390,1,2,0:0:0:0:
67,66,50777,6,0,P|85:127|104:243,1,165,6|2,3:2|3:2,0:0:0:0:
77,275,51551,2,0,P|82:304|106:336,1,55,10|2,0:0|0:0,0:0:0:0:
145,348,51938,2,0,P|192:340|208:339,1,55,2|2,0:0|3:2,0:0:0:0:
253,350,52325,1,2,3:2:0:0:
398,272,52906,1,2,3:2:0:0:
398,272,53099,2,0,P|385:226|384:202,1,55,10|2,0:0|3:2,0:0:0:0:
391,164,53487,2,0,P|398:130|394:94,1,55,6|2,0:0|3:2,0:0:0:0:
370,61,53874,6,0,P|299:75|191:82,1,165,6|2,3:2|3:2,0:0:0:0:
153,66,54648,2,0,P|108:65|87:87,1,55,10|2,0:0|0:0,0:0:0:0:
66,112,55035,2,0,P|76:157|80:189,1,55,2|2,0:0|3:2,0:0:0:0:
60,218,55422,1,2,3:2:0:0:
107,316,55809,1,2,0:0:0:0:
207,271,56196,1,10,0:0:0:0:
374,295,56777,1,2,3:2:0:0:
374,295,56970,6,0,B|282:316|341:356|217:384,1,165,6|2,3:2|3:2,0:0:0:0:
181,377,57745,2,0,P|157:363|141:340,1,55,10|2,0:0|0:0,0:0:0:0:
125,288,58132,2,0,P|119:248|109:216,1,55,2|2,0:0|3:2,0:0:0:0:
150,191,58519,1,2,3:2:0:0:
73,44,59099,2,0,P|114:11|162:30,1,110,2|2,3:2|3:2,0:0:0:0:
202,68,59680,2,0,P|227:58|267:50,1,55,6|2,0:0|3:2,0:0:0:0:
308,63,60067,6,0,B|352:149|280:144|320:224,1,165,14|10,0:0|0:0,0:0:0:0:
407,295,61035,1,2,3:2:0:0:
407,295,61228,1,10,0:0:0:0:
315,357,61616,2,0,P|275:345|200:334,1,110,0|2,3:2|3:2,0:0:0:0:
172,299,62196,1,2,3:2:0:0:
172,299,62390,2,0,P|163:259|152:233,1,55,10|0,0:0|3:2,0:0:0:0:
110,218,62777,1,0,3:2:0:0:
170,126,63164,5,4,3:2:0:0:
129,88,63358,2,0,P|81:104|52:105,2,55,2|10|2,0:0|0:0|0:0,0:0:0:0:
158,41,63938,2,0,P|204:20|262:47,1,110,2|10,0:0|0:0,0:0:0:0:
281,95,64519,1,2,0:0:0:0:
281,95,64712,2,0,P|272:145|278:167,1,55,2|2,3:2|0:0,0:0:0:0:
296,198,65099,1,10,0:0:0:0:
388,258,65487,2,0,P|386:285|374:314,1,55,2|2,0:0|3:2,0:0:0:0:
328,338,65874,2,0,P|299:333|263:334,1,55,14|2,0:0|3:2,0:0:0:0:
218,335,66261,5,4,3:2:0:0:
218,335,66454,2,0,B|158:309|201:296|117:271,1,110,2|2,0:0|0:0,0:0:0:0:
74,283,67035,1,2,0:0:0:0:
27,183,67422,1,10,0:0:0:0:
27,183,67616,1,2,0:0:0:0:
57,137,67809,2,0,P|94:138|120:152,1,55,2|2,3:2|0:0,0:0:0:0:
152,180,68196,2,0,P|191:192|216:190,1,55,10|2,0:0|0:0,0:0:0:0:
256,173,68583,1,2,0:0:0:0:
347,234,68970,2,0,P|389:226|412:227,1,55,10|2,0:0|3:2,0:0:0:0:
459,224,69358,5,4,3:2:0:0:
459,224,69551,2,0,P|473:169|476:146,2,55,2|10|2,0:0|0:0|0:0,0:0:0:0:
491,268,70132,2,0,P|487:312|426:334,1,110,2|10,0:0|0:0,0:0:0:0:
381,337,70712,1,2,0:0:0:0:
381,337,70906,2,0,P|333:339|314:346,1,55,2|2,3:2|0:0,0:0:0:0:
276,363,71293,1,10,0:0:0:0:
168,339,71680,2,0,P|158:288|153:274,1,55,2|2,0:0|3:2,0:0:0:0:
134,234,72067,2,0,P|126:207|123:180,1,55,14|2,0:0|3:2,0:0:0:0:
130,125,72454,5,6,3:2:0:0:
235,155,72841,1,10,0:0:0:0:
340,185,73228,1,2,0:0:0:0:
445,218,73616,2,0,P|442:170|439:145,1,55,10|2,0:0|0:0,0:0:0:0:
437,108,74003,5,2,3:2:0:0:
332,78,74390,1,10,0:0:0:0:
227,48,74777,1,2,0:0:0:0:
122,15,75165,2,0,P|125:63|128:88,1,55,10|0,0:0|3:2,0:0:0:0:
84,105,75551,6,0,P|61:161|91:219,1,110,6|8,3:2|0:0,0:0:0:0:
126,228,76132,2,0,P|180:217|260:216,1,110,2|0,3:2|0:0,0:0:0:0:
287,229,76712,1,10,0:0:0:0:
367,303,77099,2,0,P|358:343|356:367,2,55,2|0|8,3:2|0:0|0:0,0:0:0:0:
416,278,77680,2,0,P|443:243|425:175,1,110,0|0,3:2|0:0,0:0:0:0:
386,149,78261,1,14,0:0:0:0:
292,207,78648,6,0,P|246:219|228:227,1,55,6|0,3:2|3:2,0:0:0:0:
186,236,79035,1,8,0:0:0:0:
186,236,79228,2,0,B|143:221|143:221|135:205|135:205|72:182,1,110,2|0,3:2|3:2,0:0:0:0:
38,174,79809,1,10,0:0:0:0:
86,75,80196,2,0,B|129:60|129:60|137:44|137:44|200:21,1,110,2|8,3:2|0:0,0:0:0:0:
235,23,80777,2,0,P|270:45|273:119,1,110,0|0,3:2|3:2,0:0:0:0:
259,160,81358,1,10,0:0:0:0:
323,248,81745,6,0,P|268:256|208:291,1,110,6|8,3:2|0:0,0:0:0:0:
178,316,82325,2,0,P|139:313|102:242,1,110,2|0,3:2|3:2,0:0:0:0:
116,205,82906,1,10,0:0:0:0:
76,102,83293,2,0,P|40:117|17:124,2,55,2|0|8,3:2|3:2|0:0,0:0:0:0:
103,54,83874,2,0,P|153:25|216:48,1,110,0|0,3:2|3:2,0:0:0:0:
239,75,84454,1,14,0:0:0:0:
348,62,84841,6,0,P|327:141|325:193,1,110,6|8,3:2|0:0,0:0:0:0:
359,211,85422,2,0,P|382:247|366:317,1,110,2|0,3:2|0:0,0:0:0:0:
326,343,86003,1,10,0:0:0:0:
218,319,86390,5,10,0:0:0:0:
218,319,86583,1,0,3:0:0:0:
117,287,86970,1,0,3:0:0:0:
117,287,87164,1,0,3:0:0:0:
14,247,87551,2,0,L|26:176,1,55,8|0,0:0|3:0,0:0:0:0:
