osu file format v14

[General]
AudioFilename: audio.mp3
AudioLeadIn: 0
PreviewTime: 63165
Countdown: 0
SampleSet: Soft
StackLeniency: 0.7
Mode: 3
LetterboxInBreaks: 0
SpecialStyle: 0
WidescreenStoryboard: 0

[Editor]
DistanceSpacing: 1
BeatDivisor: 2
GridSize: 4
TimelineZoom: 1.1

[Metadata]
Title:My Nonfiction (TV Size)
TitleUnicode:My Nonfiction (TV Size)
Artist:Shirogane Miyuki (CV: Furukawa Makoto) & Fujiwara Chika (CV: Kohara Konomi)
ArtistUnicode:白銀御行(CV: 古川慎)& 藤原千花(CV: 小原好美)
Creator:Chrisse
Version:Easy
Source:かぐや様は告らせたい-ウルトラロマンティック-
Tags:kaguya-sama wa kokurasetai tensai-tachi no renai zunousen wants to be confessed to hiphop rap pop jpop j-pop hip hop japanese kaguya sama love is war ultra romantic season 3 3rd kaguyasama ep episode 5 ed ending anime aniplex akkogorilla parkgolf アニメ Aka Akasaka 赤坂 アカ
BeatmapID:4101996
BeatmapSetID:1976327

[Difficulty]
HPDrainRate:6.5
CircleSize:4
OverallDifficulty:6.5
ApproachRate:5
SliderMultiplier:1.4
SliderTickRate:1

[Events]
//Background and Video events
0,0,"background.jpg",0,0
//Break Periods
//Storyboard Layer 0 (Background)
//Storyboard Layer 1 (Fail)
//Storyboard Layer 2 (Pass)
//Storyboard Layer 3 (Foreground)
//Storyboard Layer 4 (Overlay)
//Storyboard Sound Samples
Sample,26971,0,"Hat open.wav",40
Sample,28520,0,"Hat open.wav",40
Sample,28907,0,"hihat.wav",40
Sample,30068,0,"Hat open.wav",40
Sample,32004,0,"hihat.wav",40
Sample,32197,0,"hihat.wav",40
Sample,33165,0,"Hat open.wav",40
Sample,34713,0,"Hat open.wav",40
Sample,35100,0,"hihat.wav",40
Sample,36262,0,"Hat open.wav",40
Sample,37036,0,"Hat open.wav",40
Sample,39359,0,"hihat.wav",40
Sample,40907,0,"hihat.wav",40
Sample,44004,0,"hihat.wav",40
Sample,44391,0,"hihat.wav",40
Sample,45552,0,"hihat.wav",40
Sample,47100,0,"hihat.wav",40
Sample,47488,0,"hihat.wav",40
Sample,47681,0,"hihat.wav",40
Sample,48649,0,"hihat.wav",40
Sample,51359,0,"hihat.wav",40
Sample,51552,0,"hihat.wav",40
Sample,52133,0,"hihat.wav",40
Sample,52907,0,"hihat.wav",40
Sample,53100,0,"hihat.wav",40
Sample,53294,0,"hihat.wav",40
Sample,53681,0,"hihat.wav",40
Sample,54455,0,"hihat.wav",40
Sample,54649,0,"hihat.wav",40
Sample,55229,0,"hihat.wav",40
Sample,56004,0,"hihat.wav",40
Sample,56778,0,"hihat.wav",40
Sample,57552,0,"hihat.wav",40
Sample,57746,0,"hihat.wav",40
Sample,58326,0,"hihat.wav",40
Sample,59100,0,"hihat.wav",40
Sample,59294,0,"hihat.wav",40
Sample,59875,0,"hihat.wav",40
Sample,60649,0,"hihat.wav",40
Sample,61036,0,"hihat.wav",40
Sample,62391,0,"hihat.wav",40
Sample,62778,0,"hihat.wav",40
Sample,62971,0,"Hat open.wav",50
Sample,65681,0,"hihat.wav",40
Sample,67229,0,"hihat.wav",40
Sample,68778,0,"hihat.wav",40
Sample,70326,0,"hihat.wav",40
Sample,71488,0,"hihat.wav",40
Sample,71875,0,"hihat.wav",40
Sample,73423,0,"hihat.wav",40
Sample,74971,0,"hihat.wav",40
Sample,75165,0,"hihat.wav",40
Sample,75359,0,"hihat.wav",40
Sample,76133,0,"hihat.wav",40
Sample,77681,0,"hihat.wav",40
Sample,78455,0,"Hat open.wav",30
Sample,78842,0,"hihat.wav",40
Sample,79229,0,"hihat.wav",40
Sample,79617,0,"hihat.wav",40
Sample,80778,0,"hihat.wav",40
Sample,81165,0,"hihat.wav",40
Sample,81552,0,"hihat.wav",40
Sample,82326,0,"hihat.wav",40
Sample,82713,0,"hihat.wav",40
Sample,83488,0,"hihat.wav",40
Sample,83875,0,"hihat.wav",40
Sample,84262,0,"hihat.wav",40
Sample,84649,0,"Hat open.wav",30
Sample,85423,0,"hihat.wav",40
Sample,86778,0,"hihat.wav",40

[TimingPoints]
1230,387.096774193548,4,2,1,40,1,0
50778,-100,4,2,1,40,0,1
75552,-100,4,2,1,40,0,0

[HitObjects]
64,192,1230,5,0,0:0:0:0:
320,192,1810,1,0,0:0:0:0:
192,192,2391,1,0,0:0:0:0:
448,192,2778,1,0,0:0:0:0:
64,192,3359,1,0,0:0:0:0:
320,192,3939,1,0,0:0:0:0:
192,192,4326,1,0,0:0:0:0:
448,192,4907,1,0,0:0:0:0:
64,192,5488,1,0,0:0:0:0:
192,192,5875,1,0,0:0:0:0:
448,192,6455,1,0,0:0:0:0:
192,192,7036,1,0,0:0:0:0:
320,192,7423,1,0,0:0:0:0:
64,192,8004,1,0,0:0:0:0:
192,192,8584,1,0,0:0:0:0:
320,192,8971,1,0,0:0:0:0:
448,192,9552,1,0,0:0:0:0:
64,192,10133,1,0,0:0:0:0:
448,192,10520,1,0,0:0:0:0:
192,192,11100,1,0,0:0:0:0:
320,192,11681,1,0,0:0:0:0:
64,192,12068,128,0,12455:0:0:0:0:
320,192,12455,128,0,12842:0:0:0:0:
192,192,12842,128,0,13229:0:0:0:0:
448,192,13229,1,0,0:0:0:0:
64,192,13617,1,2,0:0:0:0:
192,192,13617,1,0,0:0:0:0:
320,192,14004,1,2,0:0:0:0:
448,192,14391,1,8,0:0:0:0:
64,192,14971,1,2,0:0:0:0:
320,192,15165,1,2,0:0:0:0:
192,192,15552,1,2,0:0:0:0:
448,192,15939,1,8,0:0:0:0:
64,192,16713,1,2,0:0:0:0:
320,192,17100,1,2,0:0:0:0:
192,192,17488,1,8,0:0:0:0:
448,192,18068,1,2,0:0:0:0:
64,192,18262,1,2,0:0:0:0:
320,192,18649,1,2,0:0:0:0:
192,192,19036,1,8,0:0:0:0:
448,192,19229,1,2,0:0:0:0:
320,192,19617,1,8,0:0:0:0:
64,192,19810,1,2,0:0:0:0:
448,192,20197,1,2,0:0:0:0:
192,192,20584,1,8,0:0:0:0:
64,192,21165,1,2,0:0:0:0:
320,192,21359,1,2,0:0:0:0:
192,192,21746,1,2,0:0:0:0:
448,192,22133,1,8,0:0:0:0:
64,192,22326,1,2,0:0:0:0:
192,192,22713,1,2,0:0:0:0:
320,192,22907,1,2,0:0:0:0:
64,192,23294,1,2,0:0:0:0:
448,192,23681,1,8,0:0:0:0:
192,192,24262,1,2,0:0:0:0:
320,192,24455,1,2,0:0:0:0:
64,192,24842,1,2,0:0:0:0:
448,192,25229,1,8,0:0:0:0:
192,192,25423,1,2,0:0:0:0:
320,192,25617,1,0,0:0:0:0:
64,192,25810,1,8,0:0:0:0:
448,192,26004,1,2,0:0:0:0:
192,192,26391,1,8,0:0:0:0:
320,192,26584,1,0,0:0:0:0:
64,192,26971,1,2,0:0:0:0:
448,192,27165,1,8,0:0:0:0:
192,192,27552,1,2,0:0:0:0:
320,192,27939,1,8,0:0:0:0:
64,192,28133,1,0,0:0:0:0:
448,192,28520,1,2,0:0:0:0:
192,192,28713,1,8,0:0:0:0:
320,192,28907,1,2,0:0:0:0:
64,192,29100,1,6,0:0:0:0:
448,192,29488,1,8,0:0:0:0:
192,192,29681,1,0,0:0:0:0:
64,192,30068,1,2,0:0:0:0:
320,192,30262,1,8,0:0:0:0:
192,192,30649,1,2,0:0:0:0:
448,192,31036,1,8,0:0:0:0:
64,192,31229,1,0,0:0:0:0:
192,192,31617,1,2,0:0:0:0:
320,192,31810,1,8,0:0:0:0:
64,192,32004,1,2,0:0:0:0:
448,192,32197,1,2,0:0:0:0:
192,192,32584,1,8,0:0:0:0:
320,192,32778,1,0,0:0:0:0:
64,192,33165,1,2,0:0:0:0:
448,192,33359,1,8,0:0:0:0:
192,192,33746,1,2,0:0:0:0:
320,192,34133,1,8,0:0:0:0:
64,192,34326,1,0,0:0:0:0:
192,192,34713,1,2,0:0:0:0:
448,192,34907,1,8,0:0:0:0:
64,192,35100,1,2,0:0:0:0:
320,192,35294,1,6,0:0:0:0:
192,192,35681,1,8,0:0:0:0:
448,192,35875,1,0,0:0:0:0:
320,192,36262,1,2,0:0:0:0:
64,192,36455,1,8,0:0:0:0:
448,192,36842,1,2,0:0:0:0:
320,192,37036,1,2,0:0:0:0:
64,192,37229,1,8,0:0:0:0:
192,192,37423,1,2,0:0:0:0:
320,192,37810,1,2,0:0:0:0:
64,192,38004,1,8,0:0:0:0:
448,192,38197,1,2,0:0:0:0:
64,192,38391,1,2,0:0:0:0:
192,192,38391,1,4,0:0:0:0:
320,192,38778,1,8,0:0:0:0:
192,192,38971,1,0,0:0:0:40:hihat.wav
64,192,39359,1,2,0:0:0:0:
448,192,39552,1,8,0:0:0:0:
192,192,39939,1,2,0:0:0:0:
64,192,40326,1,8,0:0:0:0:
320,192,40520,1,0,0:0:0:40:hihat.wav
448,192,40907,1,2,0:0:0:0:
192,192,41100,1,8,0:0:0:0:
320,192,41488,1,2,0:0:0:0:
448,192,41488,1,4,0:0:0:0:
64,192,41875,1,8,0:0:0:0:
448,192,42068,1,0,0:0:0:40:hihat.wav
192,192,42455,1,2,0:0:0:0:
320,192,42649,1,8,0:0:0:0:
64,192,43036,1,2,0:0:0:0:
320,192,43423,1,8,0:0:0:0:
192,192,43617,1,0,0:0:0:40:hihat.wav
64,192,44004,1,2,0:0:0:0:
448,192,44197,1,8,0:0:0:0:
192,192,44391,1,2,0:0:0:0:
320,192,44584,1,2,0:0:0:0:
448,192,44584,1,4,0:0:0:0:
64,192,44971,1,8,0:0:0:0:
320,192,45165,1,0,0:0:0:40:hihat.wav
448,192,45552,1,2,0:0:0:0:
192,192,45746,1,8,0:0:0:0:
320,192,46133,1,2,0:0:0:0:
64,192,46520,1,8,0:0:0:0:
448,192,46713,1,0,0:0:0:40:hihat.wav
320,192,47100,1,2,0:0:0:0:
64,192,47294,1,8,0:0:0:0:
448,192,47488,1,2,0:0:0:0:
192,192,47681,1,2,0:0:0:0:
320,192,48068,1,8,0:0:0:0:
64,192,48262,1,0,0:0:0:40:hihat.wav
192,192,48649,1,2,0:0:0:0:
448,192,48842,1,8,0:0:0:0:
64,192,49229,1,8,0:0:0:0:
320,192,49423,1,0,0:0:0:0:
448,192,49810,1,8,0:0:0:0:
192,192,50197,1,8,0:0:0:0:
320,192,50391,1,8,0:0:0:0:
64,192,50778,1,2,0:0:0:0:
448,192,50778,1,4,0:0:0:0:
192,192,51359,1,2,0:0:0:0:
448,192,51552,1,8,0:0:0:0:
320,192,52133,1,2,0:0:0:0:
64,192,52326,1,2,0:0:0:0:
192,192,52907,1,2,0:0:0:0:
448,192,53100,1,8,0:0:0:0:
64,192,53294,1,2,0:0:0:0:
320,192,53681,1,2,0:0:0:0:
192,192,53875,1,6,0:0:0:0:
448,192,54455,1,2,0:0:0:0:
64,192,54649,1,8,0:0:0:0:
192,192,55229,1,2,0:0:0:0:
448,192,55423,1,2,0:0:0:0:
320,192,56004,1,2,0:0:0:0:
64,192,56197,1,8,0:0:0:0:
192,192,56778,1,2,0:0:0:0:
320,192,56971,1,4,0:0:0:0:
448,192,56971,1,2,0:0:0:0:
64,192,57552,1,2,0:0:0:0:
320,192,57746,1,8,0:0:0:0:
448,192,58326,1,2,0:0:0:0:
192,192,58520,1,2,0:0:0:0:
320,192,59100,1,2,0:0:0:0:
64,192,59294,1,8,0:0:0:0:
192,192,59875,1,2,0:0:0:0:
448,192,60068,1,10,0:0:0:0:
320,192,60649,1,10,0:0:0:0:
64,192,61036,1,2,0:0:0:0:
448,192,61229,1,12,0:0:0:0:
320,192,61617,128,10,62004:0:0:0:0:
192,192,62004,128,0,62391:0:0:0:40:hihat.wav
448,192,62391,128,10,62778:0:0:0:0:
64,192,62778,1,8,0:0:0:0:
320,192,62971,1,10,0:0:0:0:
64,192,63165,1,4,0:0:0:0:
192,192,63165,1,2,0:0:0:0:
448,192,63552,1,8,0:0:0:0:
64,192,63746,1,0,0:0:0:40:hihat.wav
320,192,64133,1,2,0:0:0:0:
192,192,64326,1,8,0:0:0:0:
448,192,64713,1,2,0:0:0:0:
64,192,65100,1,8,0:0:0:0:
320,192,65294,1,0,0:0:0:40:hihat.wav
192,192,65681,1,2,0:0:0:0:
448,192,65875,1,8,0:0:0:0:
64,192,66068,1,2,0:0:0:0:
320,192,66262,1,6,0:0:0:0:
192,192,66649,1,8,0:0:0:0:
448,192,66842,1,0,0:0:0:40:hihat.wav
320,192,67229,1,2,0:0:0:0:
64,192,67423,1,8,0:0:0:0:
448,192,67810,1,2,0:0:0:0:
192,192,68197,1,8,0:0:0:0:
320,192,68391,1,0,0:0:0:40:hihat.wav
64,192,68778,1,2,0:0:0:0:
448,192,68971,1,8,0:0:0:0:
192,192,69165,1,2,0:0:0:0:
320,192,69359,1,2,0:0:0:0:
448,192,69359,1,4,0:0:0:0:
64,192,69746,1,8,0:0:0:0:
320,192,69939,1,0,0:0:0:40:hihat.wav
448,192,70326,1,2,0:0:0:0:
192,192,70520,1,8,0:0:0:0:
64,192,70907,1,2,0:0:0:0:
320,192,71294,1,8,0:0:0:0:
192,192,71488,1,2,0:0:0:0:
448,192,71875,1,2,0:0:0:0:
64,192,72068,1,12,0:0:0:0:
320,192,72262,1,2,0:0:0:0:
64,192,72455,1,6,0:0:0:0:
192,192,72455,1,8,0:0:0:0:
448,192,72842,1,8,0:0:0:0:
192,192,73036,1,10,0:0:0:0:
320,192,73036,1,0,0:0:0:50:Hat open.wav
64,192,73423,1,2,0:0:0:0:
320,192,73617,1,8,0:0:0:0:
448,192,73617,1,4,0:0:0:0:
64,192,74004,1,6,0:0:0:0:
192,192,74004,1,8,0:0:0:0:
448,192,74391,1,8,0:0:0:0:
192,192,74584,1,2,0:0:0:0:
64,192,74971,1,2,0:0:0:0:
320,192,75165,1,2,0:0:0:0:
192,192,75359,1,2,0:0:0:0:
64,192,75552,1,2,0:0:0:0:
448,192,75552,1,4,0:0:0:0:
320,192,75939,1,8,0:0:0:0:
192,192,76133,1,2,0:0:0:0:
64,192,76713,1,8,0:0:0:0:
448,192,77100,1,2,0:0:0:0:
320,192,77488,1,8,0:0:0:0:
64,192,77681,1,2,0:0:0:0:
448,192,78262,1,8,0:0:0:0:
192,192,78455,1,2,0:0:0:0:
320,192,78649,1,2,0:0:0:0:
64,192,78842,1,2,0:0:0:0:
192,192,79036,1,8,0:0:0:0:
448,192,79229,1,2,0:0:0:0:
64,192,79617,1,2,0:0:0:0:
320,192,79810,1,8,0:0:0:0:
448,192,80197,1,2,0:0:0:0:
192,192,80584,1,8,0:0:0:0:
320,192,80778,1,2,0:0:0:0:
64,192,81165,1,2,0:0:0:0:
192,192,81359,1,8,0:0:0:0:
448,192,81552,1,2,0:0:0:0:
64,192,81746,1,4,0:0:0:0:
320,192,81746,1,2,0:0:0:0:
192,192,82133,1,8,0:0:0:0:
320,192,82326,1,2,0:0:0:0:
448,192,82713,1,2,0:0:0:0:
192,192,82907,1,8,0:0:0:0:
64,192,83294,1,2,0:0:0:0:
448,192,83488,1,2,0:0:0:0:
192,192,83681,1,8,0:0:0:0:
320,192,83875,1,2,0:0:0:0:
448,192,84262,1,2,0:0:0:0:
64,192,84455,1,8,0:0:0:0:
320,192,84649,1,2,0:0:0:0:
192,192,84842,1,2,0:0:0:0:
448,192,85229,1,8,0:0:0:0:
64,192,85423,1,2,0:0:0:0:
320,192,86004,1,8,0:0:0:0:
64,192,86391,1,8,0:0:0:0:
448,192,86584,1,2,0:0:0:0:
320,192,86778,1,2,0:0:0:0:
192,192,86971,1,2,0:0:0:0:
448,192,87359,1,2,0:0:0:0:
64,192,87552,1,8,0:0:0:0:
320,192,87746,1,0,0:0:0:40:hihat.wav
