osu file format v14

[General]
AudioFilename: audio1.mp3
AudioLeadIn: 0
PreviewTime: 146
Countdown: 0
SampleSet: Soft
StackLeniency: 0.7
Mode: 0
LetterboxInBreaks: 0
WidescreenStoryboard: 1

[Editor]
Bookmarks: 1347,14484,24543
DistanceSpacing: 0.9
BeatDivisor: 4
GridSize: 16
TimelineZoom: 1

[Metadata]
Title:Next Episode
TitleUnicode:次回予告
Artist:Shiro Sagisu
ArtistUnicode:鷺巣 詩郎
Creator:Tuffiii
Version:Sonnyc's Normal
Source:新世紀エヴァンゲリオン
Tags:IAmWayneKing Instrumental Classical Anime Mari 0hara Slyme Kyutei Anya Melfissa Anya_Melfissa Neon Genesis Evangelion Ryxliee Sonnyc
BeatmapID:3218345
BeatmapSetID:1572967

[Difficulty]
HPDrainRate:3
CircleSize:3
OverallDifficulty:5
ApproachRate:5.5
SliderMultiplier:1.4
SliderTickRate:1

[Events]
//Background and Video events
0,0,"next episode background.jpg",0,0
//Break Periods
//Storyboard Layer 0 (Background)
//Storyboard Layer 1 (Fail)
//Storyboard Layer 2 (Pass)
//Storyboard Layer 3 (Foreground)
//Storyboard Layer 4 (Overlay)
//Storyboard Sound Samples

[TimingPoints]
146,410.545546607183,4,2,1,70,1,0
351,410.545546607183,4,2,1,70,1,0
13283,-100,4,2,2,55,0,0
16773,-100,4,2,2,60,0,0
20057,-100,4,2,2,65,0,0
23341,-100,4,2,2,85,0,1
26215,-100,4,2,3,100,0,0
26728,-100,4,2,1,5,0,0
26831,-100,4,2,1,70,0,0
27858,-100,4,2,1,65,0,0
28063,-100,4,2,1,60,0,0
28268,-100,4,2,1,55,0,0
28473,-100,4,2,1,50,0,0
28679,-100,4,2,1,45,0,0
28884,-100,4,2,1,40,0,0
29089,-100,4,2,1,30,0,0
29294,-100,4,2,1,20,0,0
29500,-100,4,2,1,15,0,0
29705,-100,4,2,1,10,0,0
30013,-100,4,2,1,5,0,0

[Colours]
Combo1 : 231,118,180
Combo2 : 255,255,0
Combo3 : 122,37,216
Combo4 : 202,54,38

[HitObjects]
41,152,146,6,0,P|64:90|196:91,1,210,4|8,1:2|0:0,0:0:0:0:
229,136,967,2,0,L|239:288,1,140,2|0,0:0|0:0,0:0:0:0:
196,322,1583,1,10,0:0:0:0:
315,361,1993,2,0,L|385:356,1,70,0|2,1:2|0:0,0:0:0:0:
435,318,2404,2,0,L|440:248,1,70,10|0,0:0|0:0,0:0:0:0:
389,209,2814,5,4,1:2:0:0:
343,252,3019,1,2,0:0:0:0:
288,219,3224,1,10,0:0:0:0:
302,158,3429,1,0,0:0:0:0:
364,152,3635,6,0,P|379:92|335:30,1,140,6|8,1:2|0:0,0:0:0:0:
274,21,4251,2,0,L|134:30,1,140,2|0,0:0|0:0,0:0:0:0:
80,62,4867,2,0,B|46:99|53:157|93:185|93:185|134:213|140:271|107:308,1,280,10|8,0:0|0:0,0:0:0:0:
214,373,6099,5,2,1:2:0:0:
276,363,6304,1,2,0:0:0:0:
338,353,6509,1,8,0:0:0:0:
383,310,6714,6,0,P|400:212|317:159,1,210,4|8,0:0|0:0,0:0:0:0:
256,176,7535,2,0,L|266:24,1,140,2|0,0:0|0:0,0:0:0:0:
321,8,8151,1,10,0:0:0:0:
389,113,8562,2,0,L|459:108,1,70,0|2,1:2|0:0,0:0:0:0:
498,156,8973,2,0,L|493:226,1,70,10|2,0:0|0:0,0:0:0:0:
460,279,9383,5,4,1:2:0:0:
398,289,9588,1,0,0:0:0:0:
336,299,9793,1,8,0:0:0:0:
283,264,9999,1,2,0:0:0:0:
230,229,10204,6,0,P|172:221|114:292,1,140,4|8,1:2|0:0,0:0:0:0:
71,230,10820,2,0,P|106:183|74:98,1,140,2|0,0:0|0:0,0:0:0:0:
149,91,11436,2,0,P|171:145|261:159,1,140,10|0,0:0|1:2,0:0:0:0:
326,261,12257,1,8,0:0:0:0:
425,183,12667,5,2,1:2:0:0:
418,120,12872,1,2,0:0:0:0:
354,110,13077,1,10,0:0:0:0:
325,166,13282,1,8,0:0:0:0:
370,211,13488,6,0,L|362:366,1,140,0|8,1:2|0:2,0:0:0:0:
258,279,14310,2,0,L|265:139,1,140,0|8,1:2|0:0,0:0:0:0:
155,203,15131,2,0,L|147:358,1,140,0|8,1:2|0:0,0:0:0:0:
35,287,15952,5,2,1:2:0:0:
25,225,16157,1,2,0:0:0:0:
15,163,16362,1,8,0:0:0:0:
5,101,16568,1,2,0:0:0:0:
38,47,16773,6,0,L|193:39,1,140,4|8,1:2|0:0,0:0:0:0:
150,162,17594,2,0,L|305:154,1,140,0|8,1:2|0:0,0:0:0:0:
262,277,18415,2,0,L|417:269,1,140,0|8,1:2|0:0,0:0:0:0:
371,147,19236,5,2,1:2:0:0:
434,153,19441,1,2,0:0:0:0:
471,102,19647,1,10,0:0:0:0:
445,44,19852,1,2,0:0:0:0:
382,38,20057,6,0,L|227:46,1,140,4|8,1:2|0:0,0:0:0:0:
123,3,20878,2,0,L|131:158,1,140,0|8,1:2|0:0,0:0:0:0:
77,257,21699,2,0,L|232:249,1,140,0|8,1:2|0:0,0:0:0:0:
336,292,22520,2,0,L|328:137,1,140,0|8,1:2|0:0,0:0:0:0:
412,57,23342,22,0,B|477:30|477:30|486:99,1,140,6|8,0:0|0:0,0:0:0:0:
439,141,23957,2,0,B|504:114|504:114|513:183,1,140,4|8,1:2|0:0,0:0:0:0:
471,230,24573,2,0,B|406:203|406:203|397:272,1,140,4|8,1:2|0:0,0:0:0:0:
444,314,25189,2,0,B|379:287|379:287|370:356,1,140,4|8,1:2|0:0,0:0:0:0:
310,334,25805,1,4,1:2:0:0:
185,352,26215,1,12,0:0:0:0:
256,192,26421,12,0,30526,0:0:0:0:
