osu file format v14

[General]
AudioFilename: audio1.mp3
AudioLeadIn: 0
PreviewTime: 146
Countdown: 0
SampleSet: Soft
StackLeniency: 0.7
Mode: 0
LetterboxInBreaks: 0
WidescreenStoryboard: 1

[Editor]
DistanceSpacing: 0.7
BeatDivisor: 4
GridSize: 32
TimelineZoom: 1.9

[Metadata]
Title:Next Episode
TitleUnicode:次回予告
Artist:Shiro Sagisu
ArtistUnicode:鷺巣 詩郎
Creator:Tuffiii
Version:Slyme's Insane
Source:新世紀エヴァンゲリオン
Tags:IAmWayneKing Instrumental Classical Anime Mari 0hara Slyme Kyutei Anya Melfissa Anya_Melfissa Neon Genesis Evangelion Ryxliee Sonnyc
BeatmapID:3274869
BeatmapSetID:1572967

[Difficulty]
HPDrainRate:5.2
CircleSize:4.4
OverallDifficulty:8.6
ApproachRate:9
SliderMultiplier:1.6
SliderTickRate:1

[Events]
//Background and Video events
0,0,"next episode background.jpg",0,0
//Break Periods
//Storyboard Layer 0 (Background)
//Storyboard Layer 1 (Fail)
//Storyboard Layer 2 (Pass)
//Storyboard Layer 3 (Foreground)
//Storyboard Layer 4 (Overlay)
//Storyboard Sound Samples

[TimingPoints]
146,410.545546607183,4,2,1,70,1,0
146,-62.5,4,2,1,70,0,0
351,410.545546607183,4,2,1,100,1,0
453,-62.5,4,2,1,5,0,0
555,-62.5,4,2,1,70,0,0
658,-62.5,4,2,1,5,0,0
761,-62.5,4,2,1,70,0,0
864,-62.5,4,2,1,5,0,0
965,-66.6666666666667,4,2,2,70,0,0
1069,-66.6666666666667,4,2,1,70,0,0
1273,-62.5,4,2,1,5,0,0
1377,-66.6666666666667,4,2,1,70,0,0
1582,-66.6666666666667,4,2,2,70,0,0
1685,-66.6666666666667,4,2,1,70,0,0
1890,-66.6666666666667,4,2,1,5,0,0
1993,-66.6666666666667,4,2,1,70,0,0
2197,-83.3333333333333,4,2,2,70,0,0
2299,-83.3333333333333,4,2,1,70,0,0
2403,-83.3333333333333,4,2,2,70,0,0
2505,-83.3333333333333,4,2,1,70,0,0
2813,-45.4545454545455,4,2,1,70,0,0
2916,-45.4545454545455,4,2,1,5,0,0
3019,-45.4545454545455,4,2,2,70,0,0
3122,-45.4545454545455,4,2,1,5,0,0
3224,-45.4545454545455,4,2,2,70,0,0
3327,-45.4545454545455,4,2,1,5,0,0
3429,-45.4545454545455,4,2,1,70,0,0
3532,-45.4545454545455,4,2,1,5,0,0
3634,-62.5,4,2,2,70,0,0
3738,-62.5,4,2,2,5,0,0
3942,-62.5,4,2,1,5,0,0
4045,-62.5,4,2,1,70,0,0
4148,-62.5,4,2,1,5,0,0
4250,-83.3333333333333,4,2,2,70,0,0
4354,-83.3333333333333,4,2,1,70,0,0
4558,-83.3333333333333,4,2,1,5,0,0
4661,-83.3333333333333,4,2,2,70,0,0
4764,-83.3333333333333,4,2,1,5,0,0
4866,-83.3333333333333,4,2,2,70,0,0
4970,-83.3333333333333,4,2,1,70,0,0
5174,-83.3333333333333,4,2,1,5,0,0
5277,-83.3333333333333,4,2,1,70,0,0
5482,-62.5,4,2,1,70,0,0
5892,-83.3333333333333,4,2,1,70,0,0
6097,-45.4545454545455,4,2,2,70,0,0
6200,-45.4545454545455,4,2,1,5,0,0
6302,-45.4545454545455,4,2,2,70,0,0
6405,-45.4545454545455,4,2,1,5,0,0
6508,-45.4545454545455,4,2,1,70,0,0
6610,-45.4545454545455,4,2,1,5,0,0
6713,-62.5,4,2,1,70,0,0
7021,-71.4285714285714,4,2,1,5,0,0
7124,-83.3333333333333,4,2,1,70,0,0
7535,-66.6666666666667,4,2,2,70,0,0
7638,-66.6666666666667,4,2,1,70,0,0
7843,-66.6666666666667,4,2,1,5,0,0
7946,-66.6666666666667,4,2,1,70,0,0
8150,-66.6666666666667,4,2,2,70,0,0
8253,-66.6666666666667,4,2,1,70,0,0
8459,-66.6666666666667,4,2,1,5,0,0
8561,-66.6666666666667,4,2,1,70,0,0
8766,-83.3333333333333,4,2,2,70,0,0
8868,-83.3333333333333,4,2,1,70,0,0
8971,-83.3333333333333,4,2,2,70,0,0
9073,-83.3333333333333,4,2,1,70,0,0
9177,-83.3333333333333,4,2,2,70,0,0
9279,-83.3333333333333,4,2,1,70,0,0
9382,-45.4545454545455,4,2,1,70,0,0
9485,-45.4545454545455,4,2,1,5,0,0
9588,-45.4545454545455,4,2,1,70,0,0
9691,-45.4545454545455,4,2,1,5,0,0
9793,-45.4545454545455,4,2,1,70,0,0
9896,-45.4545454545455,4,2,1,5,0,0
9998,-45.4545454545455,4,2,2,70,0,0
10101,-45.4545454545455,4,2,1,5,0,0
10203,-62.5,4,2,1,70,0,0
10511,-62.5,4,2,1,5,0,0
10614,-62.5,4,2,1,70,0,0
10716,-62.5,4,2,1,5,0,0
10819,-62.5,4,2,2,70,0,0
10923,-62.5,4,2,1,70,0,0
11024,-62.5,4,2,1,70,0,0
11128,-62.5,4,2,1,5,0,0
11229,-83.3333333333333,4,2,1,70,0,0
11332,-83.3333333333333,4,2,1,5,0,0
11435,-83.3333333333333,4,2,2,70,0,0
11538,-83.3333333333333,4,2,1,70,0,0
12051,-62.5,4,2,1,70,0,0
12462,-83.3333333333333,4,2,1,70,0,0
12666,-62.5,4,2,2,70,0,0
12769,-62.5,4,2,1,5,0,0
12872,-62.5,4,2,2,70,0,0
12974,-62.5,4,2,1,5,0,0
13077,-62.5,4,2,2,70,0,0
13180,-62.5,4,2,1,5,0,0
13282,-76.9230769230769,4,2,1,55,0,0
14309,-100,4,2,1,55,0,0
15951,-100,4,2,2,55,0,0
16054,-100,4,2,1,5,0,0
16157,-100,4,2,2,60,0,0
16259,-100,4,2,1,5,0,0
16362,-100,4,2,1,60,0,0
16465,-100,4,2,1,5,0,0
16567,-100,4,2,2,60,0,0
16669,-100,4,2,1,5,0,0
16772,-55.5555555555556,4,2,1,60,0,0
17080,-55.5555555555556,4,2,1,5,0,0
17182,-55.5555555555556,4,2,1,60,0,0
17593,-100,4,2,1,60,0,0
19235,-100,4,2,2,60,0,0
19338,-100,4,2,1,5,0,0
19441,-100,4,2,2,65,0,0
19543,-100,4,2,1,5,0,0
19646,-100,4,2,2,65,0,0
19749,-100,4,2,1,5,0,0
19851,-100,4,2,2,65,0,0
19954,-100,4,2,1,65,0,0
20056,-55.5555555555556,4,2,1,65,0,0
20365,-55.5555555555556,4,2,1,5,0,0
20467,-55.5555555555556,4,2,1,65,0,0
20877,-100,4,2,1,65,0,0
22519,-62.5,4,2,1,65,0,0
23238,-62.5,4,2,1,5,0,0
23341,-62.5,4,2,2,85,0,1
23443,-62.5,4,2,1,85,0,1
23648,-62.5,4,2,1,5,0,1
23751,-62.5,4,2,1,85,0,1
23854,-62.5,4,2,1,5,0,1
23956,-62.5,4,2,1,85,0,1
24263,-62.5,4,2,1,5,0,1
24366,-62.5,4,2,1,85,0,1
24469,-62.5,4,2,1,5,0,1
24572,-62.5,4,2,1,85,0,1
24879,-62.5,4,2,1,5,0,1
24982,-62.5,4,2,1,85,0,1
25085,-62.5,4,2,1,5,0,1
25188,-62.5,4,2,1,85,0,1
25495,-62.5,4,2,1,5,0,1
25598,-62.5,4,2,1,85,0,1
25701,-62.5,4,2,1,5,0,1
25804,-55.5555555555556,4,2,1,85,0,1
26112,-55.5555555555556,4,2,1,5,0,1
26214,-71.4285714285714,4,2,3,85,0,1
26420,-71.4285714285714,4,2,3,5,0,0
26523,-71.4285714285714,4,2,3,70,0,0
26728,-71.4285714285714,4,2,1,5,0,0
26830,-71.4285714285714,4,2,1,70,0,0
27857,-71.4285714285714,4,2,1,65,0,0
28062,-71.4285714285714,4,2,1,60,0,0
28267,-71.4285714285714,4,2,1,55,0,0
28472,-71.4285714285714,4,2,1,50,0,0
28678,-71.4285714285714,4,2,1,45,0,0
28883,-71.4285714285714,4,2,1,40,0,0
29088,-71.4285714285714,4,2,1,30,0,0
29293,-71.4285714285714,4,2,1,20,0,0
29499,-71.4285714285714,4,2,1,15,0,0
29704,-71.4285714285714,4,2,1,10,0,0
30012,-71.4285714285714,4,2,1,5,0,0

[Colours]
Combo1 : 186,24,199
Combo2 : 0,128,128
Combo3 : 224,112,29
Combo4 : 192,192,192

[HitObjects]
306,70,146,6,0,B|325:27|388:66|386:105|375:148|259:172,1,192,4|0,1:2|0:0,0:0:0:0:
406,70,556,1,0,0:0:0:0:
235,129,762,1,8,0:0:0:0:
397,286,967,2,0,P|289:288|215:227,1,180.000006866455,2|0,0:0|0:0,0:0:0:0:
172,175,1377,1,0,0:0:0:0:
3,348,1583,2,0,P|111:350|171:296,1,180.000006866455,10|0,0:0|0:0,0:0:0:0:
232,249,1993,5,0,1:2:0:0:
131,121,2198,1,2,0:0:0:0:
330,0,2404,5,10,0:0:0:0:
465,159,2609,1,0,0:0:0:0:
218,358,2814,6,0,B|169:346|169:346|161:278,1,88.000002685547,4|0,1:2|0:0,0:0:0:0:
372,54,3020,2,0,B|421:66|421:66|425:103,1,88.000002685547,2|0,0:0|0:0,0:0:0:0:
354,275,3225,6,0,L|272:307,1,88.000002685547,10|0,0:0|0:0,0:0:0:0:
131,121,3430,2,0,L|214:91,1,88.000002685547
89,366,3635,6,0,B|8:309|8:309|53:193,1,192,6|0,1:2|0:0,0:0:0:0:
93,88,4045,6,0,L|117:173,1,64,8|0,0:0|0:0,0:0:0:0:
136,82,4251,2,0,L|188:242,1,143.999995605469,2|0,0:0|0:0,0:0:0:0:
272,339,4662,6,0,L|246:269,1,47.9999985351563,2|0,0:0|0:0,0:0:0:0:
225,355,4867,2,0,L|176:206,1,143.999995605469,10|0,0:0|0:0,0:0:0:0:
267,57,5278,5,0,1:2:0:0:
281,72,5380,1,0,0:0:0:0:
285,90,5482,2,0,P|285:120|268:151,1,64
334,279,5688,1,8,0:0:0:0:
336,263,5791,1,0,0:0:0:0:
341,250,5893,2,0,P|350:223|381:202,1,47.9999985351563
512,18,6099,6,0,B|497:80|448:77|431:46|443:15,1,88.000002685547,2|0,1:2|0:0,0:0:0:0:
276,220,6304,2,0,B|296:210|279:241|230:244|216:182,1,88.000002685547,2|0,0:0|0:0,0:0:0:0:
109,0,6509,2,0,P|62:19|70:115,1,88.000002685547,8|0,0:0|0:0,0:0:0:0:
169,285,6714,6,0,B|186:350|101:361|60:296|94:212,1,192,4|0,0:0|0:0,0:0:0:0:
112,368,7125,1,0,0:0:0:0:
141,199,7330,1,8,0:0:0:0:
319,349,7535,2,0,P|239:349|168:283,1,180.000006866455,2|0,0:0|0:0,0:0:0:0:
141,199,7946,1,0,0:0:0:0:
319,49,8151,2,0,P|239:49|168:115,1,180.000006866455,10|0,0:0|0:0,0:0:0:0:
141,199,8562,5,0,1:2:0:0:
27,94,8767,1,2,0:0:0:0:
271,139,8972,5,10,0:0:0:0:
403,270,9177,1,2,0:0:0:0:
188,112,9383,6,0,B|200:63|200:63|268:55,1,88.000002685547,4|0,1:2|0:0,0:0:0:0:
327,321,9588,2,0,B|315:370|315:370|247:378,1,88.000002685547
271,139,9793,6,0,L|323:67,1,88.000002685547,8|0,0:0|0:0,0:0:0:0:
241,304,9998,2,0,L|181:392,1,88.000002685547,2|0,0:0|0:0,0:0:0:0:
365,120,10204,6,0,B|439:181|439:181|381:319,1,192,4|0,1:2|0:0,0:0:0:0:
289,339,10614,6,0,P|252:323|246:260,1,64,8|0,0:0|0:0,0:0:0:0:
271,384,10819,2,0,P|198:321|203:195,1,192,2|0,0:0|0:0,0:0:0:0:
225,57,11230,6,0,P|236:77|234:101,1,47.9999985351563
275,40,11435,2,0,P|281:110|249:174,1,143.999995605469,10|0,0:0|0:0,0:0:0:0:
115,328,11846,5,0,1:2:0:0:
97,337,11948,1,0,0:0:0:0:
79,338,12051,2,0,P|49:332|21:309,1,64
158,235,12256,1,8,0:0:0:0:
173,230,12359,1,0,0:0:0:0:
187,231,12462,2,0,P|218:233|241:254,1,47.9999985351563
340,378,12667,5,2,1:2:0:0:
247,332,12872,1,2,0:0:0:0:
330,273,13077,1,10,0:0:0:0:
479,311,13283,6,0,P|462:212|356:107,1,207.999990478516,12|0,0:0|0:0,0:0:0:0:
317,94,13899,1,8,0:2:0:0:
219,198,14104,1,0,0:0:0:0:
122,312,14309,6,0,P|100:270|51:232,1,80,0|0,1:2|0:0,0:0:0:0:
225,318,14720,2,0,P|247:360|296:398,1,80,8|0,0:0|0:0,0:0:0:0:
217,148,15130,6,0,P|199:112|172:83,1,80,0|0,1:2|0:0,0:0:0:0:
402,283,15541,2,0,P|419:318|446:347,1,80,8|0,0:0|0:0,0:0:0:0:
406,166,15951,5,2,1:2:0:0:
293,213,16157,1,2,0:0:0:0:
335,31,16362,5,8,0:0:0:0:
419,49,16567,1,2,0:0:0:0:
335,111,16772,6,0,B|380:91|357:42|305:20|254:31|234:170,1,215.999993408203,4|0,1:2|0:0,0:0:0:0:
223,207,17183,1,8,0:0:0:0:
181,338,17388,1,0,0:0:0:0:
211,200,17593,6,0,P|182:241|135:276,1,80,0|0,1:2|0:0,0:0:0:0:
373,227,18004,2,0,P|402:186|449:151,1,80,8|0,0:0|0:0,0:0:0:0:
140,158,18415,6,0,P|114:125|69:99,1,80,0|0,1:2|0:0,0:0:0:0:
449,258,18825,2,0,P|475:291|520:317,1,80,8|0,0:0|0:0,0:0:0:0:
358,128,19236,5,2,1:2:0:0:
271,224,19441,1,2,0:0:0:0:
84,184,19646,5,10,0:0:0:0:
49,111,19851,1,2,0:0:0:0:
142,95,20057,6,0,B|187:75|164:26|112:4|61:15|41:154,1,215.999993408203,4|0,1:2|0:0,0:0:0:0:
38,254,20467,1,8,0:0:0:0:
141,351,20673,1,0,0:0:0:0:
231,235,20878,6,0,P|188:231|123:246,1,80,0|0,1:2|0:0,0:0:0:0:
382,57,21288,2,0,P|425:61|490:46,1,80,8|0,0:0|0:0,0:0:0:0:
178,17,21699,6,0,P|173:62|185:107,1,80,0|0,1:2|0:0,0:0:0:0:
418,359,22109,2,0,P|423:314|411:269,1,80,8|0,0:0|0:0,0:0:0:0:
275,184,22520,6,0,B|252:151|184:134|224:65|248:49|291:56|305:73|305:73|321:62|392:58|381:102|402:154|374:152|349:171|279:150|326:210|319:236|346:254,1,448,0|0,1:2|0:0,0:0:0:0:
473,266,23341,6,0,B|474:302|539:254|547:211|512:163|447:171,1,192,6|0,0:0|0:0,0:0:0:0:
341,253,23752,2,0,P|371:242|394:205,1,64,8|0,0:0|0:0,0:0:0:0:
472,76,23957,6,0,B|473:39|538:87|546:130|511:178|446:170,1,192,0|0,1:2|0:0,0:0:0:0:
337,89,24367,2,0,P|307:99|287:124,1,64,8|0,0:0|0:0,0:0:0:0:
197,268,24573,6,0,B|195:304|130:256|122:213|157:165|222:173,1,192,0|0,1:2|0:0,0:0:0:0:
341,253,24983,2,0,P|311:242|288:205,1,64,8|0,0:0|0:0,0:0:0:0:
197,77,25189,6,0,B|195:40|130:88|122:131|157:179|221:172,1,192,0|0,1:2|0:0,0:0:0:0:
339,89,25599,2,0,P|368:99|388:124,1,64,8|0,0:0|0:0,0:0:0:0:
327,382,25804,6,0,P|349:269|336:154,1,215.999993408203,0|0,1:2|0:0,0:0:0:0:
339,89,26215,2,0,P|374:75|341:94,1,111.999996582031,12|0,0:0|0:0,0:0:0:0:
256,192,26523,12,0,30526,0:0:0:0:
