osu file format v14

[General]
AudioFilename: audio1.mp3
AudioLeadIn: 0
PreviewTime: 146
Countdown: 0
SampleSet: Soft
StackLeniency: 0.7
Mode: 0
LetterboxInBreaks: 0
WidescreenStoryboard: 1

[Editor]
DistanceSpacing: 1.2
BeatDivisor: 4
GridSize: 32
TimelineZoom: 1.9

[Metadata]
Title:Next Episode
TitleUnicode:次回予告
Artist:Shiro Sagisu
ArtistUnicode:鷺巣 詩郎
Creator:Tuffiii
Version:Kyutei's Insane
Source:新世紀エヴァンゲリオン
Tags:IAmWayneKing Instrumental Classical Anime Mari 0hara Slyme Kyutei Anya Melfissa Anya_Melfissa Neon Genesis Evangelion Ryxliee Sonnyc
BeatmapID:3217635
BeatmapSetID:1572967

[Difficulty]
HPDrainRate:5.2
CircleSize:4.4
OverallDifficulty:8.6
ApproachRate:9
SliderMultiplier:1.6
SliderTickRate:1

[Events]
//Background and Video events
0,0,"next episode background.jpg",0,0
//Break Periods
//Storyboard Layer 0 (Background)
//Storyboard Layer 1 (Fail)
//Storyboard Layer 2 (Pass)
//Storyboard Layer 3 (Foreground)
//Storyboard Layer 4 (Overlay)
//Storyboard Sound Samples

[TimingPoints]
146,410.545546607183,4,2,1,70,1,0
146,-62.5,4,2,1,70,0,0
351,410.545546607183,4,2,1,100,1,0
454,-62.5,4,2,1,5,0,0
556,-62.5,4,2,1,70,0,0
659,-62.5,4,2,1,5,0,0
762,-62.5,4,2,1,70,0,0
865,-62.5,4,2,1,5,0,0
967,-62.5,4,2,2,70,0,0
1069,-62.5,4,2,1,70,0,0
1274,-62.5,4,2,1,5,0,0
1377,-62.5,4,2,1,70,0,0
1583,-83.3333333333333,4,2,2,70,0,0
1685,-83.3333333333333,4,2,1,70,0,0
1890,-83.3333333333333,4,2,1,5,0,0
1993,-83.3333333333333,4,2,1,70,0,0
2198,-83.3333333333333,4,2,2,70,0,0
2300,-83.3333333333333,4,2,1,70,0,0
2404,-83.3333333333333,4,2,2,70,0,0
2506,-83.3333333333333,4,2,1,70,0,0
2814,-38.4615384615385,4,2,1,70,0,0
2917,-38.4615384615385,4,2,1,5,0,0
3020,-38.4615384615385,4,2,2,70,0,0
3123,-38.4615384615385,4,2,1,5,0,0
3225,-38.4615384615385,4,2,2,70,0,0
3328,-38.4615384615385,4,2,1,5,0,0
3430,-38.4615384615385,4,2,1,70,0,0
3533,-38.4615384615385,4,2,1,5,0,0
3635,-62.5,4,2,2,70,0,0
3738,-62.5,4,2,2,5,0,0
3943,-62.5,4,2,1,5,0,0
4046,-62.5,4,2,1,70,0,0
4149,-62.5,4,2,1,5,0,0
4251,-83.3333333333333,4,2,2,70,0,0
4354,-83.3333333333333,4,2,1,70,0,0
4559,-83.3333333333333,4,2,1,5,0,0
4662,-83.3333333333333,4,2,2,70,0,0
4765,-83.3333333333333,4,2,1,5,0,0
4867,-62.5,4,2,2,70,0,0
4970,-83.3333333333333,4,2,1,70,0,0
5175,-83.3333333333333,4,2,1,5,0,0
5278,-83.3333333333333,4,2,1,70,0,0
5483,-62.5,4,2,1,70,0,0
6099,-33.3333333333333,4,2,2,70,0,0
6201,-33.3333333333333,4,2,1,5,0,0
6304,-33.3333333333333,4,2,2,70,0,0
6406,-33.3333333333333,4,2,1,5,0,0
6509,-33.3333333333333,4,2,1,70,0,0
6611,-33.3333333333333,4,2,1,5,0,0
6714,-71.4285714285714,4,2,1,70,0,0
7022,-71.4285714285714,4,2,1,5,0,0
7125,-83.3333333333333,4,2,1,70,0,0
7536,-83.3333333333333,4,2,2,70,0,0
7638,-83.3333333333333,4,2,1,70,0,0
7843,-83.3333333333333,4,2,1,70,0,0
8151,-83.3333333333333,4,2,2,70,0,0
8253,-83.3333333333333,4,2,1,70,0,0
8459,-83.3333333333333,4,2,1,5,0,0
8561,-83.3333333333333,4,2,1,70,0,0
8767,-83.3333333333333,4,2,2,70,0,0
8869,-83.3333333333333,4,2,1,70,0,0
8972,-83.3333333333333,4,2,2,70,0,0
9074,-83.3333333333333,4,2,1,70,0,0
9178,-83.3333333333333,4,2,2,70,0,0
9280,-83.3333333333333,4,2,1,70,0,0
9383,-38.4615384615385,4,2,1,70,0,0
9486,-38.4615384615385,4,2,1,5,0,0
9589,-38.4615384615385,4,2,1,70,0,0
9692,-38.4615384615385,4,2,1,5,0,0
9794,-38.4615384615385,4,2,1,70,0,0
9897,-38.4615384615385,4,2,1,5,0,0
9999,-38.4615384615385,4,2,2,70,0,0
10102,-38.4615384615385,4,2,1,5,0,0
10204,-62.5,4,2,1,70,0,0
10512,-62.5,4,2,1,5,0,0
10615,-62.5,4,2,1,70,0,0
10717,-62.5,4,2,1,5,0,0
10819,-83.3333333333333,4,2,2,70,0,0
10923,-62.5,4,2,1,70,0,0
11025,-62.5,4,2,1,70,0,0
11128,-62.5,4,2,1,5,0,0
11230,-62.5,4,2,1,70,0,0
11333,-62.5,4,2,1,5,0,0
11436,-62.5,4,2,2,70,0,0
11538,-62.5,4,2,1,70,0,0
11743,-62.5,4,2,1,5,0,0
11846,-62.5,4,2,1,70,0,0
12667,-62.5,4,2,2,70,0,0
12770,-62.5,4,2,1,5,0,0
12873,-62.5,4,2,2,70,0,0
12975,-62.5,4,2,1,5,0,0
13078,-62.5,4,2,2,70,0,0
13181,-62.5,4,2,1,5,0,0
13283,-71.4285714285714,4,2,1,55,0,0
14310,-100,4,2,1,55,0,0
15952,-100,4,2,2,55,0,0
16055,-100,4,2,1,5,0,0
16158,-100,4,2,2,60,0,0
16260,-100,4,2,1,5,0,0
16363,-100,4,2,1,60,0,0
16466,-100,4,2,1,5,0,0
16568,-100,4,2,2,60,0,0
16670,-100,4,2,1,5,0,0
16773,-55.5555555555556,4,2,1,60,0,0
17080,-100,4,2,1,5,0,0
17183,-55.5555555555556,4,2,1,60,0,0
17594,-100,4,2,1,60,0,0
19236,-100,4,2,2,60,0,0
19339,-100,4,2,1,5,0,0
19442,-100,4,2,2,65,0,0
19544,-100,4,2,1,5,0,0
19647,-100,4,2,2,65,0,0
19750,-100,4,2,1,5,0,0
19852,-100,4,2,2,65,0,0
19955,-100,4,2,1,65,0,0
20057,-55.5555555555556,4,2,1,65,0,0
20365,-100,4,2,1,5,0,0
20468,-55.5555555555556,4,2,1,65,0,0
20878,-100,4,2,1,65,0,0
22520,-62.5,4,2,1,65,0,0
23238,-100,4,2,1,5,0,0
23341,-62.5,4,2,2,85,0,1
23444,-62.5,4,2,1,85,0,1
23649,-62.5,4,2,1,5,0,1
23752,-62.5,4,2,1,80,0,1
23855,-62.5,4,2,1,5,0,1
23957,-62.5,4,2,1,85,0,1
24264,-62.5,4,2,1,5,0,1
24367,-62.5,4,2,1,85,0,1
24470,-62.5,4,2,1,5,0,1
24573,-62.5,4,2,1,85,0,1
24880,-62.5,4,2,1,5,0,1
24983,-62.5,4,2,1,85,0,1
25086,-62.5,4,2,1,5,0,1
25189,-62.5,4,2,1,85,0,1
25496,-62.5,4,2,1,5,0,1
25599,-62.5,4,2,1,85,0,1
25702,-62.5,4,2,1,5,0,1
25805,-55.5555555555556,4,2,1,85,0,1
26113,-55.5555555555556,4,2,1,5,0,1
26215,-71.4285714285714,4,2,3,85,0,1
26420,-71.4285714285714,4,2,3,5,0,0
26523,-71.4285714285714,4,2,3,70,0,0
26729,-71.4285714285714,4,2,1,5,0,0
26831,-71.4285714285714,4,2,1,70,0,0
27858,-71.4285714285714,4,2,1,65,0,0
28063,-71.4285714285714,4,2,1,60,0,0
28268,-71.4285714285714,4,2,1,55,0,0
28473,-71.4285714285714,4,2,1,50,0,0
28679,-71.4285714285714,4,2,1,45,0,0
28884,-71.4285714285714,4,2,1,40,0,0
29089,-71.4285714285714,4,2,1,30,0,0
29294,-71.4285714285714,4,2,1,20,0,0
29500,-71.4285714285714,4,2,1,15,0,0
29705,-71.4285714285714,4,2,1,10,0,0
30013,-71.4285714285714,4,2,1,5,0,0

[Colours]
Combo1 : 186,24,199
Combo2 : 0,128,128
Combo3 : 224,112,29
Combo4 : 192,192,192

[HitObjects]
149,231,146,6,0,B|209:232|238:204|200:157|226:125|297:128,1,192,4|0,1:2|0:0,0:0:0:0:
136,242,556,1,0,0:0:0:0:
33,161,762,1,8,0:0:0:0:
160,30,967,1,2,0:0:0:0:
286,127,1172,1,0,1:2:0:0:
350,76,1377,1,0,0:0:0:0:
491,171,1583,2,0,B|484:212|484:212|479:217|479:217|470:269,1,95.9999970703126,10|0,0:0|0:0,0:0:0:0:
373,151,1993,5,0,1:2:0:0:
468,98,2198,1,2,0:0:0:0:
305,293,2404,1,10,0:0:0:0:
447,378,2609,1,0,0:0:0:0:
238,263,2815,6,0,B|238:243|263:228|263:228|227:233|226:276,1,103.999995239258,4|0,1:2|0:0,0:0:0:0:
207,384,3020,2,0,P|191:284|152:179,2,207.999990478516,2|10|0,0:0|0:0|0:0,0:0:0:0:
212,114,3635,6,0,P|264:98|269:185,1,128,6|0,1:2|0:0,0:0:0:0:
404,305,4045,1,8,0:0:0:0:
404,305,4251,2,0,P|448:307|462:250,1,95.9999970703126,2|0,0:0|1:2,0:0:0:0:
497,194,4661,1,2,0:0:0:0:
497,194,4867,2,0,B|388:166|425:263|321:231,1,192,10|0,0:0|0:0,0:0:0:0:
229,187,5278,5,0,1:2:0:0:
221,194,5380,1,0,0:0:0:0:
215,202,5483,2,0,L|150:182,1,64
89,216,5688,1,8,0:0:0:0:
81,223,5790,1,0,0:0:0:0:
73,231,5893,2,0,L|8:211,1,64
181,68,6099,6,0,B|152:109|97:88|102:40|102:40|107:-8|40:-31|17:28,2,240.000009155274,2|2|8,1:2|0:0|0:0,0:0:0:0:
254,20,6714,6,0,P|341:40|424:57,1,167.999994873047,4|0,0:0|0:0,0:0:0:0:
243,31,7124,1,0,0:0:0:0:
136,170,7330,1,8,0:0:0:0:
242,242,7535,1,2,0:0:0:0:
373,140,7740,1,0,1:2:0:0:
440,184,7945,1,0,0:0:0:0:
512,112,8151,2,0,B|505:71|505:71|500:66|500:66|491:14,1,95.9999970703126,10|0,0:0|0:0,0:0:0:0:
346,142,8562,5,0,1:2:0:0:
446,210,8767,1,2,0:0:0:0:
224,376,8972,1,10,0:0:0:0:
353,232,9178,1,2,0:0:0:0:
200,249,9383,6,0,B|200:229|175:214|175:214|211:219|212:262,1,103.999995239258,4|0,1:2|0:0,0:0:0:0:
230,384,9588,2,0,P|246:284|285:179,2,207.999990478516,0|8|2,0:0|0:0|0:0,0:0:0:0:
228,103,10204,6,0,P|176:87|171:174,1,128,4|0,1:2|0:0,0:0:0:0:
90,285,10614,1,8,0:0:0:0:
90,285,10819,2,0,P|46:287|32:230,1,95.9999970703126,2|0,0:0|1:2,0:0:0:0:
0,177,11230,1,0,0:0:0:0:
0,177,11436,2,0,B|109:149|72:246|176:214,1,192,10|0,0:0|0:0,0:0:0:0:
253,289,11846,5,0,1:2:0:0:
261,296,11948,1,0,0:0:0:0:
267,304,12051,2,0,L|332:284,1,64
386,328,12256,1,8,0:0:0:0:
394,335,12358,1,0,0:0:0:0:
402,343,12461,2,0,L|467:323,1,64
512,380,12667,5,2,1:2:0:0:
478,218,12873,1,2,0:0:0:0:
445,67,13078,1,10,0:0:0:0:
207,2,13283,6,0,P|271:88|382:99,1,223.999993164063,12|0,0:0|0:0,0:0:0:0:
445,67,13899,1,8,0:2:0:0:
345,180,14104,1,0,0:0:0:0:
461,80,14310,6,0,P|446:128|441:165,1,80,0|0,1:2|0:0,0:0:0:0:
239,255,14720,2,0,P|254:207|259:170,1,80,8|0,0:0|0:0,0:0:0:0:
512,273,15131,6,0,P|474:260|434:253,1,80,0|0,1:2|0:0,0:0:0:0:
207,59,15541,2,0,P|244:71|284:78,1,80,8|0,0:0|0:0,0:0:0:0:
345,180,15952,5,2,1:2:0:0:
239,255,16157,1,2,0:0:0:0:
63,121,16362,1,8,0:0:0:0:
2,165,16568,1,2,0:0:0:0:
58,241,16773,6,0,B|85:279|137:259|132:214|132:214|127:169|190:147|212:203,1,215.999993408203,4|0,1:2|0:0,0:0:0:0:
239,255,17183,1,8,0:0:0:0:
112,63,17389,1,0,0:0:0:0:
252,265,17594,6,0,P|300:250|337:245,1,80,0|0,1:2|0:0,0:0:0:0:
449,42,18004,2,0,P|401:57|364:62,1,80,8|0,0:0|0:0,0:0:0:0:
512,284,18415,6,0,P|500:247|493:207,1,80,0|0,1:2|0:0,0:0:0:0:
184,26,18826,2,0,P|196:63|203:103,1,80,8|0,0:0|0:0,0:0:0:0:
354,152,19236,5,2,1:2:0:0:
252,265,19441,1,2,0:0:0:0:
86,100,19646,1,10,0:0:0:0:
30,155,19852,1,2,0:0:0:0:
11,308,20057,6,0,B|0:250|62:205|120:232|120:232|97:308,1,215.999993408203,4|0,1:2|0:0,0:0:0:0:
165,324,20468,1,8,0:0:0:0:
10,82,20673,1,0,0:0:0:0:
218,50,20878,6,0,P|266:65|303:70,1,80,0|0,1:2|0:0,0:0:0:0:
465,330,21288,2,0,P|417:315|380:310,1,80,8|0,0:0|0:0,0:0:0:0:
488,30,21699,6,0,P|473:79|468:115,1,80,0|0,1:2|0:0,0:0:0:0:
197,347,22110,2,0,P|212:300|217:262,1,80,8|0,0:0|0:0,0:0:0:0:
502,205,22520,6,0,B|475:263|400:242|405:181|405:181|406:122|323:106|300:164|300:164|274:226|191:200|207:137,1,448,0|0,1:2|0:0,0:0:0:0:
123,28,23341,6,0,B|146:54|179:31|176:-24|73:-36|41:47|57:103,1,192,6|0,0:0|0:0,0:0:0:0:
116,118,23752,2,0,P|119:140|111:119,1,64,8|0,0:0|0:0,0:0:0:0:
16,185,23957,6,0,B|49:171|44:133|-19:118|-67:206|6:267|64:271,1,192,0|0,1:2|0:0,0:0:0:0:
104,234,24368,2,0,P|122:222|105:236,1,64,8|0,0:0|0:0,0:0:0:0:
147,346,24573,6,0,B|156:313|107:301|72:351|143:427|221:383|245:330,1,192,0|0,1:2|0:0,0:0:0:0:
237,282,24983,2,0,P|246:262|241:284,1,64,8|0,0:0|0:0,0:0:0:0:
376,305,25189,6,0,B|342:294|321:326|356:376|451:335|436:247|394:207,1,192,0|0,1:2|0:0,0:0:0:0:
341,209,25599,2,0,P|320:200|341:205,1,64,8|0,0:0|0:0,0:0:0:0:
497,125,25805,6,0,P|399:121|344:22,1,215.999993408203,0|0,1:2|0:0,0:0:0:0:
411,0,26216,2,0,P|452:-4|485:52,1,111.999996582031,12|0,0:0|0:0,0:0:0:0:
256,192,26523,12,0,30526,0:0:0:0:
