osu file format v14

[General]
AudioFilename: audio1.mp3
AudioLeadIn: 0
PreviewTime: 146
Countdown: 0
SampleSet: Soft
StackLeniency: 0.7
Mode: 0
LetterboxInBreaks: 0
WidescreenStoryboard: 1

[Editor]
DistanceSpacing: 1.2
BeatDivisor: 4
GridSize: 8
TimelineZoom: 1.9

[Metadata]
Title:Next Episode
TitleUnicode:次回予告
Artist:Shiro Sagisu
ArtistUnicode:鷺巣 詩郎
Creator:Tuffiii
Version:Hard
Source:新世紀エヴァンゲリオン
Tags:IAmWayneKing Instrumental Classical Anime Mari 0hara Slyme Kyutei Anya Melfissa Anya_Melfissa Neon Genesis Evangelion Ryxliee Sonnyc
BeatmapID:3213424
BeatmapSetID:1572967

[Difficulty]
HPDrainRate:4
CircleSize:3.7
OverallDifficulty:6.6
ApproachRate:8
SliderMultiplier:1.7
SliderTickRate:1

[Events]
//Background and Video events
0,0,"next episode background.jpg",0,0
//Break Periods
//Storyboard Layer 0 (Background)
//Storyboard Layer 1 (Fail)
//Storyboard Layer 2 (Pass)
//Storyboard Layer 3 (Foreground)
//Storyboard Layer 4 (Overlay)
//Storyboard Sound Samples

[TimingPoints]
146,410.545546607183,4,2,1,70,1,0
146,-100,4,2,1,70,0,0
351,410.545546607183,4,2,1,100,1,0
454,-100,4,2,1,5,0,0
556,-100,4,2,1,70,0,0
659,-100,4,2,1,5,0,0
762,-100,4,2,1,70,0,0
865,-100,4,2,1,5,0,0
967,-100,4,2,2,70,0,0
1069,-100,4,2,1,70,0,0
1274,-100,4,2,1,5,0,0
1377,-100,4,2,1,70,0,0
1583,-100,4,2,2,70,0,0
1685,-100,4,2,1,70,0,0
1890,-100,4,2,1,5,0,0
1993,-100,4,2,1,70,0,0
2198,-100,4,2,2,70,0,0
2300,-100,4,2,1,70,0,0
2404,-100,4,2,2,70,0,0
2506,-100,4,2,1,70,0,0
2814,-100,4,2,1,70,0,0
2917,-100,4,2,1,5,0,0
3020,-100,4,2,2,70,0,0
3123,-100,4,2,1,5,0,0
3225,-100,4,2,2,70,0,0
3328,-100,4,2,1,5,0,0
3430,-100,4,2,1,70,0,0
3533,-100,4,2,1,5,0,0
3635,-100,4,2,2,70,0,0
3738,-100,4,2,2,5,0,0
3943,-100,4,2,1,5,0,0
4046,-100,4,2,1,70,0,0
4149,-100,4,2,1,5,0,0
4251,-100,4,2,2,70,0,0
4354,-100,4,2,1,70,0,0
4559,-100,4,2,1,5,0,0
4662,-100,4,2,2,70,0,0
4765,-100,4,2,1,5,0,0
4867,-100,4,2,2,70,0,0
4970,-100,4,2,1,70,0,0
5175,-100,4,2,1,5,0,0
5278,-100,4,2,1,70,0,0
5688,-100,4,2,1,70,0,0
6099,-100,4,2,2,70,0,0
6201,-100,4,2,1,5,0,0
6304,-100,4,2,2,70,0,0
6406,-100,4,2,1,5,0,0
6509,-100,4,2,1,70,0,0
6611,-100,4,2,1,5,0,0
6714,-100,4,2,1,70,0,0
7022,-100,4,2,1,5,0,0
7125,-100,4,2,1,70,0,0
7536,-100,4,2,2,70,0,0
7638,-100,4,2,1,70,0,0
7843,-100,4,2,1,70,0,0
8151,-100,4,2,2,70,0,0
8253,-100,4,2,1,70,0,0
8459,-100,4,2,1,5,0,0
8561,-100,4,2,1,70,0,0
8767,-100,4,2,2,70,0,0
8869,-100,4,2,1,70,0,0
8972,-100,4,2,2,70,0,0
9074,-100,4,2,1,70,0,0
9178,-100,4,2,2,70,0,0
9280,-100,4,2,1,70,0,0
9383,-100,4,2,1,70,0,0
9486,-100,4,2,1,5,0,0
9589,-100,4,2,1,70,0,0
9692,-100,4,2,1,5,0,0
9794,-100,4,2,1,70,0,0
9897,-100,4,2,1,5,0,0
9999,-100,4,2,2,70,0,0
10102,-100,4,2,1,5,0,0
10204,-100,4,2,1,70,0,0
10512,-100,4,2,1,5,0,0
10615,-100,4,2,1,70,0,0
10717,-100,4,2,1,5,0,0
10820,-100,4,2,2,70,0,0
10923,-100,4,2,1,70,0,0
11025,-100,4,2,1,70,0,0
11128,-100,4,2,1,5,0,0
11230,-100,4,2,1,70,0,0
11333,-100,4,2,1,5,0,0
11436,-100,4,2,2,70,0,0
11538,-100,4,2,1,70,0,0
11949,-100,4,2,1,70,0,0
12667,-100,4,2,2,70,0,0
12770,-100,4,2,1,5,0,0
12873,-100,4,2,2,70,0,0
12975,-100,4,2,1,5,0,0
13078,-100,4,2,2,70,0,0
13181,-100,4,2,1,5,0,0
13283,-111.111111111111,4,2,1,55,0,0
14310,-111.111111111111,4,2,1,55,0,0
15131,-111.111111111111,4,2,1,55,0,0
15541,-111.111111111111,4,2,1,55,0,0
15952,-111.111111111111,4,2,2,55,0,0
16055,-111.111111111111,4,2,1,5,0,0
16158,-111.111111111111,4,2,2,60,0,0
16260,-111.111111111111,4,2,1,5,0,0
16363,-111.111111111111,4,2,1,60,0,0
16466,-111.111111111111,4,2,1,5,0,0
16568,-111.111111111111,4,2,2,60,0,0
16670,-111.111111111111,4,2,1,5,0,0
16773,-111.111111111111,4,2,1,60,0,0
17080,-111.111111111111,4,2,1,5,0,0
17183,-111.111111111111,4,2,1,60,0,0
17594,-111.111111111111,4,2,1,60,0,0
18415,-111.111111111111,4,2,1,60,0,0
18826,-111.111111111111,4,2,1,60,0,0
19236,-111.111111111111,4,2,2,60,0,0
19339,-111.111111111111,4,2,1,5,0,0
19442,-111.111111111111,4,2,2,65,0,0
19544,-111.111111111111,4,2,1,5,0,0
19647,-111.111111111111,4,2,2,65,0,0
19750,-111.111111111111,4,2,1,5,0,0
19852,-111.111111111111,4,2,2,65,0,0
19955,-111.111111111111,4,2,1,65,0,0
20365,-111.111111111111,4,2,1,5,0,0
20467,-111.111111111111,4,2,1,65,0,0
20878,-111.111111111111,4,2,1,65,0,0
21699,-111.111111111111,4,2,1,65,0,0
22520,-111.111111111111,4,2,1,65,0,0
23238,-111.111111111111,4,2,1,5,0,0
23341,-86.9565217391304,4,2,2,85,0,1
23444,-86.9565217391304,4,2,1,85,0,1
23649,-86.9565217391304,4,2,1,5,0,1
23752,-86.9565217391304,4,2,1,85,0,1
23855,-86.9565217391304,4,2,1,5,0,1
23957,-86.9565217391304,4,2,1,85,0,1
24264,-86.9565217391304,4,2,1,5,0,1
24367,-86.9565217391304,4,2,1,85,0,1
24470,-86.9565217391304,4,2,1,5,0,1
24573,-86.9565217391304,4,2,1,85,0,1
24880,-86.9565217391304,4,2,1,5,0,1
24983,-86.9565217391304,4,2,1,85,0,1
25086,-86.9565217391304,4,2,1,5,0,1
25189,-86.9565217391304,4,2,1,85,0,1
25496,-86.9565217391304,4,2,1,5,0,1
25599,-86.9565217391304,4,2,1,85,0,1
25702,-86.9565217391304,4,2,1,5,0,1
25805,-86.9565217391304,4,2,1,85,0,1
26113,-86.9565217391304,4,2,1,5,0,1
26215,-86.9565217391304,4,2,3,85,0,1
26420,-86.9565217391304,4,2,3,5,0,1
26523,-86.9565217391304,4,2,3,70,0,1
26625,-86.9565217391304,4,2,3,70,0,0
26729,-86.9565217391304,4,2,1,5,0,0
26831,-100,4,2,1,70,0,0
27858,-100,4,2,1,65,0,0
28063,-100,4,2,1,60,0,0
28268,-100,4,2,1,55,0,0
28473,-100,4,2,1,50,0,0
28679,-100,4,2,1,45,0,0
28884,-100,4,2,1,40,0,0
29089,-100,4,2,1,30,0,0
29294,-100,4,2,1,20,0,0
29500,-100,4,2,1,15,0,0
29705,-100,4,2,1,10,0,0
30013,-100,4,2,1,5,0,0

[Colours]
Combo1 : 184,22,18
Combo2 : 236,218,0
Combo3 : 143,71,224
Combo4 : 255,60,60
Combo5 : 231,118,180
Combo6 : 184,22,18

[HitObjects]
11,206,146,6,0,B|33:222|33:222|27:98|27:98|54:121,1,170,4|0,1:2|0:0,0:0:0:0:
140,77,762,1,8,0:0:0:0:
140,77,967,2,0,B|186:98|186:98|235:74,1,85,2|0,0:0|1:2,0:0:0:0:
286,8,1377,1,0,0:0:0:0:
351,86,1583,2,0,B|381:101|381:101|427:80,1,85,10|0,0:0|0:0,0:0:0:0:
491,158,1993,5,0,1:2:0:0:
491,158,2198,1,2,0:0:0:0:
401,207,2404,2,0,P|384:244|399:283,1,85,10|0,0:0|0:0,0:0:0:0:
484,340,2814,1,4,1:2:0:0:
391,383,3020,1,2,0:0:0:0:
310,320,3225,1,10,0:0:0:0:
218,366,3431,1,0,0:0:0:0:
133,309,3635,6,0,L|36:305,1,85,6|0,1:2|0:0,0:0:0:0:
26,210,4046,1,8,0:0:0:0:
26,210,4251,2,0,P|15:167|47:124,1,85,2|0,0:0|1:2,0:0:0:0:
6,38,4662,1,2,0:0:0:0:
6,38,4867,2,0,P|37:6|90:13,1,85,10|0,0:0|0:0,0:0:0:0:
127,93,5278,6,0,P|188:136|272:81,1,170,0|8,1:2|0:0,0:0:0:0:
466,58,6099,1,2,1:2:0:0:
418,148,6304,1,2,0:0:0:0:
504,202,6509,1,8,0:0:0:0:
425,266,6714,38,0,B|423:372|423:372|407:346|370:333,1,170,4|0,0:0|0:0,0:0:0:0:
322,245,7330,1,8,0:0:0:0:
248,316,7536,2,0,P|205:329|161:311,1,85,2|0,0:0|1:2,0:0:0:0:
185,216,7946,1,0,0:0:0:0:
197,114,8151,2,0,P|156:101|117:114,1,85,10|0,0:0|0:0,0:0:0:0:
19,116,8561,5,0,1:2:0:0:
19,116,8767,1,2,0:0:0:0:
30,217,8972,2,0,B|17:261|17:261|35:295,1,85,10|2,0:0|0:0,0:0:0:0:
121,364,9383,1,4,1:2:0:0:
178,280,9588,1,0,0:0:0:0:
236,364,9794,1,8,0:0:0:0:
288,276,9999,1,2,0:0:0:0:
372,332,10204,6,0,L|490:327,1,85,4|0,1:2|0:0,0:0:0:0:
497,236,10615,1,8,0:0:0:0:
497,236,10820,2,0,L|493:148,1,85,2|0,0:0|1:2,0:0:0:0:
395,168,11230,1,0,0:0:0:0:
395,168,11435,2,0,L|399:80,1,85,10|0,0:0|0:0,0:0:0:0:
299,60,11846,54,0,B|267:40|218:57|233:110|196:131|153:110,1,170,0|8,1:2|0:0,0:0:0:0:
16,260,12667,1,2,1:2:0:0:
117,244,12873,1,2,0:0:0:0:
124,345,13078,1,10,0:0:0:0:
210,314,13283,6,0,P|278:344|346:314,1,152.999995330811,12|0,0:0|0:0,0:0:0:0:
418,370,13899,2,0,P|458:345|465:305,1,76.4999976654053,8|0,0:2|0:0,0:0:0:0:
407,247,14310,2,0,B|374:176|374:176|422:97,1,152.999995330811,0|8,1:2|0:0,0:0:0:0:
455,31,14925,1,0,0:0:0:0:
501,110,15131,2,0,B|539:174|539:174|506:245,1,152.999995330811,0|8,1:2|0:0,0:0:0:0:
360,357,15952,5,2,1:2:0:0:
298,289,16157,1,2,0:0:0:0:
232,352,16362,1,8,0:0:0:0:
170,284,16567,1,2,0:0:0:0:
85,321,16773,6,0,B|45:284|45:284|91:167,1,152.999995330811,4|8,1:2|0:0,0:0:0:0:
128,113,17389,1,0,0:0:0:0:
190,179,17594,2,0,P|260:205|330:178,1,152.999995330811,0|8,1:2|0:0,0:0:0:0:
402,121,18210,1,0,0:0:0:0:
326,68,18415,2,0,P|255:42|185:69,1,152.999995330811,0|8,1:2|0:0,0:0:0:0:
53,196,19236,69,2,1:2:0:0:
109,268,19441,1,2,0:0:0:0:
169,198,19647,1,10,0:0:0:0:
229,266,19852,1,2,0:0:0:0:
292,199,20057,2,0,P|353:160|351:87,1,152.999995330811,4|8,1:2|0:0,0:0:0:0:
398,7,20673,1,0,0:0:0:0:
449,82,20878,2,0,P|446:154|508:193,1,152.999995330811,0|8,1:2|0:0,0:0:0:0:
511,285,21494,5,0,0:0:0:0:
429,326,21699,2,0,B|356:352|356:352|286:323,1,152.999995330811,0|8,1:2|0:0,0:0:0:0:
223,256,22315,1,0,0:0:0:0:
155,318,22520,2,0,B|85:346|85:346|12:320,1,152.999995330811,0|8,1:2|0:0,0:0:0:0:
53,88,23341,6,0,B|101:67|101:67|157:85,1,97.7500018644333,6|0,0:0|0:0,0:0:0:0:
252,125,23752,1,8,0:0:0:0:
356,71,23957,2,0,B|399:57|399:57|447:78,1,97.7500018644333,0|0,1:2|0:0,0:0:0:0:
478,191,24368,1,8,0:0:0:0:
367,230,24573,6,0,L|374:337,1,97.7500018644333,0|0,1:2|0:0,0:0:0:0:
264,371,24984,1,8,0:0:0:0:
154,329,25189,2,0,L|160:231,1,97.7500018644333,0|0,1:2|0:0,0:0:0:0:
252,159,25600,1,8,0:0:0:0:
342,84,25805,70,0,P|394:98|420:157,1,97.7500018644333,0|0,1:2|0:0,0:0:0:0:
475,234,26215,2,0,B|429:319|429:319|374:237,1,195.500003728867,12|0,0:0|0:0,0:0:0:0:
256,192,26831,12,0,30526,0:0:0:0:
