osu file format v14

[General]
AudioFilename: audio1.mp3
AudioLeadIn: 0
PreviewTime: 146
Countdown: 0
SampleSet: Soft
StackLeniency: 0.7
Mode: 0
LetterboxInBreaks: 0
WidescreenStoryboard: 1

[Editor]
DistanceSpacing: 0.9
BeatDivisor: 4
GridSize: 4
TimelineZoom: 1.9

[Metadata]
Title:Next Episode
TitleUnicode:次回予告
Artist:Shiro Sagisu
ArtistUnicode:鷺巣 詩郎
Creator:Tuffiii
Version:Cassius
Source:新世紀エヴァンゲリオン
Tags:IAmWayneKing Instrumental Classical Anime Mari 0hara Slyme Kyutei Anya Melfissa Anya_Melfissa Neon Genesis Evangelion Ryxliee Sonnyc
BeatmapID:3211665
BeatmapSetID:1572967

[Difficulty]
HPDrainRate:5.7
CircleSize:4.3
OverallDifficulty:9.1
ApproachRate:9.2
SliderMultiplier:1.9
SliderTickRate:1

[Events]
//Background and Video events
0,0,"next episode background.jpg",0,0
//Break Periods
//Storyboard Layer 0 (Background)
//Storyboard Layer 1 (Fail)
//Storyboard Layer 2 (Pass)
//Storyboard Layer 3 (Foreground)
//Storyboard Layer 4 (Overlay)
//Storyboard Sound Samples

[TimingPoints]
146,410.545546607183,4,2,1,70,1,0
146,-37.037037037037,4,2,1,70,0,0
351,410.545546607183,4,2,1,100,1,0
454,-50,4,2,1,5,0,0
556,-90.9090909090909,4,2,1,70,0,0
659,-90.9090909090909,4,2,1,5,0,0
762,-90.9090909090909,4,2,1,70,0,0
865,-90.9090909090909,4,2,1,5,0,0
967,-90.9090909090909,4,2,2,70,0,0
1069,-90.9090909090909,4,2,1,70,0,0
1274,-90.9090909090909,4,2,1,5,0,0
1377,-90.9090909090909,4,2,1,70,0,0
1583,-90.9090909090909,4,2,2,70,0,0
1685,-90.9090909090909,4,2,1,70,0,0
1890,-90.9090909090909,4,2,1,5,0,0
1993,-90.9090909090909,4,2,1,70,0,0
2198,-90.9090909090909,4,2,2,70,0,0
2300,-90.9090909090909,4,2,1,70,0,0
2404,-90.9090909090909,4,2,2,70,0,0
2506,-90.9090909090909,4,2,1,70,0,0
2814,-45.4545454545455,4,2,1,70,0,0
2917,-45.4545454545455,4,2,1,5,0,0
3020,-45.4545454545455,4,2,2,70,0,0
3123,-45.4545454545455,4,2,1,5,0,0
3225,-45.4545454545455,4,2,2,70,0,0
3328,-45.4545454545455,4,2,1,5,0,0
3430,-45.4545454545455,4,2,1,70,0,0
3533,-45.4545454545455,4,2,1,5,0,0
3635,-125,4,2,2,70,0,0
3738,-125,4,2,2,5,0,0
3943,-125,4,2,1,5,0,0
4046,-111.111111111111,4,2,1,70,0,0
4149,-111.111111111111,4,2,1,5,0,0
4251,-90.9090909090909,4,2,2,70,0,0
4354,-90.9090909090909,4,2,1,70,0,0
4559,-90.9090909090909,4,2,1,5,0,0
4662,-142.857142857143,4,2,2,70,0,0
4765,-142.857142857143,4,2,1,5,0,0
4867,-111.111111111111,4,2,2,70,0,0
4970,-111.111111111111,4,2,1,70,0,0
5175,-111.111111111111,4,2,1,5,0,0
5278,-83.3333333333333,4,2,1,70,0,0
5688,-125,4,2,1,70,0,0
6099,-40,4,2,2,70,0,0
6201,-40,4,2,1,5,0,0
6304,-40,4,2,2,70,0,0
6406,-40,4,2,1,5,0,0
6509,-40,4,2,1,70,0,0
6611,-40,4,2,1,5,0,0
6714,-125,4,2,1,70,0,0
7022,-125,4,2,1,5,0,0
7125,-90.9090909090909,4,2,1,70,0,0
7536,-90.9090909090909,4,2,2,70,0,0
7638,-90.9090909090909,4,2,1,70,0,0
7843,-90.9090909090909,4,2,1,70,0,0
8151,-90.9090909090909,4,2,2,70,0,0
8253,-90.9090909090909,4,2,1,70,0,0
8459,-90.9090909090909,4,2,1,5,0,0
8561,-90.9090909090909,4,2,1,70,0,0
8767,-90.9090909090909,4,2,2,70,0,0
8869,-90.9090909090909,4,2,1,70,0,0
8972,-90.9090909090909,4,2,2,70,0,0
9074,-90.9090909090909,4,2,1,70,0,0
9178,-90.9090909090909,4,2,2,70,0,0
9280,-90.9090909090909,4,2,1,70,0,0
9383,-35.7142857142857,4,2,1,70,0,0
9486,-35.7142857142857,4,2,1,5,0,0
9589,-35.7142857142857,4,2,1,70,0,0
9692,-35.7142857142857,4,2,1,5,0,0
9794,-35.7142857142857,4,2,1,70,0,0
9897,-35.7142857142857,4,2,1,5,0,0
9999,-35.7142857142857,4,2,2,70,0,0
10102,-35.7142857142857,4,2,1,5,0,0
10204,-125,4,2,1,70,0,0
10512,-125,4,2,1,5,0,0
10615,-125,4,2,1,70,0,0
10717,-125,4,2,1,5,0,0
10820,-83.3333333333333,4,2,2,70,0,0
10923,-83.3333333333333,4,2,1,70,0,0
11025,-83.3333333333333,4,2,1,70,0,0
11128,-83.3333333333333,4,2,1,5,0,0
11230,-111.111111111111,4,2,1,70,0,0
11333,-111.111111111111,4,2,1,5,0,0
11435,-111.111111111111,4,2,2,70,0,0
11538,-76.9230769230769,4,2,1,70,0,0
11949,-83.3333333333333,4,2,1,70,0,0
12667,-58.8235294117647,4,2,2,70,0,0
12770,-58.8235294117647,4,2,1,5,0,0
12873,-66.6666666666667,4,2,2,70,0,0
12975,-66.6666666666667,4,2,1,5,0,0
13078,-76.9230769230769,4,2,2,70,0,0
13181,-76.9230769230769,4,2,1,5,0,0
13283,-166.666666666667,4,2,1,55,0,0
14310,-153.846153846154,4,2,1,55,0,0
15131,-142.857142857143,4,2,1,55,0,0
15541,-90.9090909090909,4,2,1,55,0,0
15952,-58.8235294117647,4,2,2,55,0,0
16055,-58.8235294117647,4,2,1,5,0,0
16157,-66.6666666666667,4,2,2,60,0,0
16260,-66.6666666666667,4,2,1,5,0,0
16362,-76.9230769230769,4,2,1,60,0,0
16466,-76.9230769230769,4,2,1,5,0,0
16568,-90.9090909090909,4,2,2,60,0,0
16670,-90.9090909090909,4,2,1,5,0,0
16773,-133.333333333333,4,2,1,60,0,0
17080,-133.333333333333,4,2,1,5,0,0
17183,-133.333333333333,4,2,1,60,0,0
17594,-125,4,2,1,60,0,0
18415,-117.647058823529,4,2,1,60,0,0
18826,-90.9090909090909,4,2,1,60,0,0
19236,-52.6315789473684,4,2,2,60,0,0
19339,-52.6315789473684,4,2,1,5,0,0
19441,-58.8235294117647,4,2,2,65,0,0
19544,-58.8235294117647,4,2,1,5,0,0
19647,-66.6666666666667,4,2,2,65,0,0
19750,-66.6666666666667,4,2,1,5,0,0
19852,-100,4,2,2,65,0,0
19955,-100,4,2,1,65,0,0
20365,-100,4,2,1,5,0,0
20467,-100,4,2,1,65,0,0
20878,-90.9090909090909,4,2,1,65,0,0
21699,-83.3333333333333,4,2,1,65,0,0
22520,-76.9230769230769,4,2,1,65,0,0
23238,-76.9230769230769,4,2,1,5,0,0
23341,-40,4,2,2,85,0,1
23444,-40,4,2,1,85,0,1
23649,-40,4,2,1,5,0,1
23752,-33.3333333333333,4,2,1,85,0,1
23855,-250,4,2,1,5,0,1
23957,-40,4,2,1,85,0,1
24264,-40,4,2,1,5,0,1
24367,-33.3333333333333,4,2,1,80,0,1
24470,-250,4,2,1,5,0,1
24573,-40,4,2,1,85,0,1
24880,-40,4,2,1,5,0,1
24983,-33.3333333333333,4,2,1,85,0,1
25086,-250,4,2,1,5,0,1
25189,-40,4,2,1,85,0,1
25496,-40,4,2,1,5,0,1
25599,-33.3333333333333,4,2,1,85,0,1
25702,-250,4,2,1,5,0,1
25805,-43.4782608695652,4,2,1,85,0,1
26113,-40,4,2,1,5,0,1
26215,-52.6315789473684,4,2,3,85,0,1
26420,-52.6315789473684,4,2,3,5,0,1
26523,-52.6315789473684,4,2,3,85,0,1
26728,-33.3333333333333,4,2,1,5,0,0
26831,-125,4,2,1,70,0,0
27858,-125,4,2,1,65,0,0
28063,-125,4,2,1,60,0,0
28268,-125,4,2,1,55,0,0
28473,-125,4,2,1,50,0,0
28679,-125,4,2,1,45,0,0
28884,-125,4,2,1,40,0,0
29089,-125,4,2,1,30,0,0
29294,-125,4,2,1,20,0,0
29500,-125,4,2,1,15,0,0
29705,-125,4,2,1,10,0,0
30013,-125,4,2,1,5,0,0

[Colours]
Combo1 : 184,22,18
Combo2 : 255,255,0
Combo3 : 143,71,224
Combo4 : 255,60,60
Combo5 : 231,118,180
Combo6 : 184,22,18

[HitObjects]
71,288,146,6,0,B|91:312|100:346|100:346|87:96|87:96|93:128|114:160,1,384.750001467705,4|0,1:2|0:0,0:0:0:0:
130,39,556,2,0,P|82:22|35:42,1,104.500003189087,0|8,0:0|0:0,0:0:0:0:
171,204,967,6,0,L|275:196,1,104.500003189087,2|0,0:0|1:2,0:0:0:0:
362,21,1377,1,0,0:0:0:0:
468,258,1583,2,0,L|363:250,1,104.500003189087,10|0,0:0|0:0,0:0:0:0:
181,304,1993,5,0,1:2:0:0:
74,156,2198,1,2,0:0:0:0:
209,22,2404,1,10,0:0:0:0:
384,114,2609,1,0,0:0:0:0:
107,241,2814,6,0,B|74:281|74:281|79:227,1,104.500003189087,4|0,1:2|0:0,0:0:0:0:
364,202,3020,2,0,B|397:242|397:242|392:188,1,104.500003189087,2|0,0:0|0:0,0:0:0:0:
107,115,3224,2,0,B|74:155|74:155|79:101,1,104.500003189087,10|0,0:0|0:0,0:0:0:0:
352,75,3430,2,0,B|385:115|385:115|380:61,1,104.500003189087
236,250,3635,54,0,L|242:363,1,114,6|0,1:2|0:0,0:0:0:0:
421,264,4046,2,0,L|419:215,1,42.7499986953736,8|0,0:0|0:0,0:0:0:0:
447,138,4251,2,0,L|456:310,1,156.750004783631,2|0,0:0|0:0,0:0:0:0:
304,317,4662,2,0,L|302:284,1,33.2499989852906,2|0,0:0|0:0,0:0:0:0:
267,221,4867,2,0,L|275:349,1,128.249996086121,10|0,0:0|0:0,0:0:0:0:
237,144,5278,5,0,1:2:0:0:
204,157,5380,1,0,0:0:0:0:
194,179,5483,2,0,L|190:246,1,56.9999982604981
81,174,5688,1,8,0:0:0:0:
94,188,5790,1,0,0:0:0:0:
100,203,5893,2,0,L|96:270,1,38
18,343,6099,6,0,P|78:351|124:313,1,118.75,2|0,1:2|0:0,0:0:0:0:
367,249,6304,2,0,P|307:257|261:219,1,118.75,2|0,0:0|0:0,0:0:0:0:
131,34,6509,2,0,B|186:58|186:58|244:35,1,118.75,8|0,0:0|0:0,0:0:0:0:
191,250,6714,38,0,L|195:370,1,114,4|0,0:0|0:0,0:0:0:0:
138,179,7125,2,0,B|189:158|189:158|249:181,1,104.500003189087,0|8,0:0|0:0,0:0:0:0:
511,353,7536,38,0,L|501:237,1,104.500003189087,2|0,0:0|1:2,0:0:0:0:
490,82,7946,1,0,0:0:0:0:
340,323,8151,2,0,L|350:207,1,104.500003189087,10|0,0:0|0:0,0:0:0:0:
371,47,8561,53,0,1:2:0:0:
187,2,8766,1,2,0:0:0:0:
71,132,8972,1,10,0:0:0:0:
201,304,9177,1,2,0:0:0:0:
346,62,9383,6,0,P|378:26|363:79,1,132.999995941162,4|0,1:2|0:0,0:0:0:0:
71,132,9588,2,0,P|44:91|50:139,1,132.999995941162
284,217,9794,2,0,P|316:181|303:227,1,132.999995941162,8|0,0:0|0:0,0:0:0:0:
109,295,9999,2,0,P|82:254|88:302,1,132.999995941162,2|0,0:0|0:0,0:0:0:0:
206,131,10204,54,0,L|215:17,1,114,4|0,1:2|0:0,0:0:0:0:
284,217,10615,2,0,B|284:238|284:238|305:229,1,38,8|0,0:0|0:0,0:0:0:0:
417,144,10820,2,0,P|394:77|298:100,1,170.999994781494,2|0,0:0|0:0,0:0:0:0:
138,270,11230,2,0,B|137:291|137:291|116:282,1,42.7499986953736
9,196,11435,2,0,P|35:114|152:142,1,213.749993476868,10|0,0:0|0:0,0:0:0:0:
226,203,12052,21,0,0:0:0:0:
222,230,12154,1,0,0:0:0:0:
234,249,12257,2,0,B|262:261|262:261|304:235,1,56.9999982604981,8|0,0:0|0:0,0:0:0:0:
395,164,12462,2,0,B|367:176|367:176|325:150,1,56.9999982604981
191,72,12667,54,0,P|159:87|145:137,1,80.750001540184,2|0,1:2|0:0,0:0:0:0:
55,153,12873,2,0,P|52:188|89:225,1,71.2500027179719,2|0,0:0|0:0,0:0:0:0:
25,283,13078,2,0,P|54:303|104:289,1,61.7499971733095,10|0,0:0|0:0,0:0:0:0:
265,338,13283,6,0,B|255:359|239:373|239:373|328:352,1,113.999996520996,12|0,0:0|0:0,0:0:0:0:
411,274,13899,1,8,0:2:0:0:
443,378,14104,1,0,0:0:0:0:
254,310,14310,70,0,L|187:294,1,61.7499971733095,0|0,1:2|0:0,0:0:0:0:
101,218,14720,1,8,0:0:0:0:
69,329,14925,1,0,0:0:0:0:
256,278,15131,22,0,L|322:262,1,66.4999979705811,0|0,1:2|0:0,0:0:0:0:
435,169,15541,1,8,0:0:0:0:
472,294,15746,1,0,0:0:0:0:
280,138,15952,70,0,B|240:129|240:129|204:147,1,80.750001540184,2|0,1:2|0:0,0:0:0:0:
172,18,16157,2,0,B|144:48|144:48|141:88,1,71.2500027179719,2|0,0:0|0:0,0:0:0:0:
26,69,16362,2,0,B|38:108|38:108|71:130,1,61.7499971733095,8|0,0:0|0:0,0:0:0:0:
18,208,16568,2,0,B|45:217|45:217|94:199,1,52.2500015945435,2|0,0:0|0:0,0:0:0:0:
246,197,16773,6,0,B|263:210|273:234|273:234|281:138,1,142.500005435944,4|8,1:2|0:0,0:0:0:0:
165,188,17389,1,0,0:0:0:0:
343,283,17594,6,0,L|349:200,1,76,0|0,1:2|0:0,0:0:0:0:
360,33,18004,1,8,0:0:0:0:
280,138,18210,1,0,0:0:0:0:
417,333,18415,54,0,L|423:250,1,80.750001540184,0|0,1:2|0:0,0:0:0:0:
432,34,18826,1,8,0:0:0:0:
512,172,19030,1,0,0:0:0:0:
212,272,19236,6,0,P|180:257|166:207,1,90.2499975900651,2|0,1:2|0:0,0:0:0:0:
66,227,19441,2,0,P|63:192|100:155,1,80.750001540184,2|0,0:0|0:0,0:0:0:0:
34,84,19647,2,0,P|63:64|113:78,1,71.2500027179719,10|0,0:0|0:0,0:0:0:0:
199,110,19852,1,2,0:0:0:0:
86,319,20057,6,0,L|65:225,1,95,4|0,1:2|0:0,0:0:0:0:
30,51,20468,1,8,0:0:0:0:
62,205,20673,1,0,0:0:0:0:
227,384,20878,54,0,L|247:254,1,104.500003189087,0|0,1:2|0:0,0:0:0:0:
281,42,21289,1,8,0:0:0:0:
248,260,21494,1,0,0:0:0:0:
445,384,21699,70,0,L|425:254,1,113.999996520996,0|0,1:2|0:0,0:0:0:0:
393,0,22110,1,8,0:0:0:0:
425,250,22315,1,0,0:0:0:0:
202,45,22520,6,0,B|256:16|256:16|311:48,1,123.499994346619,0|0,1:2|0:0,0:0:0:0:
257,337,22931,1,8,0:0:0:0:
257,19,23136,1,0,0:0:0:0:
159,365,23341,38,0,L|122:-3,1,356.25,6|0,0:0|0:0,0:0:0:0:
201,73,23752,2,0,L|46:87,1,142.500005435944,8|0,0:0|0:0,0:0:0:0:
353,365,23957,6,0,L|390:-3,1,356.25,0|0,1:2|0:0,0:0:0:0:
311,73,24367,2,0,L|466:87,1,142.500005435944,8|0,0:0|0:0,0:0:0:0:
100,384,24573,70,0,L|63:16,1,356.25,0|0,1:2|0:0,0:0:0:0:
142,92,24983,2,0,L|-13:106,1,142.500005435944,8|0,0:0|0:0,0:0:0:0:
412,384,25189,6,0,L|449:16,1,356.25,0|0,1:2|0:0,0:0:0:0:
370,92,25599,2,0,L|525:106,1,142.500005435944,8|0,0:0|0:0,0:0:0:0:
280,216,25805,70,0,B|255:240|255:240|229:221|229:221|252:215|252:215|237:44|237:44|229:32|229:32|237:7|237:7|248:30|248:30|242:44,1,327.750006251335,0|0,1:2|0:0,0:0:0:0:
231,222,26215,2,0,B|231:237|182:229|182:229|241:288|261:346|265:367|265:367|266:345|277:285|334:209|334:209|286:236|278:212,1,451.249987950325,12|0,0:0|0:0,0:0:0:0:
256,192,26831,12,0,30526,0:0:0:0:
