osu file format v14

[General]
AudioFilename: audio.mp3
AudioLeadIn: 0
PreviewTime: 57100
Countdown: 1
SampleSet: None
StackLeniency: 0.7
Mode: 0
LetterboxInBreaks: 0
WidescreenStoryboard: 0

[Editor]
Bookmarks: -23,22671,28664,57020,68672
DistanceSpacing: 1
BeatDivisor: 8
GridSize: 16
TimelineZoom: 1.6

[Metadata]
Title:B13A
TitleUnicode:B13A
Artist:Shiro Sagisu
ArtistUnicode:Shiro Sagisu
Creator:AyaTengu
Version:Bankai
Source:
Tags:bleach ost b13a ichigo shiro sagisu
BeatmapID:974883
BeatmapSetID:454744

[Difficulty]
HPDrainRate:5
CircleSize:4
OverallDifficulty:2
ApproachRate:6
SliderMultiplier:1.4
SliderTickRate:1

[Events]
//Background and Video events
0,0,"kurosaki_ichigo___mugetsu___bleach-wallpaper-1280x768.jpg",0,0
//Break Periods
2,42237,54194
//Storyboard Layer 0 (Background)
//Storyboard Layer 1 (Fail)
//Storyboard Layer 2 (Pass)
//Storyboard Layer 3 (Foreground)
//Storyboard Sound Samples

[TimingPoints]
1641.19846778226,443.918319029299,4,3,0,100,1,0

[HitObjects]
196,200,642,6,0,L|212:184,4,17.5
256,160,1086,1,0,0:0:0:0:
192,128,1308,1,0,0:0:0:0:
340,96,1585,2,0,P|316:208|304:208,1,140
192,208,2473,1,0,0:0:0:0:
144,80,2917,1,0,0:0:0:0:
272,32,3361,1,0,0:0:0:0:
336,160,3805,1,4,0:0:0:0:
196,200,4249,6,0,L|212:184,4,17.5
160,128,4693,2,0,P|192:112|240:112,1,70
304,160,5137,1,0,0:0:0:0:
224,160,5359,1,0,0:0:0:0:
176,208,5580,2,0,P|160:224|128:192,1,70
96,112,6024,1,0,0:0:0:0:
208,48,6468,1,0,0:0:0:0:
352,64,6912,2,0,L|352:144,1,70
320,208,7356,5,8,0:0:0:0:
256,240,7578,1,8,0:0:0:0:
196,200,7800,6,0,L|212:184,4,17.5
128,240,8244,2,0,L|48:224,1,70
16,160,8688,1,0,0:0:0:0:
16,96,8910,1,0,0:0:0:0:
16,96,9132,1,0,0:0:0:0:
80,80,9354,1,0,0:0:0:0:
128,80,9576,2,0,L|208:80,1,70
272,80,10020,5,4,0:0:0:0:
336,80,10242,1,4,0:0:0:0:
336,144,10464,2,0,L|272:176,2,70
320,208,11129,1,4,0:0:0:0:
272,176,11351,2,0,L|192:176,1,70
128,176,11795,1,0,0:0:0:0:
272,176,12017,2,0,L|192:176,1,70
176,240,12461,1,4,0:0:0:0:
224,304,12683,2,4,L|144:304,1,70
128,208,13127,5,0,0:0:0:0:
240,208,13349,1,0,0:0:0:0:
368,208,13571,1,0,0:0:0:0:
240,112,13793,1,0,0:0:0:0:
224,176,14015,2,0,L|240:160,4,17.5
208,240,14459,2,0,L|288:240,1,70
256,192,15069,12,0,18121,0:0:0:0:
144,224,18399,6,0,L|208:192,1,70
288,176,18843,2,0,L|368:192,1,70
224,272,19286,2,0,P|320:288|304:288,1,70
112,176,19730,1,4,0:0:0:0:
208,64,19952,2,0,P|256:64|272:80,1,70
304,128,20396,5,0,0:0:0:0:
304,208,20618,1,0,0:0:0:0:
256,272,20840,1,0,0:0:0:0:
176,272,21062,5,0,0:0:0:0:
160,272,21173,5,0,0:0:0:0:
144,272,21284,5,0,0:0:0:0:
96,224,21506,6,4,L|96:176,2,35
96,64,22005,1,0,0:0:0:0:
192,96,22227,1,0,0:0:0:0:
320,128,22449,1,0,0:0:0:0:
448,160,22671,1,0,0:0:0:0:
352,224,22893,5,0,0:0:0:0:
256,256,23115,1,0,0:0:0:0:
160,224,23337,1,0,0:0:0:0:
96,160,23559,1,4,0:0:0:0:
128,96,23781,6,0,P|160:64|192:64,1,70
256,64,24225,2,0,P|288:64|320:96,1,70
288,192,24669,1,0,0:0:0:0:
256,192,24780,1,0,0:0:0:0:
224,192,24891,1,0,0:0:0:0:
176,272,25113,2,4,L|96:272,1,70
256,192,28054,12,0,28942,0:0:0:0:
128,112,29108,6,0,B|208:80|288:80|400:160,1,280
336,240,30218,1,0,0:0:0:0:
224,224,30440,1,0,0:0:0:0:
128,176,30662,1,4,0:0:0:0:
32,208,30939,6,0,B|64:272|160:336|256:336,1,262.5
336,304,31994,1,0,0:0:0:0:
384,208,32216,1,0,0:0:0:0:
384,112,32438,1,4,0:0:0:0:
304,64,32659,2,0,B|192:80|128:112|80:160|64:208,1,280
256,192,33991,12,0,34879,0:0:0:0:
192,192,35101,5,0,0:0:0:0:
256,128,35323,1,0,0:0:0:0:
320,192,35545,1,0,0:0:0:0:
256,272,35767,1,4,0:0:0:0:
416,80,36266,2,0,L|112:80,1,297.5
112,176,37543,5,4,0:0:0:0:
177,201,37653,1,0,0:0:0:0:
246,211,37764,1,0,0:0:0:0:
315,204,37875,1,0,0:0:0:0:
368,144,37987,2,0,B|304:96|224:80|96:112,1,280
32,208,39318,5,4,0:0:0:0:
240,32,39762,1,0,0:0:0:0:
480,208,40206,1,0,0:0:0:0:
256,176,41149,5,4,0:0:0:0:
256,176,41593,1,0,0:0:0:0:
256,176,42037,1,0,0:0:0:0:
256,192,55244,12,0,56909,0:0:0:0:
416,192,57574,5,4,0:0:0:0:
320,256,57796,1,4,0:0:0:0:
192,256,58018,1,0,0:0:0:0:
96,192,58240,1,0,0:0:0:0:
128,96,58462,6,0,P|160:64|192:64,1,70
288,96,58906,1,0,0:0:0:0:
384,160,59128,2,0,P|416:192|416:224,1,70
320,288,59572,1,0,0:0:0:0:
192,288,59794,1,0,0:0:0:0:
96,192,60016,1,4,0:0:0:0:
160,128,60238,6,0,L|192:96,3,70
288,96,61126,1,0,0:0:0:0:
288,96,61237,1,0,0:0:0:0:
288,96,61348,1,0,0:0:0:0:
384,128,61570,2,0,P|384:160|352:192,1,70
288,256,62014,2,0,P|256:288|224:288,1,70
128,224,62458,2,0,P|96:192|96:160,1,70
160,64,62901,5,0,0:0:0:0:
224,224,63123,1,0,0:0:0:0:
288,96,63345,1,0,0:0:0:0:
96,160,63567,1,0,0:0:0:0:
160,32,63789,1,0,0:0:0:0:
192,192,64011,1,0,0:0:0:0:
256,96,64233,6,4,P|288:96|320:64,1,70
320,192,64677,2,0,L|368:192,2,35
240,208,65121,1,0,0:0:0:0:
160,160,65343,1,0,0:0:0:0:
80,176,65565,2,0,P|80:224|96:240,1,70
176,304,66009,1,0,0:0:0:0:
256,288,66231,5,0,0:0:0:0:
272,272,66342,1,0,0:0:0:0:
304,272,66453,1,0,0:0:0:0:
368,224,66675,2,0,P|384:176|368:160,1,70
320,112,67119,1,0,0:0:0:0:
240,112,67341,2,0,P|240:160|224:176,1,70
160,240,67785,5,4,0:0:0:0:
112,176,68006,6,0,L|96:144,2,35
144,240,68450,2,0,L|176:256,2,35
176,176,68894,1,0,0:0:0:0:
256,128,69116,1,0,0:0:0:0:
368,192,69338,6,0,P|368:240|352:256,1,70
256,272,69782,1,0,0:0:0:0:
224,272,69893,1,0,0:0:0:0:
192,256,70004,1,0,0:0:0:0:
96,144,70226,1,0,0:0:0:0:
96,320,70448,1,0,0:0:0:0:
224,144,70670,1,0,0:0:0:0:
224,320,70892,1,0,0:0:0:0:
352,144,71114,1,0,0:0:0:0:
352,320,71336,1,0,0:0:0:0:
224,208,71558,5,4,0:0:0:0:
112,160,71780,2,0,P|128:144|144:160,2,35
80,96,72224,2,0,L|160:96,1,70
96,176,72668,1,0,0:0:0:0:
192,208,72890,1,0,0:0:0:0:
272,176,73112,2,0,P|320:160|336:176,1,70
240,304,73555,1,4,0:0:0:0:
352,256,73777,5,4,0:0:0:0:
192,192,73999,1,0,0:0:0:0:
192,192,74221,1,0,0:0:0:0:
192,192,74443,2,0,B|256:144|256:144,1,70
320,96,74887,1,0,0:0:0:0:
224,96,75109,2,0,L|192:112,2,35
288,144,75553,2,0,L|320:176,2,35
224,96,75997,5,4,0:0:0:0:
160,160,76219,2,0,L|128:240,1,70
192,256,76663,1,0,0:0:0:0:
256,208,76885,2,0,L|288:176,2,35
112,272,77551,1,0,0:0:0:0:
96,192,77773,1,0,0:0:0:0:
176,208,77995,1,0,0:0:0:0:
144,128,78217,1,0,0:0:0:0:
224,128,78439,6,0,L|304:144,1,70
352,208,78882,5,4,0:0:0:0:
256,256,79326,2,0,L|176:224,1,70
128,144,79770,1,0,0:0:0:0:
224,96,79992,1,0,0:0:0:0:
320,160,80214,2,0,L|320:240,1,70
176,48,80658,5,0,0:0:0:0:
113,51,80880,1,0,0:0:0:0:
82,106,81102,1,0,0:0:0:0:
113,161,81324,1,0,0:0:0:0:
176,163,81546,1,0,0:0:0:0:
256,176,81768,2,0,P|304:160|320:176,1,70
304,256,82212,2,0,L|272:272,2,35
368,128,82656,1,4,0:0:0:0:
272,96,82878,1,0,0:0:0:0:
160,96,83100,1,0,0:0:0:0:
80,160,83322,1,0,0:0:0:0:
128,256,83544,1,0,0:0:0:0:
208,336,83766,2,0,P|256:352|288:336,1,87.5
