osu file format v14

[General]
AudioFilename: audio.mp3
AudioLeadIn: 0
PreviewTime: 60599
Countdown: 0
SampleSet: Soft
StackLeniency: 1
Mode: 0
LetterboxInBreaks: 0
WidescreenStoryboard: 1

[Editor]
Bookmarks: 9037,16815,18592,23482,27037,29259,31037,34593,36370,38148,39926,43482,47037,49926,54148,57704,61259,68370,79037,82592,89370
DistanceSpacing: 1
BeatDivisor: 4
GridSize: 8
TimelineZoom: 1.6

[Metadata]
Title:TOUCH YOU
TitleUnicode:TOUCH YOU
Artist:Shiritsu Morimori Gakuen Seishun Danshis
ArtistUnicode:私立モリモーリ学園 性春♡男子
Creator:Rabbitt
Version:Normal
Source:ヤリチン☆ビッチ部
Tags:Anime Yaoi BL boys love Shounen Ai Manga Male Opening Opsi Piramisu myoISHEREowo Hamano yeastiest defreeyay
BeatmapID:1714650
BeatmapSetID:816594

[Difficulty]
HPDrainRate:3
CircleSize:3
OverallDifficulty:3
ApproachRate:4
SliderMultiplier:1.3
SliderTickRate:1

[Events]
//Background and Video events
0,0,"dd1a86a0b320addc14bf0efd91d2b0ac.jpg",0,0
//Break Periods
//Storyboard Layer 0 (Background)
//Storyboard Layer 1 (Fail)
//Storyboard Layer 2 (Pass)
//Storyboard Layer 3 (Foreground)
//Storyboard Layer 4 (Overlay)
//Storyboard Sound Samples

[TimingPoints]
155,444.444444444444,4,2,0,100,1,0
9043,-100,4,2,0,100,0,0
16154,-100,4,2,0,100,0,1
30377,-100,4,2,0,100,0,0
60599,-100,4,2,0,100,0,1
74821,-100,4,2,0,100,0,0
78377,-100,4,2,0,100,0,1
85492,444.444444444444,4,2,0,100,1,0
85492,-100,4,2,0,100,0,0
87043,444.444444444444,4,2,0,100,1,0
87047,-100,4,2,0,100,0,1
88820,-100,4,2,0,100,0,0

[Colours]
Combo1 : 185,225,186
Combo2 : 204,157,255
Combo3 : 145,169,255
Combo4 : 255,147,196
Combo5 : 255,250,147
Combo6 : 255,183,117
Combo7 : 164,236,166

[HitObjects]
7,257,155,6,0,P|41:257|70:265,1,65
108,317,599,2,0,P|129:342|155:359,1,65
216,383,1043,2,0,P|240:361|260:336,1,65
276,273,1488,1,0,0:0:0:0:
342,161,1932,6,0,P|345:97|303:49,2,130,2|2|2,0:0|0:0|0:0,0:0:0:0:
226,221,3266,1,2,0:0:0:0:
109,163,3710,2,0,P|105:99|147:51,1,130,2|0,0:0|0:0,0:0:0:0:
274,25,4599,2,0,L|430:35,1,130,8|8,0:0|0:0,0:0:0:0:
465,68,5266,1,0,0:0:0:0:
465,68,5488,2,0,P|465:132|452:185,2,97.5,6|0|0,0:0|0:0|0:0,0:0:0:0:
403,33,6377,1,2,0:0:0:0:
265,170,7043,53,8,0:0:0:0:
265,170,7266,2,0,P|219:184|173:170,2,97.5,0|4|0,0:0|0:0|0:0,0:0:0:0:
320,135,8154,2,0,P|382:120|442:143,1,130,8|8,0:0|0:0,0:0:0:0:
512,240,9043,6,0,P|453:265|395:241,1,130
299,153,9932,2,0,P|240:127|182:151,1,130
136,273,10821,2,0,P|194:298|252:274,1,130
296,226,11488,1,0,0:0:0:0:
296,226,11710,2,0,P|354:200|412:224,1,130
464,271,12377,1,0,0:0:0:0:
464,271,12599,6,0,P|450:226|462:179,2,97.5,2|10|10,0:0|0:0|0:0,0:0:0:0:
502,325,13488,2,0,L|427:358,1,65,10|8,0:0|0:0,0:0:0:0:
397,304,13932,2,0,L|337:330,1,65,8|8,0:0|0:0,0:0:0:0:
279,299,14377,5,0,0:0:0:0:
279,299,15710,1,8,0:0:0:0:
168,230,16154,6,0,P|224:200|297:214,1,130,6|8,1:0|0:0,0:0:0:0:
384,297,17043,2,0,P|445:311|512:279,1,130,2|8,1:1|2:2,0:0:0:0:
487,156,17932,2,0,L|463:5,2,130,2|2|2,1:0|1:1|1:0,0:0:0:0:
504,285,19266,1,8,0:0:0:0:
385,231,19710,6,0,P|329:201|256:215,1,130,2|8,1:0|1:2,0:0:0:0:
169,298,20599,2,0,P|107:312|40:280,1,130,2|8,1:0|1:2,0:0:0:0:
2,165,21488,2,0,B|68:160|68:160|153:189,1,130,2|2,1:0|1:0,0:0:0:0:
240,246,22377,2,0,B|306:251|306:251|391:222,1,130,2|8,1:0|0:0,0:0:0:0:
455,135,23266,38,0,P|399:105|326:119,1,130,6|8,1:0|2:2,0:0:0:0:
214,162,24155,2,0,P|152:176|85:144,1,130,2|8,1:0|0:0,0:0:0:0:
0,53,25044,2,0,L|14:184,2,130,2|2|2,1:0|1:0|1:0,0:0:0:0:
0,53,26377,1,8,0:0:0:0:
128,71,26821,54,0,B|120:131|181:129|204:167|204:167|197:123|236:100|202:40|202:40|267:62|323:29|323:29|326:41|326:41|392:7|451:42,1,520,2|2,0:0|1:2,0:0:0:0:
490,157,29043,1,2,1:2:0:0:
409,261,29488,1,2,1:2:0:0:
344,147,29932,2,0,P|277:131|220:165,1,130,8|0,1:2|1:2,0:0:0:0:
225,158,31710,1,2,0:0:0:0:
303,261,32154,70,0,P|240:275|184:245,1,130,4|8,1:2|0:0,0:0:0:0:
103,144,33043,2,0,P|56:131|8:139,2,97.5,2|0|8,1:2|1:2|0:0,0:0:0:0:
164,190,33932,1,2,1:2:0:0:
164,190,34154,1,0,0:0:0:0:
164,190,34377,2,0,P|212:195|260:186,1,97.5,8|0,0:0|0:0,0:0:0:0:
327,116,35043,2,0,P|344:177|393:218,1,130,4|0,0:0|0:0,0:0:0:0:
455,198,35710,6,0,P|467:272|423:328,1,130,0|8,1:2|0:0,0:0:0:0:
346,338,36377,1,2,2:2:0:0:
346,338,36599,2,0,L|221:344,2,97.5,2|2|4,1:2|1:2|1:2,0:0:0:0:
395,294,37488,2,0,P|411:249|411:201,2,97.5,2|2|2,2:2|2:2|0:0,0:0:0:0:
346,338,38377,2,0,L|206:342,1,130,8|8,0:0|0:0,0:0:0:0:
86,328,39266,6,0,P|66:285|89:204,1,130,0|8,1:2|0:0,0:0:0:0:
210,242,40154,2,0,P|221:195|187:133,1,97.5,2|2,2:0|0:0,0:0:0:0:
119,103,40821,1,8,0:0:0:0:
119,103,41043,2,0,P|163:61|249:65,1,130,0|8,0:0|0:0,0:0:0:0:
348,110,41932,1,2,0:0:0:0:
348,110,42154,2,0,L|351:194,2,65,0|8|8,0:0|0:0|0:0,0:0:0:0:
389,59,42821,54,0,P|456:49|537:89,1,130,2|2,2:2|2:2,0:0:0:0:
406,144,43710,2,0,L|411:269,2,97.5,2|8|4,2:2|2:2|1:2,0:0:0:0:
98,295,45488,85,8,0:0:0:0:
98,295,45932,1,2,0:0:0:0:
97,294,46377,2,0,P|88:231|118:175,1,130,4|8,1:2|0:0,0:0:0:0:
224,100,47266,1,2,0:0:0:0:
224,100,47710,1,8,0:0:0:0:
224,100,48154,2,0,L|361:102,1,130,2|8,0:0|0:0,0:0:0:0:
479,148,49043,1,2,0:0:0:0:
479,148,49488,5,8,0:0:0:0:
479,148,49932,2,0,P|477:210|428:250,1,130,6|8,0:0|0:0,0:0:0:0:
298,234,50821,2,0,L|151:222,1,130,2|8,0:0|0:0,0:0:0:0:
43,204,51710,2,0,P|40:141|87:98,1,130,2|8,0:0|0:0,0:0:0:0:
212,63,52599,2,0,P|276:57|334:84,2,130,2|8|2,0:0|0:0|0:0,0:0:0:0:
68,280,54377,53,2,0:0:0:0:
68,280,54821,1,8,0:0:0:0:
68,280,55266,2,0,L|206:290,1,130,2|0,0:0|0:0,0:0:0:0:
327,299,56154,1,2,0:0:0:0:
327,299,56599,5,8,0:0:0:0:
452,333,57043,2,0,B|475:275|475:275|448:200,2,130,6|6|6,1:2|1:2|1:2,0:0:0:0:
325,302,58377,2,0,B|260:289|260:289|176:305,1,130,6|8,1:2|1:2,0:0:0:0:
162,210,60599,6,0,P|190:253|268:253,2,130,6|8|2,0:0|0:0|0:0,0:0:0:0:
116,88,61932,1,8,0:0:0:0:
235,35,62377,2,0,P|297:31|336:80,1,130,2|8,0:0|0:0,0:0:0:0:
349,209,63266,2,0,L|319:352,1,130,2|8,0:0|0:0,0:0:0:0:
257,340,63932,1,0,0:0:0:0:
257,340,64154,2,0,L|119:345,2,130,2|8|2,0:0|0:0|0:0,0:0:0:0:
79,257,65710,21,0,0:0:0:0:
78,256,65932,2,0,P|62:211|69:164,2,97.5,2|4|2,0:0|0:0|0:0,0:0:0:0:
131,295,66821,2,0,P|169:297|233:230,1,130,8|8,0:0|0:0,0:0:0:0:
213,108,67710,6,0,P|254:59|317:53,1,130,2|8,0:0|0:0,0:0:0:0:
440,97,68599,2,0,P|398:145|335:151,1,130,2|8,0:0|0:0,0:0:0:0:
222,86,69488,2,0,L|200:239,1,130,2|8,0:0|0:0,0:0:0:0:
200,279,70154,1,0,0:0:0:0:
200,279,70377,6,0,L|272:260,2,65,2|0|8,0:0|0:0|0:0,0:0:0:0:
136,290,71043,1,0,0:0:0:0:
136,290,71266,2,0,P|93:258|93:177,1,130,2|8,0:0|0:0,0:0:0:0:
158,76,72154,2,0,L|309:59,1,130,2|8,0:0|0:0,0:0:0:0:
353,84,72821,1,0,0:0:0:0:
353,84,73043,86,0,L|343:220,1,130,2|0,0:0|0:0,0:0:0:0:
306,267,73710,1,0,0:0:0:0:
306,267,73932,2,0,L|170:279,1,130,8|8,0:0|0:0,0:0:0:0:
46,288,74821,38,0,P|29:229|52:161,1,130,2|8,0:0|0:0,0:0:0:0:
148,81,75710,2,0,P|209:61|273:68,1,130,8|8,0:0|0:0,0:0:0:0:
338,62,76377,1,8,0:0:0:0:
338,62,76599,6,0,L|324:204,1,130,6|6,0:0|0:0,0:0:0:0:
199,226,77488,2,0,P|251:252|319:220,1,130,6|6,0:0|0:0,0:0:0:0:
256,192,78377,12,0,81932,0:0:0:0:
353,82,83710,6,0,L|204:91,1,130
116,164,84599,2,0,L|265:173,1,130
375,182,85488,1,0,0:0:0:0:
375,182,85932,1,0,0:0:0:0:
375,182,86377,1,0,0:0:0:0:
487,246,86821,5,0,0:0:0:0:
487,246,87043,2,0,B|444:290|429:185|380:223|339:295|339:295|371:121|192:125|159:198,1,487.5
