osu file format v14

[General]
AudioFilename: audio.mp3
AudioLeadIn: 0
PreviewTime: 60599
Countdown: 0
SampleSet: Soft
StackLeniency: 0.2
Mode: 0
LetterboxInBreaks: 0
WidescreenStoryboard: 1

[Editor]
Bookmarks: 815,9703,16815,23926,31037,32814,39926,47037,54148,61259,68370,70592,71926,75481,79037,82592
DistanceSpacing: 2.7
BeatDivisor: 4
GridSize: 32
TimelineZoom: 1.6

[Metadata]
Title:TOUCH YOU
TitleUnicode:TOUCH YOU
Artist:Shiritsu Morimori Gakuen Seishun Danshis
ArtistUnicode:私立モリモーリ学園 性春♡男子
Creator:Rabbitt
Version:Insane
Source:ヤリチン☆ビッチ部
Tags:Anime Yaoi BL boys love Shounen Ai Manga Male Opening Opsi Piramisu myoISHEREowo Hamano yeastiest defreeyay
BeatmapID:2639332
BeatmapSetID:816594

[Difficulty]
HPDrainRate:5
CircleSize:4
OverallDifficulty:9
ApproachRate:9.2
SliderMultiplier:3.2
SliderTickRate:1

[Events]
//Background and Video events
0,0,"2_waifu2x_art_noise1_scale_tta_1.png",0,0
//Break Periods
//Storyboard Layer 0 (Background)
//Storyboard Layer 1 (Fail)
//Storyboard Layer 2 (Pass)
//Storyboard Layer 3 (Foreground)
//Storyboard Layer 4 (Overlay)
//Storyboard Sound Samples

[TimingPoints]
155,444.444444444444,4,2,0,70,1,0
1043,-133.333333333333,4,2,0,70,0,0
4599,-100,4,2,0,70,0,0
5488,-133.333333333333,4,2,0,70,0,0
9043,-100,4,2,0,100,0,0
16154,-125,4,2,0,100,0,1
30377,-125,4,2,0,100,0,0
44377,-200,4,2,0,100,0,0
45266,-125,4,2,0,100,0,0
60599,-94.3396226415094,4,2,0,100,0,1
74821,-100,4,2,0,100,0,0
78377,-100,4,2,0,100,0,1
85492,444.444444444444,4,2,0,70,1,0
87043,444.444444444444,4,2,0,70,1,0
87043,-100,4,2,0,70,0,1
88820,-100,4,2,0,70,0,0

[Colours]
Combo1 : 255,200,98
Combo2 : 138,211,242
Combo3 : 203,252,167
Combo4 : 255,218,149
Combo5 : 85,190,236
Combo6 : 179,251,125

[HitObjects]
26,82,155,5,0,0:0:0:0:
114,27,377,1,0,0:0:0:0:
116,67,488,1,0,0:0:0:0:
119,108,599,1,0,0:0:0:0:
123,153,710,1,0,0:0:0:0:
223,206,932,1,0,0:0:0:0:
237,221,1043,2,0,B|266:233|266:233|299:228,1,60.0000022888184
448,118,1377,1,0,0:0:0:0:
434,103,1488,2,0,B|371:90|371:90|305:114,1,120.000004577637
451,279,1932,5,2,0:0:0:0:
461,292,2377,1,2,0:0:0:0:
301,339,2821,5,2,0:0:0:0:
291,352,3266,1,2,0:0:0:0:
68,299,3710,5,2,0:0:0:0:
78,312,4154,1,0,0:0:0:0:
96,174,4377,1,0,0:0:0:0:
96,174,4488,1,0,0:0:0:0:
96,174,4599,2,0,P|118:88|61:59,1,160,8|0,0:0|0:0,0:0:0:0:
196,274,4932,1,0,0:0:0:0:
196,274,5043,2,0,P|263:216|245:154,1,160,8|0,0:0|0:0,0:0:0:0:
350,178,5488,6,0,P|397:222|520:132,1,240.000009155274,6|0,0:0|0:0,0:0:0:0:
170,314,6377,2,0,P|99:227|0:275,1,240.000009155274,2|0,0:0|0:0,0:0:0:0:
203,194,7043,1,8,0:0:0:0:
203,194,7154,1,8,0:0:0:0:
203,194,7266,6,0,P|206:124|148:87,1,120.000004577637
299,243,7599,2,0,P|323:177|391:165,1,120.000004577637,4|0,0:0|0:0,0:0:0:0:
410,67,7932,1,0,0:0:0:0:
290,93,8154,1,8,0:0:0:0:
478,203,8377,1,2,0:0:0:0:
467,207,8451,1,0,0:0:0:0:
453,213,8525,1,0,0:0:0:0:
441,221,8599,2,0,B|428:263|428:263|455:296|455:296|458:342,1,120.000004577637,8|0,0:0|0:0,0:0:0:0:
144,260,9043,6,0,P|95:281|39:190,1,160
245,71,9488,2,0,P|196:50|140:141,1,160
293,199,9932,6,0,P|342:220|398:129,1,160
257,318,10377,2,0,P|306:297|362:388,1,160
126,309,10821,2,0,P|77:288|21:379,1,160
203,222,11266,1,0,0:0:0:0:
83,72,11488,1,0,0:0:0:0:
188,250,11710,1,0,0:0:0:0:
168,22,11932,1,2,0:0:0:0:
170,283,12154,1,0,0:0:0:0:
283,66,12377,1,0,0:0:0:0:
153,317,12599,5,2,0:0:0:0:
257,362,12821,1,8,0:0:0:0:
285,360,12932,1,10,0:0:0:0:
313,353,13043,1,8,0:0:0:0:
339,340,13154,1,8,0:0:0:0:
362,323,13265,1,10,0:0:0:0:
381,301,13376,1,8,0:0:0:0:
363,276,13488,5,10,0:0:0:0:
353,249,13598,1,8,0:0:0:0:
349,220,13709,1,8,0:0:0:0:
350,192,13821,1,8,0:0:0:0:
356,165,13932,1,8,0:0:0:0:
381,180,14043,1,8,0:0:0:0:
409,186,14154,1,8,0:0:0:0:
437,182,14265,1,0,0:0:0:0:
463,169,14376,1,0,0:0:0:0:
70,248,16154,6,0,P|142:274|203:247,1,128,6|0,1:0|0:0,0:0:0:0:
259,178,16488,1,0,0:0:0:0:
259,178,16599,2,0,L|396:198,1,128,8|0,0:0|0:0,0:0:0:0:
470,246,16932,1,0,0:0:0:0:
470,246,17043,2,0,L|478:161,1,64,2|0,1:1|0:3,0:0:0:0:
412,106,17266,2,0,L|402:35,1,64,4|0,1:2|0:0,0:0:0:0:
491,61,17488,1,8,2:2:0:0:
322,86,17710,1,0,0:0:0:0:
165,31,17932,5,2,1:0:0:0:
94,243,18154,1,0,0:0:0:0:
230,335,18377,1,2,1:1:0:0:
395,310,18599,1,0,0:0:0:0:
195,241,18821,1,2,1:0:0:0:
59,365,19043,2,0,P|17:296|99:244,1,192,4|0,1:2|0:0,0:0:0:0:
7,264,19488,2,0,L|-3:178,1,64,2|0,0:0|0:0,0:0:0:0:
73,142,19710,6,0,L|92:9,1,128,2|0,1:0|0:0,0:0:0:0:
181,15,20043,1,0,0:0:0:0:
181,15,20154,2,0,P|255:40|316:10,1,128,8|0,1:2|0:0,0:0:0:0:
401,2,20488,1,0,0:0:0:0:
401,2,20599,2,0,L|422:82,1,64,2|0,1:0|0:0,0:0:0:0:
487,125,20821,2,0,L|466:205,1,64,4|0,1:2|0:0,0:0:0:0:
398,141,21043,1,8,1:2:0:0:
505,263,21266,1,0,0:0:0:0:
505,263,21377,1,0,0:0:0:0:
505,263,21488,5,2,1:0:0:0:
301,354,21710,1,0,0:0:0:0:
149,277,21932,1,2,1:0:0:0:
213,120,22154,1,0,0:0:0:0:
353,278,22377,1,2,1:0:0:0:
177,358,22599,1,2,0:0:0:0:
177,358,22710,1,0,0:0:0:0:
177,358,22821,1,8,0:0:0:0:
118,377,22932,1,8,0:0:0:0:
46,357,23043,1,8,0:0:0:0:
36,280,23154,1,8,0:0:0:0:
125,213,23266,6,0,P|133:139|105:83,1,128,6|0,1:0|2:0,0:0:0:0:
32,29,23599,1,0,0:0:0:0:
32,29,23710,2,0,L|157:-1,1,128,8|0,2:2|0:0,0:0:0:0:
254,10,24043,1,0,0:0:0:0:
254,10,24154,2,0,L|338:27,1,64,2|0,1:0|0:0,0:0:0:0:
401,79,24377,2,0,L|485:62,1,64,4|0,1:2|0:0,0:0:0:0:
417,2,24599,1,8,0:0:0:0:
451,144,24821,1,0,0:0:0:0:
377,351,25043,5,2,1:0:0:0:
213,336,25266,1,0,0:0:0:0:
114,206,25488,1,2,1:0:0:0:
308,252,25710,1,0,0:0:0:0:
188,239,25932,1,2,1:0:0:0:
297,106,26154,2,0,P|258:35|150:34,1,192,4|0,1:2|0:0,0:0:0:0:
88,101,26599,2,0,L|69:175,1,64,2|0,0:0|0:0,0:0:0:0:
240,194,26821,5,2,0:0:0:0:
234,150,26932,1,0,0:0:0:0:
247,182,27043,1,8,0:0:0:0:
262,170,27154,1,8,0:0:0:0:
262,202,27266,1,8,0:0:0:0:
228,209,27377,1,8,0:0:0:0:
256,196,27488,1,8,0:0:0:0:
233,166,27599,1,8,0:0:0:0:
271,155,27710,5,2,1:2:0:0:
278,199,27821,1,2,0:0:0:0:
238,227,27932,1,2,0:0:0:0:
189,226,28043,1,2,0:0:0:0:
146,200,28154,1,2,0:0:0:0:
124,156,28266,1,2,0:0:0:0:
128,107,28377,1,2,0:0:0:0:
155,65,28488,1,2,0:0:0:0:
195,35,28599,5,2,1:2:0:0:
472,287,29043,5,2,1:2:0:0:
14,241,29488,5,2,1:2:0:0:
492,128,29932,5,8,1:2:0:0:
249,295,30377,5,0,1:2:0:0:
249,295,30599,1,0,0:2:0:0:
139,347,30821,5,0,0:2:0:0:
139,347,30932,5,0,0:2:0:0:
41,295,31154,1,0,0:2:0:0:
41,295,31377,1,0,0:2:0:0:
99,185,31599,1,0,0:2:0:0:
118,155,31710,1,2,0:0:0:0:
123,120,31821,1,0,0:0:0:0:
111,86,31932,1,0,0:0:0:0:
85,62,32043,1,0,0:0:0:0:
52,51,32154,5,4,1:2:0:0:
289,87,32488,1,2,0:0:0:0:
289,87,32599,1,8,0:0:0:0:
219,211,32821,1,2,0:0:0:0:
272,358,33043,1,2,1:2:0:0:
465,373,33377,1,0,1:2:0:0:
512,217,33710,1,8,0:0:0:0:
441,166,33932,6,0,L|365:192,1,64,2|0,1:2|0:0,0:0:0:0:
204,213,34154,2,0,L|280:239,1,64
303,151,34377,1,8,0:0:0:0:
303,151,34488,1,0,0:0:0:0:
486,78,34710,2,0,P|422:61|368:95,1,128
342,88,35043,1,4,0:0:0:0:
192,75,35266,1,8,0:0:0:0:
314,5,35488,1,0,0:0:0:0:
113,230,35710,6,0,B|128:192|128:192|96:157|116:145|116:145|111:105,1,128,0|0,1:2|2:2,0:0:0:0:
1,344,36154,2,0,B|-14:306|-14:306|18:271|-2:259|-2:259|3:219,1,128,8|2,0:0|2:2,0:0:0:0:
153,350,36599,2,0,B|168:358|168:358|186:366|201:353|201:353|219:363|219:363|241:364|241:364|254:357|254:357|281:361|281:361|299:345|299:345|328:354|328:354|352:366,2,192,2|2|4,1:2|1:2|1:2,0:0:0:0:
253,236,37488,5,2,2:2:0:0:
253,236,37599,1,0,0:0:0:0:
401,233,37821,1,2,2:2:0:0:
401,233,37932,1,0,0:0:0:0:
204,145,38154,1,2,0:0:0:0:
328,261,38377,1,8,0:0:0:0:
429,102,38599,1,2,0:0:0:0:
248,291,38821,1,8,0:0:0:0:
218,293,38932,1,0,0:0:0:0:
189,296,39043,1,0,0:0:0:0:
160,298,39154,1,0,0:0:0:0:
130,301,39266,6,0,L|63:317,1,64,0|0,1:2|0:0,0:0:0:0:
17,216,39488,2,0,L|84:232,1,64,0|2,0:0|0:0,0:0:0:0:
191,210,39710,2,0,P|180:142|233:94,1,128,8|0,0:0|0:0,0:0:0:0:
387,157,40154,2,0,L|320:141,1,64,2|0,2:0|0:0,0:0:0:0:
437,228,40377,1,0,0:0:0:0:
437,228,40488,2,0,P|426:296|479:344,1,128,2|0,0:0|0:0,0:0:0:0:
512,237,40821,2,0,B|515:203|515:203|500:119,1,64,8|0,0:0|0:0,0:0:0:0:
461,49,41043,6,0,B|451:85|451:85|449:167,1,64
345,53,41377,1,0,0:0:0:0:
345,53,41488,2,0,P|288:88|240:42,1,128,8|0,0:0|0:0,0:0:0:0:
137,18,41821,1,0,0:0:0:0:
137,18,41932,2,0,L|157:97,1,64,2|0,0:0|0:0,0:0:0:0:
50,167,42154,2,0,L|70:88,1,64
147,163,42377,2,0,L|207:215,1,64,8|0,0:0|0:0,0:0:0:0:
313,261,42599,1,8,0:0:0:0:
287,275,42710,1,8,0:0:0:0:
261,289,42821,6,0,L|265:370,1,64,2|0,2:2|0:0,0:0:0:0:
381,349,43043,1,8,0:0:0:0:
381,349,43154,1,8,0:0:0:0:
381,349,43266,2,0,L|385:275,1,64,2|0,2:2|0:0,0:0:0:0:
495,291,43488,1,8,0:0:0:0:
495,291,43598,1,8,0:0:0:0:
495,291,43710,2,0,L|491:217,1,64,2|0,2:2|0:0,0:0:0:0:
389,157,44043,2,0,L|385:83,1,64,8|0,2:2|0:0,0:0:0:0:
259,44,44377,6,0,B|162:81|173:15|74:49,1,160,4|8,1:2|0:0,0:0:0:0:
53,168,45043,2,0,P|96:168|160:194,1,80,2|2,0:0|0:0,0:0:0:0:
301,279,45488,1,8,0:0:0:0:
316,311,45599,1,2,0:0:0:0:
341,337,45710,1,2,0:0:0:0:
372,354,45821,1,2,0:0:0:0:
407,354,45932,1,2,0:0:0:0:
438,337,46043,1,2,0:0:0:0:
463,311,46154,1,8,0:0:0:0:
478,279,46265,1,8,0:0:0:0:
483,243,46377,5,4,1:2:0:0:
385,98,46821,1,8,0:0:0:0:
385,98,47043,1,0,0:0:0:0:
301,35,47266,1,2,0:0:0:0:
120,97,47710,1,8,0:0:0:0:
120,97,47932,1,0,0:0:0:0:
204,34,48155,5,2,0:0:0:0:
262,182,48599,1,8,0:0:0:0:
262,182,48821,1,0,0:0:0:0:
262,182,49043,1,2,0:0:0:0:
456,278,49266,2,0,L|462:208,1,64
378,248,49488,2,0,L|384:312,1,64,8|0,0:0|0:0,0:0:0:0:
305,343,49710,2,0,L|310:279,1,64
229,370,49932,5,6,0:0:0:0:
72,312,50377,1,8,0:0:0:0:
68,148,50821,1,2,0:0:0:0:
209,67,51266,1,8,0:0:0:0:
410,114,51488,1,0,0:0:0:0:
410,114,51599,1,0,0:0:0:0:
410,114,51710,6,0,P|456:66|432:-4,1,128,2|2,0:0|0:0,0:0:0:0:
326,151,52154,2,0,P|317:212|361:254,1,128,8|0,0:0|0:0,0:0:0:0:
259,321,52599,1,2,0:0:0:0:
259,321,52710,1,0,0:0:0:0:
259,321,52821,2,0,L|149:336,1,64,8|0,0:0|0:0,0:0:0:0:
47,254,53043,1,8,0:0:0:0:
47,254,53154,1,0,0:0:0:0:
47,254,53265,2,0,L|157:269,1,64
210,171,53488,5,2,0:0:0:0:
90,56,53821,1,8,0:0:0:0:
90,56,53932,1,8,0:0:0:0:
255,114,54154,1,8,0:0:0:0:
402,62,54377,1,2,0:0:0:0:
402,62,54488,1,8,0:0:0:0:
402,62,54599,1,8,0:0:0:0:
296,174,54821,1,8,0:0:0:0:
252,19,55043,1,8,0:0:0:0:
255,238,55266,5,2,0:0:0:0:
388,327,55599,1,8,0:0:0:0:
388,327,55710,1,0,0:0:0:0:
209,172,55932,1,8,0:0:0:0:
258,327,56154,1,2,0:0:0:0:
258,327,56266,1,8,0:0:0:0:
258,327,56377,2,0,L|269:246,1,64,8|0,0:0|0:0,0:0:0:0:
128,351,56599,2,0,L|119:285,1,64,8|0,0:0|0:0,0:0:0:0:
96,146,56821,1,8,0:0:0:0:
111,140,56932,1,0,0:0:0:0:
125,134,57043,6,0,P|165:78|110:11,1,128,6|0,1:2|0:0,0:0:0:0:
387,134,57488,2,0,P|347:78|402:11,1,128,6|0,1:2|0:0,0:0:0:0:
209,272,57932,2,0,L|305:171,1,128,6|0,1:2|0:0,0:0:0:0:
303,272,58377,2,0,L|207:171,1,128,6|0,1:2|0:0,0:0:0:0:
256,47,58821,5,8,1:2:0:0:
256,47,58932,1,8,0:0:0:0:
448,121,59154,1,8,0:0:0:0:
450,250,59377,1,8,0:0:0:0:
260,348,59599,1,8,0:0:0:0:
260,348,59710,1,8,0:0:0:0:
62,250,59932,1,2,0:0:0:0:
62,250,60006,1,0,0:0:0:0:
62,250,60080,1,0,0:0:0:0:
62,250,60154,1,10,0:0:0:0:
75,41,60599,5,6,0:0:0:0:
323,4,60821,1,0,0:0:0:0:
115,225,61043,5,8,0:0:0:0:
283,48,61266,1,0,0:0:0:0:
231,320,61488,5,2,0:0:0:0:
226,95,61710,1,0,0:0:0:0:
370,332,61932,5,8,0:0:0:0:
170,151,62154,1,0,0:0:0:0:
452,219,62377,5,2,0:0:0:0:
117,200,62599,1,0,0:0:0:0:
417,43,62821,1,8,0:0:0:0:
84,76,63043,1,0,0:0:0:0:
264,323,63266,5,2,0:0:0:0:
203,14,63488,1,0,0:0:0:0:
399,138,63710,1,8,0:0:0:0:
221,248,63932,1,0,0:0:0:0:
74,120,64154,6,0,P|88:189|21:253,1,169.600000258789,2|0,0:0|0:0,0:0:0:0:
50,338,64488,1,0,0:0:0:0:
68,329,64599,2,0,P|162:330|219:382,1,169.600000258789,8|0,0:0|0:0,0:0:0:0:
318,350,64932,1,0,0:0:0:0:
327,337,65043,2,0,P|392:285|475:288,1,169.600000258789,2|0,0:0|0:0,0:0:0:0:
398,180,65488,1,8,0:0:0:0:
252,48,65710,1,0,0:0:0:0:
252,48,65821,1,0,0:0:0:0:
252,48,65932,5,2,0:0:0:0:
70,235,66266,1,4,0:0:0:0:
297,143,66599,1,2,0:0:0:0:
297,143,66710,1,0,0:0:0:0:
297,143,66821,1,8,0:0:0:0:
37,134,67043,2,0,L|2:89,3,56.5333334195964,2|0|0|8,0:0|0:0|0:0|0:0,0:0:0:0:
204,319,67488,1,0,0:0:0:0:
437,343,67710,5,2,0:0:0:0:
189,380,67932,1,0,0:0:0:0:
397,159,68154,5,8,0:0:0:0:
229,336,68377,1,0,0:0:0:0:
281,64,68599,5,2,0:0:0:0:
286,289,68821,1,0,0:0:0:0:
142,52,69043,5,8,0:0:0:0:
342,233,69265,1,0,0:0:0:0:
60,165,69488,5,2,0:0:0:0:
395,184,69710,1,0,0:0:0:0:
95,341,69932,1,8,0:0:0:0:
428,308,70154,1,0,0:0:0:0:
248,61,70377,5,2,0:0:0:0:
309,370,70599,1,0,0:0:0:0:
113,246,70821,1,8,0:0:0:0:
291,136,71043,1,0,0:0:0:0:
423,330,71266,6,0,P|470:243|440:171,1,169.600000258789,2|0,0:0|0:0,0:0:0:0:
387,103,71599,1,0,0:0:0:0:
385,87,71710,2,0,P|309:26|193:36,1,169.600000258789,8|0,0:0|0:0,0:0:0:0:
139,88,72043,1,0,0:0:0:0:
121,90,72154,2,0,P|98:179|158:271,1,169.600000258789,2|0,0:0|0:0,0:0:0:0:
9,229,72599,1,8,0:0:0:0:
129,337,72821,1,0,0:0:0:0:
418,317,73043,6,0,B|335:292|335:292|245:354,1,169.600000258789,2|0,0:0|0:0,0:0:0:0:
500,167,73488,2,0,B|417:192|417:192|327:130,1,169.600000258789
121,56,73932,1,8,0:0:0:0:
132,84,74043,1,0,0:0:0:0:
143,112,74154,2,0,L|133:175,3,56.5333334195964,2|0|0|8,0:0|0:0|0:0|0:0,0:0:0:0:
192,224,74488,1,8,0:0:0:0:
222,223,74599,1,8,0:0:0:0:
250,224,74710,1,8,0:0:0:0:
420,279,74821,5,2,0:0:0:0:
446,96,75043,1,8,0:0:0:0:
369,337,75266,5,8,0:0:0:0:
248,102,75488,1,8,0:0:0:0:
264,371,75710,5,8,0:0:0:0:
378,14,75932,1,8,0:0:0:0:
155,360,76154,5,8,0:0:0:0:
17,1,76377,1,8,0:0:0:0:
208,222,76599,2,0,P|133:158|74:203,1,160,6|0,0:0|0:0,0:0:0:0:
297,222,77043,2,0,P|372:158|431:203,1,160,6|0,0:0|0:0,0:0:0:0:
253,207,77488,2,0,L|251:43,1,160,6|0,0:0|0:0,0:0:0:0:
253,207,77932,2,0,L|251:371,1,160,6|0,0:0|0:0,0:0:0:0:
256,192,78377,12,0,81932,0:0:0:0:
165,243,82377,5,0,0:0:0:0:
165,243,82488,2,0,L|164:148,2,80
239,270,82821,2,0,L|383:289,1,80
466,307,83043,2,0,L|386:334,1,80
394,230,83266,1,0,0:0:0:0:
403,205,83377,1,0,0:0:0:0:
411,178,83488,1,0,0:0:0:0:
417,150,83599,1,0,0:0:0:0:
293,57,83710,5,0,0:0:0:0:
282,308,83932,1,0,0:0:0:0:
381,60,84154,1,0,0:0:0:0:
201,254,84377,1,0,0:0:0:0:
98,35,84599,1,0,0:0:0:0:
267,171,84821,2,0,L|216:129,3,53.3333333333333
330,220,85117,1,0,0:0:0:0:
344,240,85266,1,0,0:0:0:0:
357,263,85377,1,0,0:0:0:0:
418,325,85492,5,0,0:0:0:0:
434,299,85603,1,0,0:0:0:0:
450,270,85714,2,0,L|467:209,2,53.3333333333333
379,169,85936,5,0,0:0:0:0:
363,143,86047,1,0,0:0:0:0:
347,114,86158,2,0,L|332:62,2,53.3333333333333
223,28,86380,2,0,L|208:79,3,53.3333333333333
135,46,86714,1,0,0:0:0:0:
108,52,86825,1,0,0:0:0:0:
216,176,87043,2,0,B|203:116|260:91|260:91|300:99|300:99|325:64|325:64|391:85|449:44|449:44|545:82|543:162|543:162|476:240|447:191|410:167|410:167|341:178|342:306|342:306|332:373|250:387|208:333|208:333|188:296|215:241|262:233|299:269|284:316|258:311,1,1160
