osu file format v14

[General]
AudioFilename: audio.mp3
AudioLeadIn: 0
PreviewTime:14043
Countdown: 0
SampleSet: Soft
StackLeniency: 0.6
Mode: 0
LetterboxInBreaks: 0
WidescreenStoryboard: 1

[Editor]
Bookmarks: 16154,32154,46377,60599,67710,78377,85488
DistanceSpacing: 0.4
BeatDivisor: 8
GridSize: 32
TimelineZoom: 2.5

[Metadata]
Title:Touch You (TV Size)
TitleUnicode:Touch You (TV Size)
Artist:Shiritsu Morimo-ri Gakuen Seishun Boys
ArtistUnicode:私立モリモーリ学園 性春♡男子s
Creator:-Mikan
Version:Mikan4ik's Expert
Source:ヤリチン☆ビッチ部
Tags:gay homosexual gay Yarichin Bitch Club yuyoyuppe Mikan Bazz_B Bazz B Nekroman4ik kanor kuyusu arronchu1207 Mocaotic evaotic Ayesha Altugle Shizuku- Kazato Asa Shikibe Mayu opening op anime japanese pop jpop j-pop yaoi BL boys love bitch-bu yarichin*bitch-bu ゆよゆっぺ 遠野高志 Toono Takashi 加島優 Kashima Yuu 矢口恭介 Yaguchi Kyousuke ジミー Jimmy 百合絢斗 Yuri Ayato 田村唯 Tamura Yui 明美圭一 Akemi Keiichi 糸目幸士郎 Itome Koushirou 鹿谷樹 Shikatani Itsuki 小林裕介 Kobayashi Yuusuke 濱野大輝 Hamano Daiki 村瀬歩 Murase Ayumu 熊谷健太郎 Kumagai Kentarou 佐藤拓也 Satou Takuya 小野友樹 Ano Yuuki 代永翼 Yonaga Tsubasa 山中真尋 Yamanaka Masahiro 中澤まさとも Nakazawa Masatomo
BeatmapID:3718165
BeatmapSetID:1744363

[Difficulty]
HPDrainRate:5
CircleSize:4.2
OverallDifficulty:9
ApproachRate:9.2
SliderMultiplier:2
SliderTickRate:1

[Events]
//Background and Video events
0,0,"b.jpg",0,0
//Break Periods
//Storyboard Layer 0 (Background)
//Storyboard Layer 1 (Fail)
//Storyboard Layer 2 (Pass)
//Storyboard Layer 3 (Foreground)
//Storyboard Layer 4 (Overlay)
//Storyboard Sound Samples

[TimingPoints]
155,444.444444444444,4,2,1,69,1,0
155,-66.6666666666667,4,2,1,69,0,0
488,-83.3333333333333,4,2,1,69,0,0
1488,-50,4,2,1,69,0,0
1932,-142.857142857143,4,2,1,69,0,0
3710,-111.111111111111,4,2,1,69,0,0
4154,-142.857142857143,4,2,1,69,0,0
7266,-100,4,2,1,69,0,0
8599,-125,4,2,1,69,0,0
9043,-111.111111111111,4,2,1,69,0,0
10821,-100,4,2,1,69,0,0
11266,-125,4,2,1,69,0,0
12154,-100,4,2,1,69,0,0
16154,-57.1428571428571,4,2,1,79,0,0
16710,-80,4,2,1,79,0,0
17266,-57.1428571428571,4,2,1,79,0,0
17710,-100,4,2,1,79,0,0
17932,-66.6666666666667,4,2,1,79,0,0
18154,-100,4,2,1,79,0,0
18377,-66.6666666666667,4,2,1,79,0,0
18599,-100,4,2,1,79,0,0
18821,-66.6666666666667,4,2,1,79,0,0
19043,-50,4,2,1,79,0,0
19710,-57.1428571428571,4,2,1,79,0,0
20488,-66.6666666666667,4,2,1,79,0,0
20821,-50,4,2,1,79,0,0
21488,-66.6666666666667,4,2,1,79,0,0
21933,-66.6666666666667,4,2,1,79,0,0
23266,-57.1428571428571,4,2,1,79,0,0
23821,-80,4,2,1,79,0,0
24377,-57.1428571428571,4,2,1,79,0,0
24821,-83.3333333333333,4,2,1,79,0,0
25043,-66.6666666666667,4,2,1,79,0,0
25265,-100,4,2,1,79,0,0
25488,-66.6666666666667,4,2,1,79,0,0
25710,-100,4,2,1,79,0,0
25932,-66.6666666666667,4,2,1,79,0,0
26154,-50,4,2,1,79,0,0
29488,-57.1428571428571,4,2,1,79,0,0
29710,-100,4,2,1,79,0,0
30377,-133.333333333333,4,2,1,79,0,0
30599,-133.333333333333,4,2,1,69,0,0
32154,-100,4,2,1,69,0,0
33043,-76.9230769230769,4,2,1,69,0,0
33932,-100,4,2,1,69,0,0
34710,-66.6666666666667,4,2,1,69,0,0
35043,-50,4,2,1,69,0,0
35488,-100,4,2,1,69,0,0
36599,-76.9230769230769,4,2,1,69,0,0
37488,-66.6666666666667,4,2,1,69,0,0
38377,-100,4,2,1,69,0,0
42821,-76.9230769230769,4,2,1,69,0,0
44377,-58.8235294117647,4,2,1,69,0,0
44821,-100,4,2,1,69,0,0
46377,-111.111111111111,4,2,1,59,0,0
49932,-100,4,2,1,59,0,0
53488,-90.9090909090909,4,2,1,69,0,0
58932,-52.6315789473684,4,2,1,69,0,0
59710,-45.4545454545455,4,2,1,69,0,0
60154,-40,4,2,1,69,0,0
60599,-50,4,2,1,79,0,0
62377,-40,4,2,1,79,0,0
62821,-66.6666666666667,4,2,1,79,0,0
63266,-83.3333333333333,4,2,1,79,0,0
63710,-66.6666666666667,4,2,1,79,0,0
64154,-50,4,2,1,79,0,0
64599,-83.3333333333333,4,2,1,79,0,0
66821,-55.5555555555556,4,2,1,79,0,0
67266,-66.6666666666667,4,2,1,79,0,0
67710,-50,4,2,1,79,0,0
69488,-40,4,2,1,79,0,0
69932,-66.6666666666667,4,2,1,79,0,0
70377,-83.3333333333333,4,2,1,79,0,0
70821,-66.6666666666667,4,2,1,79,0,0
71265,-50,4,2,1,79,0,0
71710,-66.6666666666667,4,2,1,79,0,0
73043,-66.6666666666667,4,2,1,79,0,0
73377,-83.3333333333333,4,2,1,79,0,0
73932,-55.5555555555556,4,2,1,79,0,0
74377,-66.6666666666667,4,2,1,79,0,0
77932,-55.5555555555556,4,2,1,79,0,0
78377,-66.6666666666667,4,2,1,79,0,0
78932,-83.3333333333333,4,2,1,79,0,0
79488,-43.4782608695652,4,2,1,79,0,0
80154,-100,4,2,1,79,0,0
81266,-40,4,2,1,79,0,0
81932,-66.6666666666667,4,2,1,79,0,0
83043,-40,4,2,1,79,0,0
83710,-66.6666666666667,4,2,1,79,0,0
85488,-100,4,2,1,79,0,0
87043,444.444444444444,4,2,1,79,1,0
87043,-66.6666666666667,4,2,2,79,0,0
87098,-66.6666666666667,4,2,1,79,0,0

[Colours]
Combo1 : 176,224,253
Combo2 : 255,181,218

[HitObjects]
69,40,155,6,0,L|56:-3,2,37.5000014305115,8|0|0,0:0|0:0|0:0,0:0:0:0:
30,106,377,1,8,0:0:0:0:
103,124,488,6,0,P|91:162|87:201,1,59.9999981689454,8|8,0:0|0:0,0:0:0:0:
206,303,710,2,0,P|214:274|219:244,1,59.9999981689454,8|0,0:0|0:0,0:0:0:0:
296,243,932,1,8,0:0:0:0:
161,368,1043,5,8,0:0:0:0:
149,365,1154,1,8,0:3:0:0:
94,312,1266,1,4,0:3:0:0:
80,316,1377,1,0,1:0:0:0:
24,375,1488,6,0,B|82:395|120:365|140:276|111:273|88:300|59:254|77:184|143:164|184:211,1,300,12|0,0:0|0:0,0:0:0:0:
165,199,1932,6,0,P|120:190|108:162,1,69.9999978637696,6|0,1:2|0:0,0:0:0:0:
26,168,2377,2,0,P|11:124|29:100,1,69.9999978637696,2|0,0:0|0:0,0:0:0:0:
246,126,2821,6,0,P|291:117|303:89,1,69.9999978637696,6|0,1:2|0:0,0:0:0:0:
381,100,3266,2,0,P|395:56|377:32,1,69.9999978637696,2|0,0:0|0:0,0:0:0:0:
301,98,3599,5,0,0:0:0:0:
301,98,3710,2,0,B|297:108|288:109|288:109|317:232,1,134.999995880127,6|0,1:2|0:0,0:0:0:0:
406,285,4154,2,0,L|363:274,1,34.9999989318848,2|0,0:0|0:0,0:0:0:0:
282,339,4377,2,0,L|315:330,1,34.9999989318848,8|0,0:3|0:0,0:0:0:0:
463,224,4599,5,10,0:0:0:0:
478,147,4821,1,2,1:2:0:0:
177,332,5043,5,10,0:0:0:0:
162,255,5265,1,8,0:3:0:0:
512,384,5488,6,0,P|463:366|400:370,1,104.999996795654,6|0,1:2|0:0,0:0:0:0:
0,220,6154,1,2,0:0:0:0:
31,287,6377,6,0,P|98:288|162:254,1,139.999995727539,6|0,1:2|0:0,0:0:0:0:
303,77,7043,1,10,0:0:0:0:
300,66,7154,1,10,0:0:0:0:
233,22,7266,6,0,B|227:38|211:49|211:49|202:94|243:114,1,100,6|0,1:2|0:0,0:0:0:0:
378,184,7599,2,0,B|384:168|400:157|400:157|409:112|368:92,1,100,2|0,1:3|0:0,0:0:0:0:
303,77,7932,6,0,P|305:112|311:137,1,50,2|0,1:2|0:0,0:0:0:0:
237,273,8154,2,0,P|234:249|229:224,1,50,10|0,0:0|0:0,0:0:0:0:
157,192,8377,5,0,1:0:0:0:
138,185,8451,1,0,1:0:0:0:
118,189,8525,1,0,1:0:0:0:
104,202,8599,2,0,L|61:194,1,40,14|0,0:0|0:0,0:0:0:0:
3,222,8821,2,0,L|43:212,1,40
108,39,9043,5,6,1:2:0:0:
122,87,9266,2,0,P|123:64|116:43,1,44.999998626709
262,70,9488,5,2,1:2:0:0:
229,105,9711,2,0,P|248:95|263:78,1,44.999998626709
316,216,9932,5,6,1:2:0:0:
266,207,10155,2,0,P|285:219|307:223,1,44.999998626709
212,335,10377,5,2,1:2:0:0:
197,291,10600,2,0,P|195:313|202:334,1,44.999998626709
122,366,10821,6,0,P|58:367|31:286,1,150,6|0,1:2|0:0,0:0:0:0:
116,217,11266,6,0,L|161:209,1,40,10|0,0:0|0:0,0:0:0:0:
183,137,11488,2,0,L|233:150,1,40,8|8,0:3|0:3,0:0:0:0:
421,299,11710,1,2,1:2:0:0:
396,318,11821,1,8,0:3:0:0:
365,323,11932,1,8,0:3:0:0:
334,316,12043,1,4,0:3:0:0:
278,256,12154,6,0,P|269:227|266:198,1,50,2|0,1:2|0:0,0:0:0:0:
463,40,12377,2,0,P|473:68|476:98,1,50,8|8,0:3|0:3,0:0:0:0:
421,145,12599,1,6,1:2:0:0:
421,145,12821,5,8,0:0:0:0:
366,96,12932,1,10,0:0:0:0:
292,91,13043,1,0,1:2:0:0:
227,127,13154,1,8,0:0:0:0:
190,192,13266,1,10,0:0:0:0:
116,217,13377,1,8,0:0:0:0:
41,190,13488,5,2,1:2:0:0:
43,176,13599,1,8,0:0:0:0:
98,106,13710,5,8,0:0:0:0:
94,93,13821,1,8,0:0:0:0:
20,34,13932,5,0,1:0:0:0:
92,0,14043,1,8,0:0:0:0:
187,29,14154,1,8,0:0:0:0:
227,127,14266,1,8,0:0:0:0:
176,268,14377,5,2,1:2:0:0:
156,194,14599,1,2,0:0:0:0:
176,268,14821,1,2,0:0:0:0:
156,194,15043,1,2,0:0:0:0:
115,335,15266,5,2,0:0:0:0:
115,335,15710,2,0,L|112:357,9,16.6666666666667,10|0|0|0|0|0|0|0|0|0,0:0|0:0|0:0|0:0|0:0|0:0|0:0|0:0|0:0|0:0,0:0:0:0:
33,307,16154,6,0,B|23:288|-1:273|-1:273|214:305,1,262.500002503395,4|0,1:0|1:0,0:0:0:0:
360,244,16599,1,8,0:0:0:0:
310,177,16710,6,0,B|301:169|301:169|317:102,1,62.5,2|0,0:1|0:0,0:0:0:0:
464,8,16932,2,0,P|472:37|478:72,1,62.5,2|0,1:0|0:0,0:0:0:0:
472,79,17266,6,0,B|385:40|343:101|386:116|334:185|235:131,1,262.500002503395,2|0,1:0|0:0,0:0:0:0:
243,138,17710,2,0,L|254:83,1,50,2|0,1:0|0:0,0:0:0:0:
8,9,17932,6,0,P|28:42|37:89,1,75.0000028610231,2|0,1:2|0:0,0:0:0:0:
108,128,18154,2,0,P|122:102|119:66,1,50,0|0,0:0|1:0,0:0:0:0:
29,377,18377,6,0,P|9:344|0:297,1,75.0000028610231,10|2,0:0|0:1,0:0:0:0:
52,252,18599,2,0,L|103:262,1,50,0|2,0:0|1:0,0:0:0:0:
378,297,18821,6,0,L|303:307,1,75.0000028610231,2|0,0:0|0:0,0:0:0:0:
221,384,19043,2,0,B|211:278|193:180|193:180|244:198|293:160,1,300,2|0,1:0|0:0,0:0:0:0:
410,182,19488,5,8,0:3:0:0:
492,169,19599,1,8,0:3:0:0:
464,249,19710,2,0,B|442:230|442:230|468:103|483:-14,1,262.500002503395,6|0,1:2|1:0,0:0:0:0:
512,71,20154,1,10,0:0:0:0:
376,9,20266,1,2,0:1:0:0:
373,13,20488,5,2,1:0:0:0:
290,66,20599,2,0,L|198:50,1,75.0000028610231
6,233,20821,6,0,B|74:211|116:310|116:310|116:199|189:200,1,300,2|0,1:0|0:0,0:0:0:0:
88,155,21266,1,2,1:2:0:0:
83,146,21340,1,2,0:0:0:0:
78,138,21414,1,2,0:0:0:0:
74,131,21488,6,0,L|90:51,1,75.0000028610231,10|0,0:1|0:0,0:0:0:0:
2,0,21710,2,0,B|-17:16|-17:16|8:89,1,75.0000028610231,2|0,1:2|0:0,0:0:0:0:
222,282,21932,6,0,L|206:202,1,75.0000028610231,10|0,0:1|0:0,0:0:0:0:
294,151,22154,2,0,B|313:167|313:167|288:240,1,75.0000028610231,2|0,1:2|0:0,0:0:0:0:
15,384,22377,6,0,B|-4:368|-4:368|21:295,1,75.0000028610231,10|0,0:1|0:0,0:0:0:0:
65,161,22599,1,0,1:0:0:0:
70,170,22673,1,0,1:0:0:0:
75,178,22747,1,0,1:0:0:0:
80,186,22821,5,10,0:0:0:0:
144,233,22932,1,10,0:0:0:0:
249,165,23043,1,10,0:0:0:0:
332,278,23154,1,10,0:0:0:0:
437,220,23266,6,0,B|477:199|497:142|520:73|455:20|351:67|433:160,1,262.500002503395,6|0,1:0|1:0,0:0:0:0:
511,184,23710,1,8,0:0:0:0:
501,276,23821,2,0,L|515:348,1,62.5,2|0,0:1|0:0,0:0:0:0:
345,196,24043,2,0,L|275:172,1,62.5,2|0,1:1|0:0,0:0:0:0:
2,364,24377,6,0,B|90:398|129:335|91:303|166:242|235:299,1,262.500002503395,2|0,1:0|0:0,0:1:0:0:
229,297,24821,2,0,B|237:316|237:316|217:371,1,59.9999981689454,2|2,1:2|0:0,0:0:0:0:
22,246,25043,6,0,P|13:207|-3:164,1,75.0000028610231,2|0,1:2|0:0,0:0:0:0:
76,132,25266,2,0,P|63:164|56:202,1,50,0|0,0:0|1:0,0:0:0:0:
246,121,25488,6,0,P|255:82|271:39,1,75.0000028610231,10|2,0:0|0:1,0:0:0:0:
192,7,25711,2,0,P|205:39|212:77,1,50,0|2,0:0|1:0,0:0:0:0:
355,148,25932,2,0,P|386:141|411:102,1,75.0000028610231,2|0,0:0|0:0,0:0:0:0:
200,221,26154,6,0,B|179:214|162:227|162:227|176:187|252:185|295:224|274:298|243:366|185:363,1,300,2|0,1:0|0:0,0:0:0:0:
131,320,26599,1,8,0:0:0:0:
127,304,26710,1,8,0:0:0:0:
196,250,26821,5,2,1:2:0:0:
259,216,26932,1,2,0:0:0:0:
324,249,27043,1,10,0:0:0:0:
342,320,27154,1,10,0:0:0:0:
406,272,27266,5,10,1:2:0:0:
405,259,27377,1,8,0:0:0:0:
455,334,27488,5,8,0:0:0:0:
512,285,27599,1,8,0:0:0:0:
491,211,27710,5,10,1:2:0:0:
485,193,27821,1,10,0:0:0:0:
367,109,27932,5,8,0:0:0:0:
373,91,28043,1,10,0:0:0:0:
472,0,28154,5,10,0:0:0:0:
471,6,28266,1,8,0:3:0:0:
468,12,28377,1,4,0:3:0:0:
465,18,28488,1,4,0:3:0:0:
503,100,28599,6,0,B|473:115|473:115|483:101,1,50,4|0,1:2|0:0,0:0:0:0:
247,17,29043,6,0,B|274:35|274:35|257:33,1,50,4|0,1:2|0:0,0:0:0:0:
310,330,29488,6,0,B|312:322|320:314|320:314|303:229,1,87.500000834465,14|0,0:0|0:0,0:0:0:0:
356,184,29710,2,0,L|406:196,1,50,0|0,1:0|0:0,0:0:0:0:
208,312,29932,5,8,0:0:0:0:
135,287,30043,1,8,0:0:0:0:
63,311,30154,1,8,0:0:0:0:
20,372,30266,1,8,0:0:0:0:
26,382,30377,5,0,1:0:0:0:
90,190,30599,2,0,P|86:169|78:144,1,37.5000014305115,8|0,0:1|0:0,0:0:0:0:
95,70,30821,1,8,0:1:0:0:
95,70,30932,2,0,P|99:91|107:116,1,37.5000014305115,8|0,0:1|0:0,0:0:0:0:
173,166,31154,6,0,L|230:174,1,37.5000014305115,8|0,0:1|0:0,0:0:0:0:
11,102,31377,2,0,L|-26:107,1,37.5000014305115,8|0,0:1|0:0,0:0:0:0:
164,0,31599,1,8,0:1:0:0:
224,50,31710,5,8,0:1:0:0:
228,58,31784,1,8,0:1:0:0:
231,67,31858,1,8,0:3:0:0:
234,74,31932,1,8,0:3:0:0:
236,83,32006,1,4,0:3:0:0:
240,90,32080,1,4,0:3:0:0:
265,97,32154,6,0,B|278:100|286:107|286:107|362:78|417:75,1,150,4|2,1:0|1:2,0:0:0:0:
512,32,32599,2,0,L|456:21,1,50,8|0,0:0|0:0,0:0:0:0:
364,187,32821,1,2,1:2:0:0:
364,187,33043,6,0,B|371:240|383:293|383:293|399:293|401:316,1,129.999994049073,2|0,1:2|0:0,0:0:0:0:
485,327,33377,2,0,P|421:337|371:395,1,129.999994049073,2|0,1:2|0:0,0:0:0:0:
302,361,33710,2,0,P|285:348|305:357,1,64.9999970245363,10|0,0:0|0:0,0:0:0:0:
202,267,33932,6,0,L|146:284,1,50,2|0,1:2|0:0,0:0:0:0:
96,337,34154,2,0,L|40:320,1,50,2|0,1:2|0:0,0:0:0:0:
319,246,34377,5,10,0:0:0:0:
320,165,34488,2,0,P|348:181|396:192,1,50,2|0,1:2|0:0,0:0:0:0:
449,237,34710,6,0,L|401:251,4,37.5000014305115,2|0|2|0|2,1:2|0:0|0:0|0:0|0:0,0:0:0:0:
512,331,35043,6,0,B|434:343|386:248|471:250|423:171|365:132|317:166,1,300,4|0,1:2|0:0,0:0:0:0:
320,176,35488,2,0,P|360:168|374:134,1,50,0|0,1:0|0:0,0:0:0:0:
487,12,35710,6,0,L|472:73,1,50,2|0,1:2|0:0,0:0:0:0:
509,124,35932,2,0,L|497:75,1,50,2|0,1:2|0:0,0:0:0:0:
384,25,36154,5,10,0:0:0:0:
308,51,36266,1,0,1:0:0:0:
248,10,36377,1,2,1:2:0:0:
248,10,36599,6,0,B|181:25|204:52|121:61,1,129.999994049073,2|0,1:2|0:0,0:0:0:0:
58,7,36932,2,0,B|43:33|24:47|24:47|51:89|62:140,1,129.999994049073,2|0,1:2|0:0,0:0:0:0:
132,179,37266,2,0,B|141:147|141:147|115:185,1,64.9999970245363,10|0,0:0|0:0,0:0:0:0:
12,197,37488,6,0,B|70:174|128:233|87:255|100:326|187:311,2,225.000008583069,6|2|2,1:2|1:2|1:2,0:0:0:0:
12,197,38266,1,0,0:0:0:0:
12,288,38377,6,0,P|35:274|63:268,1,50,14|0,0:0|0:0,0:0:0:0:
132,179,38599,2,0,P|155:193|183:199,1,50,0|2,1:0|0:0,0:0:0:0:
319,246,38821,5,8,0:3:0:0:
314,263,38932,1,8,0:3:0:0:
259,315,39043,1,4,0:3:0:0:
264,332,39154,1,4,0:3:0:0:
332,383,39266,6,0,P|360:368|400:372,2,50,6|2|0,1:2|0:0|0:0,0:0:0:0:
176,306,39599,1,2,1:2:0:0:
172,312,39710,2,0,P|144:327|114:328,1,50,8|0,0:0|0:0,0:0:0:0:
17,368,39932,2,0,L|67:377,1,50,0|0,1:0|0:0,0:0:0:0:
177,198,40154,6,0,B|180:191|180:191|167:148,2,50,2|2|0,1:2|0:0|0:0,0:0:0:0:
258,287,40488,2,0,P|242:354|236:404,1,100,2|0,1:2|0:0,0:0:0:0:
163,358,40821,2,0,P|160:341|186:301,1,50,10|0,0:0|0:0,0:0:0:0:
397,177,41043,6,0,P|478:177|509:112,1,150,2|2,1:2|1:2,0:0:0:0:
399,58,41488,1,8,0:0:0:0:
483,0,41599,2,0,L|466:69,1,50,0|0,1:2|0:0,0:0:0:0:
399,58,41821,5,0,1:0:0:0:
334,0,41932,2,0,L|322:48,1,50,10|0,0:0|0:0,0:0:0:0:
392,223,42154,2,0,P|401:194|396:176,1,50,6|0,1:2|0:0,0:0:0:0:
314,136,42377,2,0,L|255:155,1,50,8|0,0:0|1:0,0:0:0:0:
33,21,42599,5,10,0:0:0:0:
129,66,42710,1,8,0:0:0:0:
201,45,42821,2,0,P|211:16|191:-37,1,64.9999970245363,2|0,1:2|0:0,0:0:0:0:
62,129,43043,5,8,0:0:0:0:
67,147,43154,1,8,0:0:0:0:
122,202,43266,2,0,B|116:233|116:233|119:236|119:236|109:279,1,64.9999970245363,2|0,1:2|0:0,0:0:0:0:
33,384,43488,5,8,0:0:0:0:
3,312,43599,1,8,0:0:0:0:
201,288,43710,6,0,P|141:294|79:342,1,129.999994049073,2|0,1:2|0:0,0:0:0:0:
288,234,44043,2,0,L|323:247,1,32.4999985122681,10|0,0:0|0:0,0:0:0:0:
318,245,44377,6,0,B|270:261|238:236|222:163|246:160|270:184|289:145|274:87|219:71|186:105,1,255.000004863739,6|0,1:2|0:0,0:0:0:0:
198,104,44821,2,0,P|256:89|254:76,1,50,8|0,0:0|0:0,0:0:0:0:
377,17,45043,2,0,L|309:39,1,50,8|0,0:0|0:0,0:0:0:0:
504,124,45266,1,8,0:0:0:0:
512,127,45377,1,8,0:0:0:0:
469,49,45488,5,10,0:0:0:0:
425,167,45599,1,8,0:0:0:0:
484,227,45710,6,0,P|496:240|491:221,1,50,8|8,0:3|0:3,0:0:0:0:
314,178,45932,1,4,0:3:0:0:
303,183,46043,1,4,0:3:0:0:
335,105,46154,5,8,0:0:0:0:
384,251,46266,1,8,0:0:0:0:
348,328,46377,5,6,1:2:0:0:
198,177,46599,1,0,0:0:0:0:
384,251,46821,1,8,0:0:0:0:
205,355,47043,1,0,1:0:0:0:
321,150,47266,5,0,1:1:0:0:
287,65,47488,1,2,0:0:0:0:
205,29,47710,1,10,0:0:0:0:
121,62,47933,1,2,1:2:0:0:
115,71,48154,2,0,B|80:84|80:84|46:72|26:23|68:0,1,134.999995880127,0|0,1:0|0:0,0:0:0:0:
69,8,48599,5,10,0:0:0:0:
96,311,48821,2,0,P|108:284|102:254,1,44.999998626709,2|0,1:2|0:0,0:0:0:0:
45,210,49043,2,0,P|19:218|-19:223,1,44.999998626709,0|0,1:0|0:0,0:0:0:0:
115,141,49266,5,2,1:2:0:0:
31,384,49488,1,10,0:0:0:0:
269,268,49710,1,2,1:2:0:0:
275,277,49932,6,0,B|392:258|392:258|401:301|452:313,2,200,6|10|6,1:2|0:0|1:2,0:0:0:0:
23,128,51266,2,0,B|33:134|33:134|82:116,1,50,10|0,0:0|0:0,0:0:0:0:
277,47,51488,1,8,0:3:0:0:
217,0,51599,1,4,0:3:0:0:
171,59,51710,6,0,P|179:88|188:136,1,50,2|0,1:2|0:0,0:0:0:0:
258,173,51932,2,0,P|250:202|241:250,1,50,2|0,0:0|0:0,0:0:0:0:
175,297,52154,2,0,B|161:288|161:288|79:308,1,100,10|2,0:0|1:2,0:0:0:0:
357,224,52599,6,0,P|384:230|415:241,1,50,2|0,1:2|0:0,0:0:0:0:
501,315,52821,2,0,P|474:309|443:298,1,50,10|0,0:0|0:0,0:0:0:0:
364,328,53043,6,0,P|371:351|376:376,1,50,10|0,0:0|0:0,0:0:0:0:
497,209,53266,1,8,0:3:0:0:
465,141,53377,1,4,0:3:0:0:
489,62,53488,6,0,L|335:84,1,110.000003356934,6|0,1:2|0:0,0:0:0:0:
304,44,53821,1,8,0:0:0:0:
310,35,53932,1,8,0:0:0:0:
150,135,54154,1,8,0:0:0:0:
265,326,54377,5,2,1:2:0:0:
270,315,54488,1,8,0:0:0:0:
255,286,54599,2,0,L|243:214,1,55.0000016784668,10|0,0:0|0:0,0:0:0:0:
300,169,54821,6,0,P|328:177|366:184,1,55.0000016784668,10|8,0:0|0:0,0:0:0:0:
162,275,55043,2,0,P|134:267|96:260,1,55.0000016784668,10|0,0:0|0:0,0:0:0:0:
0,129,55266,6,0,B|24:122|24:122|62:130|79:172|51:229,1,110.000003356934,4|0,1:2|0:0,0:0:0:0:
10,384,55599,1,8,0:0:0:0:
1,381,55710,2,0,P|-8:353|0:328,1,55.0000016784668,10|0,0:0|0:0,0:0:0:0:
68,279,55932,2,0,P|96:287|134:294,1,55.0000016784668,10|0,0:0|0:0,0:0:0:0:
210,384,56154,5,0,1:0:0:0:
219,377,56266,1,8,0:0:0:0:
283,334,56377,2,0,P|311:342|349:349,1,55.0000016784668,10|0,0:0|0:0,0:0:0:0:
490,232,56599,2,0,P|462:240|424:247,1,55.0000016784668,10|0,0:0|0:0,0:0:0:0:
273,182,56821,5,10,0:0:0:0:
345,148,56932,1,8,0:0:0:0:
335,227,57043,5,6,1:2:0:0:
397,45,57266,1,0,0:0:0:0:
335,0,57488,5,2,1:2:0:0:
398,273,57710,1,0,0:0:0:0:
499,76,57932,5,2,1:2:0:0:
273,182,58154,1,0,0:0:0:0:
82,13,58377,5,2,1:2:0:0:
392,137,58599,1,0,0:0:0:0:
111,384,58821,5,10,0:0:0:0:
67,317,58932,2,0,B|68:299|58:282|58:282|78:217|163:180|221:250,2,189.999994926453,8|8|8,0:0|0:0|0:0,0:0:0:0:
417,213,59599,5,8,0:0:0:0:
466,291,59710,2,0,B|484:276|518:272|518:272|494:186|476:72,1,220.000006713867,8|0,0:0|1:0,0:0:0:0:
439,53,60006,5,0,1:0:0:0:
433,42,60080,5,0,1:0:0:0:
433,31,60154,6,0,B|227:189|141:120|159:-6|266:-1|341:104,1,437.5,14|0,0:0|0:0,0:0:0:0:
401,190,60599,6,0,L|350:405,1,200,6|0,1:2|0:0,0:0:0:0:
400,328,60932,1,0,0:0:0:0:
301,209,61043,2,0,B|285:173|240:194|240:194|319:209|354:275,1,200,10|0,0:0|0:0,0:0:0:0:
477,151,61377,5,8,0:0:0:0:
479,141,61432,1,8,0:0:0:0:
471,133,61488,2,0,B|418:116|373:153|389:181|356:231|272:202,1,200,6|0,1:2|0:0,0:0:0:0:
243,154,61821,1,0,0:0:0:0:
93,293,61932,2,0,B|144:314|153:366|153:366|144:313|201:256,1,200,10|0,0:0|0:0,0:0:0:0:
127,221,62266,5,0,0:0:0:0:
0,309,62377,2,0,P|137:324|369:390,1,375,6|0,1:2|0:0,0:0:0:0:
506,290,62821,2,0,P|462:329|429:317,1,75.0000028610231,10|0,0:0|0:0,0:0:0:0:
395,207,63043,5,2,0:0:0:0:
401,190,63154,1,8,0:0:0:0:
342,136,63266,2,0,B|320:66,1,59.9999981689454,2|0,1:2|0:0,0:0:0:0:
434,0,63488,2,0,B|437:10|437:10|412:70,1,59.9999981689454,2|0,0:0|0:0,0:0:0:0:
245,88,63710,6,0,P|202:85|176:52,1,75.0000028610231,10|0,0:0|0:0,0:0:0:0:
449,130,63932,2,0,P|484:109|537:114,1,75.0000028610231,2|0,0:0|0:0,0:0:0:0:
278,331,64154,6,0,B|232:287|253:160|348:161|348:161|295:176|300:228,1,300,6|0,1:2|0:0,0:0:0:0:
205,256,64599,6,0,P|202:236|209:250,1,59.9999981689454,8|0,0:0|0:0,0:0:0:0:
337,384,64821,1,0,0:0:0:0:
278,331,64932,5,8,0:0:0:0:
278,331,64988,1,8,0:0:0:0:
278,331,65043,2,0,B|186:319|207:394|100:385,1,179.999994506836,6|0,1:2|0:0,0:0:0:0:
45,353,65488,5,8,0:0:0:0:
489,246,65710,1,2,0:0:0:0:
401,190,65821,1,2,0:0:0:0:
356,274,65932,6,0,P|385:265|400:265,1,29.9999990844727,4|0,1:2|0:0,0:0:0:0:
512,121,66266,6,0,P|497:117|483:112,1,29.9999990844727,6|0,1:2|0:0,0:0:0:0:
321,13,66599,6,0,L|329:49,1,29.9999990844727,2|0,1:2|0:0,0:0:0:0:
369,97,66710,2,0,L|362:67,1,29.9999990844727,8|0,0:0|0:0,0:0:0:0:
245,88,66821,6,0,B|201:113|134:95|112:38|112:38|133:6,1,179.999994506836,10|0,0:0|1:0,0:0:0:0:
123,21,67117,1,0,1:0:0:0:
123,21,67192,1,0,1:0:0:0:
123,21,67266,6,0,L|136:106,1,75.0000028610231,10|0,0:0|0:0,0:0:0:0:
37,358,67488,2,0,B|32:347|32:347|53:279,1,75.0000028610231,2|0,1:2|0:0,0:0:0:0:
25,180,67710,6,0,B|77:161|123:196|108:225|143:273|226:242,1,200,4|0,1:2|0:0,0:0:0:0:
367,155,68043,1,0,0:0:0:0:
303,90,68154,2,0,B|313:73|334:66|334:66|276:54|224:133|282:186,1,200,10|0,0:0|0:0,0:0:0:0:
422,338,68488,5,8,0:0:0:0:
430,335,68543,1,8,0:0:0:0:
437,331,68599,2,0,B|478:283|495:239|467:185|401:186|412:265|451:287,1,200,6|0,1:2|0:0,0:0:0:0:
511,377,68932,1,0,0:0:0:0:
339,292,69043,2,0,B|287:273|241:308|256:337|221:385|138:354,1,200,10|0,0:0|0:0,0:0:0:0:
56,152,69377,5,0,0:0:0:0:
0,226,69488,2,0,B|12:232|24:251|24:251|159:210|312:168|312:168|322:185|342:193,1,375,6|8,1:2|0:0,0:0:0:0:
510,60,69932,2,0,P|468:30|432:38,1,75.0000028610231,10|0,0:0|0:0,0:0:0:0:
387,101,70154,5,2,0:0:0:0:
393,118,70265,1,8,0:0:0:0:
468,177,70377,2,0,P|474:206|484:252,1,59.9999981689454,2|0,1:2|0:0,0:0:0:0:
329,384,70599,2,0,B|323:370|323:370|340:321,1,59.9999981689454,2|0,0:0|0:0,0:0:0:0:
252,302,70821,6,0,P|209:305|183:338,1,75.0000028610231,10|0,0:0|0:0,0:0:0:0:
427,305,71043,2,0,P|462:326|515:321,1,75.0000028610231,2|0,0:0|0:0,0:0:0:0:
273,55,71266,6,0,B|227:99|248:226|343:225|343:225|290:210|295:158,1,300,6|2,1:2|0:0,0:0:0:0:
217,133,71710,5,8,0:0:0:0:
512,52,71933,1,2,0:0:0:0:
443,96,72043,5,8,0:0:0:0:
443,96,72099,1,8,0:0:0:0:
443,96,72154,2,0,B|390:63|405:-25|470:-20|470:-20|431:-5|426:34,1,225.000008583069,2|0,1:2|0:0,0:0:0:0:
346,107,72600,5,10,0:0:0:0:
442,272,72822,1,2,0:0:0:0:
369,318,72933,1,0,0:0:0:0:
300,261,73043,6,0,B|319:252|320:230|320:230|362:162|435:210,1,150.000005722046,6|0,1:2|0:0,0:0:0:0:
511,312,73377,5,2,0:0:0:0:
512,324,73488,2,0,P|500:350|495:404,1,59.9999981689454,8|0,0:0|0:0,0:0:0:0:
432,295,73711,6,0,L|396:303,1,29.9999990844727,2|0,0:0|0:0,0:0:0:0:
348,343,73822,2,0,L|378:336,1,29.9999990844727,8|0,0:0|0:0,0:0:0:0:
228,202,73932,6,0,B|202:188|202:188|145:211|132:312|221:327,1,179.999994506836,10|0,0:0|1:0,0:0:0:0:
184,312,74229,1,0,1:0:0:0:
184,312,74303,1,0,1:0:0:0:
184,312,74377,5,8,0:0:0:0:
117,382,74488,1,8,0:0:0:0:
23,354,74599,1,8,0:0:0:0:
0,259,74710,1,8,0:0:0:0:
55,179,74821,5,6,1:2:0:0:
12,79,75043,1,8,0:0:0:0:
261,0,75266,5,8,0:0:0:0:
215,227,75488,1,8,0:0:0:0:
437,323,75710,5,8,0:0:0:0:
388,93,75932,1,8,0:0:0:0:
159,140,76154,1,8,1:2:0:0:
207,370,76377,1,10,0:0:0:0:
255,227,76599,6,0,P|226:240|193:246,1,37.5000014305115,6|0,1:2|0:0,0:0:0:0:
427,70,77043,6,0,P|430:38|441:6,1,37.5000014305115,6|0,1:2|0:0,0:0:0:0:
477,298,77488,6,0,P|502:316|524:342,1,37.5000014305115,6|0,1:2|0:0,0:0:0:0:
375,241,77932,6,0,B|338:229|323:171|364:136|412:142|442:154|482:260|335:240|383:356,1,314.999990386963,10|0,0:0|0:0,0:0:0:0:
382,344,78377,6,0,P|296:346|252:396,1,150.000005722046,4|0,1:0|0:0,0:0:0:0:
60,311,78710,1,0,1:0:0:0:
147,219,78821,1,8,0:0:0:0:
153,227,78932,2,0,P|146:265|138:296,1,59.9999981689454,2|0,0:1|0:0,0:0:0:0:
143,382,79154,2,0,P|146:352|161:313,1,59.9999981689454,2|0,1:0|0:0,0:0:0:0:
73,82,79377,5,0,0:0:0:0:
12,134,79488,2,0,B|62:102|134:136|99:172|153:230|230:179,2,230.000004386902,2|8|2,1:0|0:0|1:0,0:0:0:0:
12,134,80043,1,0,0:0:0:0:
82,33,80154,6,0,L|69:97,1,50,2|0,1:2|0:0,0:0:0:0:
137,135,80377,2,0,P|176:123|203:124,1,50,0|0,0:0|1:0,0:0:0:0:
408,0,80599,6,0,P|369:12|342:11,1,50,10|2,0:0|0:1,0:0:0:0:
306,75,80821,2,0,L|315:123,1,50,0|2,0:0|1:0,0:0:0:0:
433,218,81043,5,2,0:0:0:0:
431,228,81154,1,0,0:0:0:0:
458,339,81266,6,0,B|415:335|398:360|398:360|381:306|443:232|513:269,2,250,2|8|8,1:0|0:0|0:3,0:0:0:0:
458,339,81821,1,8,0:3:0:0:
351,282,81932,6,0,B|316:289|316:289|313:291|313:291|270:302,1,75.0000028610231,6|0,1:2|0:0,0:0:0:0:
128,348,82154,1,0,0:0:0:0:
147,352,82266,1,0,0:0:0:0:
184,269,82377,5,10,0:0:0:0:
249,384,82488,2,0,P|264:347|265:301,1,75.0000028610231,2|8,0:1|0:3,0:0:0:0:
333,52,82710,2,0,P|318:89|317:135,1,75.0000028610231,4|2,0:3|1:2,0:0:0:0:
388,180,82932,1,8,0:0:0:0:
315,123,83043,6,0,B|218:125|159:173|159:173|178:135|186:95,2,250,2|8|8,1:0|0:0|0:3,0:0:0:0:
323,127,83562,1,2,0:0:0:0:
330,131,83636,1,2,0:0:0:0:
336,136,83710,6,0,P|331:179|320:220,1,75.0000028610231,10|0,0:1|0:0,0:0:0:0:
427,232,83932,2,0,P|432:189|443:148,1,75.0000028610231,2|0,1:2|0:0,0:0:0:0:
380,20,84154,6,0,P|397:68|402:105,1,75.0000028610231,10|0,0:1|0:0,0:0:0:0:
512,363,84377,2,0,P|495:315|490:278,1,75.0000028610231,2|0,1:2|0:0,0:0:0:0:
325,218,84599,6,0,P|292:234|251:243,1,75.0000028610231,10|0,0:1|0:0,0:0:0:0:
77,332,84821,5,0,1:0:0:0:
96,328,84895,5,0,1:0:0:0:
114,334,84969,5,0,1:0:0:0:
128,348,85043,5,10,0:0:0:0:
205,324,85154,1,10,0:0:0:0:
236,251,85266,1,10,0:0:0:0:
197,181,85377,1,10,0:0:0:0:
117,166,85488,6,0,P|133:117|133:109,1,50,8|8,0:0|0:0,0:0:0:0:
176,7,85710,2,0,L|184:43,1,25,8|8,0:0|0:0,0:0:0:0:
214,76,85821,2,0,L|206:40,1,25,8|8,0:3|0:3,0:0:0:0:
96,27,85932,5,8,0:0:0:0:
47,18,86043,1,8,0:0:0:0:
17,55,86154,1,8,0:0:0:0:
297,142,86377,5,8,0:0:0:0:
310,140,86451,5,8,0:3:0:0:
323,138,86525,5,4,0:3:0:0:
336,136,86599,5,0,1:0:0:0:
420,97,86710,1,0,1:0:0:0:
478,163,86821,2,0,L|467:199,1,25,8|0,0:0|0:0,0:0:0:0:
267,0,87043,5,4,1:0:0:0:
256,192,87098,12,0,88598,0:0:0:0:
140,299,88672,5,8,0:0:0:0:
144,308,88746,1,8,0:0:0:0:
128,348,88820,5,0,1:0:0:0:
