osu file format v14

[General]
AudioFilename: audio.mp3
AudioLeadIn: 0
PreviewTime: 14043
Countdown: 0
SampleSet: Soft
StackLeniency: 0.7
Mode: 0
LetterboxInBreaks: 0
WidescreenStoryboard: 0

[Editor]
Bookmarks: 60599
DistanceSpacing: 0.4
BeatDivisor: 8
GridSize: 4
TimelineZoom: 2.5

[Metadata]
Title:Touch You (TV Size)
TitleUnicode:Touch You (TV Size)
Artist:Shiritsu Morimo-ri Gakuen Seishun Boys
ArtistUnicode:私立モリモーリ学園 性春♡男子s
Creator:-Mikan
Version:Forbidden Colors
Source:ヤリチン☆ビッチ部
Tags:gay homosexual gay Yarichin Bitch Club yuyoyuppe Mikan Bazz_B Bazz B Nekroman4ik kanor kuyusu arronchu1207 Mocaotic evaotic Ayesha Altugle Shizuku- Kazato Asa Shikibe Mayu opening op anime japanese pop jpop j-pop yaoi BL boys love bitch-bu yarichin*bitch-bu ゆよゆっぺ 遠野高志 Toono Takashi 加島優 Kashima Yuu 矢口恭介 Yaguchi Kyousuke ジミー Jimmy 百合絢斗 Yuri Ayato 田村唯 Tamura Yui 明美圭一 Akemi Keiichi 糸目幸士郎 Itome Koushirou 鹿谷樹 Shikatani Itsuki 小林裕介 Kobayashi Yuusuke 濱野大輝 Hamano Daiki 村瀬歩 Murase Ayumu 熊谷健太郎 Kumagai Kentarou 佐藤拓也 Satou Takuya 小野友樹 Ano Yuuki 代永翼 Yonaga Tsubasa 山中真尋 Yamanaka Masahiro 中澤まさとも Nakazawa Masatomo
BeatmapID:3566868
BeatmapSetID:1744363

[Difficulty]
HPDrainRate:5
CircleSize:5
OverallDifficulty:9
ApproachRate:9.6
SliderMultiplier:1.6
SliderTickRate:1

[Events]
//Background and Video events
0,0,"a.jpg",0,0
//Break Periods
//Storyboard Layer 0 (Background)
//Storyboard Layer 1 (Fail)
//Storyboard Layer 2 (Pass)
//Storyboard Layer 3 (Foreground)
//Storyboard Layer 4 (Overlay)
//Storyboard Sound Samples

[TimingPoints]
155,444.444444444444,4,2,1,69,1,0
155,-80,4,2,1,69,0,0
488,-100,4,2,1,69,0,0
1488,-44.4444444444445,4,2,1,69,0,0
1932,-144.927536231884,4,2,1,69,0,0
2821,-112.359550561798,4,2,1,69,0,0
3266,-144.927536231884,4,2,1,69,0,0
3710,-101.010101010101,4,2,1,69,0,0
4377,-112.359550561798,4,2,1,69,0,0
4599,-100,4,2,1,69,0,0
5043,-83.3333333333333,4,2,1,69,0,0
5488,-133.333333333333,4,2,1,69,0,0
6377,-100,4,2,1,69,0,0
7266,-80,4,2,1,69,0,0
7932,-133.333333333333,4,2,1,69,0,0
8154,-66.6666666666667,4,2,1,69,0,0
8599,-200,4,2,1,69,0,0
9043,-125,4,2,1,69,0,0
12154,-100,4,2,1,69,0,0
14377,-200,4,2,1,69,0,0
15266,-400,4,2,1,69,0,0
15710,-14.2857142857143,4,2,1,69,0,0
16154,-66.6666666666667,4,2,1,79,0,0
16932,-200,4,2,1,79,0,0
17266,-43.4782608695652,4,2,1,79,0,0
17932,-50,4,2,1,79,0,0
18488,-66.6666666666667,4,2,1,79,0,0
18710,-100,4,2,1,79,0,0
19043,-34.4827586206897,4,2,1,79,0,0
19710,-66.6666666666667,4,2,1,79,0,0
20488,-133.333333333333,4,2,1,79,0,0
20821,-40,4,2,1,79,0,0
21266,-20,4,2,1,79,0,0
21488,-58.8235294117647,4,2,1,79,0,0
21710,-66.6666666666667,4,2,1,79,0,0
21932,-58.8235294117647,4,2,1,79,0,0
22154,-66.6666666666667,4,2,1,79,0,0
22377,-58.8235294117647,4,2,1,79,0,0
23266,-55.5555555555556,4,2,1,79,0,0
23821,-66.6666666666667,4,2,1,79,0,0
24043,-181.818181818181,4,2,1,79,0,0
24377,-38.4615384615385,4,2,1,79,0,0
24821,-33.3333333333333,4,2,1,79,0,0
25043,-66.6666666666667,4,2,1,79,0,0
25821,-100,4,2,1,79,0,0
26154,-28.5714285714286,4,2,1,79,0,0
26599,-66.6666666666667,4,2,1,79,0,0
26821,-100,4,2,1,79,0,0
28154,-50,4,2,1,79,0,0
28599,-40,4,2,1,79,0,0
29488,-40,4,2,1,79,0,0
29932,-33.3333333333333,4,2,1,79,0,0
30154,-22.2222222222222,4,2,1,79,0,0
30599,-100,4,2,1,69,0,0
32154,-58.8235294117647,4,2,1,69,0,0
32599,-71.4285714285714,4,2,1,69,0,0
33932,-100,4,2,1,69,0,0
34377,-76.9230769230769,4,2,1,69,0,0
34821,-50,4,2,1,69,0,0
35043,-66.6666666666667,4,2,1,69,0,0
35266,-58.8235294117647,4,2,1,69,0,0
35710,-83.3333333333333,4,2,1,69,0,0
36599,-62.5,4,2,1,69,0,0
36932,-50,4,2,1,69,0,0
37266,-76.9230769230769,4,2,1,69,0,0
37488,-133.333333333333,4,2,1,69,0,0
38377,-40,4,2,1,69,0,0
38710,-66.6666666666667,4,2,1,69,0,0
39266,-76.9230769230769,4,2,1,69,0,0
39710,-66.6666666666667,4,2,1,69,0,0
39932,-100,4,2,1,69,0,0
40154,-76.9230769230769,4,2,1,69,0,0
40488,-133.333333333333,4,2,1,69,0,0
40821,-66.6666666666667,4,2,1,69,0,0
41043,-83.3333333333333,4,2,1,69,0,0
41599,-66.6666666666667,4,2,1,69,0,0
41932,-62.5,4,2,1,69,0,0
42821,-66.6666666666667,4,2,1,69,0,0
44377,-40,4,2,1,69,0,0
44821,-66.6666666666667,4,2,1,69,0,0
45043,-83.3333333333333,4,2,1,69,0,0
46377,-83.3333333333333,4,2,1,59,0,0
46821,-100,4,2,1,59,0,0
49932,-76.9230769230769,4,2,1,59,0,0
50377,-71.4285714285714,4,2,1,59,0,0
50821,-100,4,2,1,59,0,0
52599,-83.3333333333333,4,2,1,59,0,0
52821,-71.4285714285714,4,2,1,59,0,0
53487,-71.4285714285714,4,2,1,69,0,0
53932,-66.6666666666667,4,2,1,69,0,0
54154,-76.9230769230769,4,2,1,69,0,0
56377,-90.9090909090909,4,2,1,69,0,0
57043,-142.857142857143,4,2,1,69,0,0
57488,-100,4,2,1,69,0,0
57932,-40,4,2,1,69,0,0
58377,-16.6666666666667,4,2,1,69,0,0
58821,-50,4,2,1,69,0,0
59154,-55.5555555555556,4,2,1,69,0,0
59710,-133.333333333333,4,2,1,69,0,0
60154,-33.3333333333333,4,2,1,69,0,0
60599,-40,4,2,1,79,0,0
61043,-66.6666666666667,4,2,1,79,0,0
61377,-133.333333333333,4,2,1,79,0,0
61488,-40,4,2,1,79,0,0
62043,-76.9230769230769,4,2,1,79,0,0
62377,-55.5555555555556,4,2,1,79,0,0
62821,-66.6666666666667,4,2,1,79,0,0
63266,-58.8235294117647,4,2,1,79,0,0
64154,-43.4782608695652,4,2,1,79,0,0
64599,-50,4,2,1,79,0,0
65043,-58.8235294117647,4,2,1,79,0,0
65488,-76.9230769230769,4,2,1,79,0,0
65932,-47.6190476190476,4,2,1,79,0,0
66821,-58.8235294117647,4,2,1,79,0,0
67266,-66.6666666666667,4,2,1,79,0,0
67488,-100,4,2,1,79,0,0
67710,-40,4,2,1,79,0,0
68154,-66.6666666666667,4,2,1,79,0,0
68599,-40,4,2,1,79,0,0
69043,-66.6666666666667,4,2,1,79,0,0
69154,-83.3333333333333,4,2,1,79,0,0
69488,-58.8235294117647,4,2,1,79,0,0
69932,-50,4,2,1,79,0,0
70377,-58.8235294117647,4,2,1,79,0,0
71266,-40,4,2,1,79,0,0
71710,-50,4,2,1,79,0,0
72154,-66.6666666666667,4,2,1,79,0,0
72599,-76.9230769230769,4,2,1,79,0,0
73043,-40,4,2,1,79,0,0
73488,-66.6666666666667,4,2,1,79,0,0
73932,-50,4,2,1,79,0,0
74821,-100,4,2,1,79,0,0
75488,-76.9230769230769,4,2,1,79,0,0
75932,-62.5,4,2,1,79,0,0
76377,-66.6666666666667,4,2,1,79,0,0
77488,-333.333333333333,4,2,1,79,0,0
77932,-12.5,4,2,1,79,0,0
78377,-58.8235294117647,4,2,1,79,0,0
79154,-181.818181818181,4,2,1,79,0,0
79488,-33.3333333333333,4,2,1,79,0,0
79932,-100,4,2,1,79,0,0
80154,-50,4,2,1,79,0,0
80710,-62.5,4,2,1,79,0,0
80932,-83.3333333333333,4,2,1,79,0,0
81266,-40,4,2,1,79,0,0
81932,-58.8235294117647,4,2,1,79,0,0
83043,-40,4,2,1,79,0,0
83488,-20,4,2,1,79,0,0
83710,-57.1428571428571,4,2,1,79,0,0
86821,-68.9655172413793,4,2,1,79,0,0
87043,444.444444444444,4,2,1,79,1,0
87043,-66.6666666666667,4,2,2,79,0,0
87098,-66.6666666666667,4,2,1,79,0,0

[Colours]
Combo1 : 255,255,170
Combo2 : 172,255,172
Combo3 : 176,255,255
Combo4 : 255,177,100

[HitObjects]
470,61,155,6,0,L|505:54,2,25,8|0|0,0:0|0:0|0:0,0:0:0:0:
360,133,377,1,8,0:0:0:0:
434,201,488,2,0,L|422:147,1,40,8|8,0:0|0:0,0:0:0:0:
296,44,710,2,0,L|306:94,1,40,8|0,0:0|0:0,0:0:0:0:
197,298,932,5,8,0:0:0:0:
127,321,1043,1,8,0:0:0:0:
62,279,1154,1,8,0:3:0:0:
56,206,1266,1,4,0:3:0:0:
67,211,1377,1,0,1:0:0:0:
72,384,1488,6,0,B|76:375|87:374|87:374|101:251|117:118,1,270.000010299683,12|0,0:0|0:0,0:0:0:0:
44,9,1932,6,0,P|25:53|52:89,1,82.8000001263428,6|0,1:2|0:0,0:0:0:0:
116,124,2377,2,0,P|154:112|197:111,1,82.8000001263428,2|0,0:0|0:0,0:0:0:0:
451,33,2821,6,0,L|336:13,1,106.800000081482,6|0,1:2|0:0,0:0:0:0:
287,66,3266,2,0,L|301:126,1,55.2000000842285,2|0,0:0|0:0,0:0:0:0:
396,303,3599,5,0,0:0:0:0:
404,304,3710,2,0,B|416:288|428:282|428:282|408:188,1,118.799999637451,6|0,1:2|0:0,0:0:0:0:
395,132,4154,1,2,0:0:0:0:
248,226,4377,2,0,L|217:221,3,17.8000000135803,8|0|0|0,0:3|0:0|0:0|0:0,0:0:0:0:
302,270,4599,6,0,P|331:263|354:261,1,40,10|0,0:0|0:0,0:0:0:0:
176,178,4821,2,0,P|147:185|124:187,1,40,2|0,1:2|0:0,0:0:0:0:
299,121,5043,6,0,L|293:177,1,47.9999985351563,10|0,0:0|0:0,0:0:0:0:
178,330,5266,2,0,P|181:296|184:274,1,47.9999985351563,8|0,0:3|0:0,0:0:0:0:
244,384,5488,6,0,P|293:362|380:383,1,120.000004577637,6|0,1:2|0:0,0:0:0:0:
422,338,6154,1,2,0:0:0:0:
178,330,6377,6,0,P|102:337|52:269,1,160,6|0,1:2|0:0,0:0:0:0:
25,85,7043,1,10,0:0:0:0:
40,81,7154,1,10,0:0:0:0:
92,40,7266,6,0,L|72:141,1,100,6|0,1:2|0:0,0:0:0:0:
136,186,7599,2,0,P|156:205|137:181,1,100,2|0,1:3|0:0,0:0:0:0:
53,276,7932,2,0,P|34:279|17:288,1,30.0000011444092,2|0,1:2|0:0,0:0:0:0:
226,136,8154,6,0,L|298:156,1,60.0000022888184,10|0,0:0|0:0,0:0:0:0:
368,106,8377,1,0,1:0:0:0:
364,92,8451,1,0,1:0:0:0:
360,75,8525,1,0,1:0:0:0:
340,54,8599,6,0,L|347:5,1,40,14|0,0:0|0:0,0:0:0:0:
283,152,8932,5,0,0:0:0:0:
289,160,9043,2,0,P|298:190|301:222,1,64,6|0,1:2|0:0,0:0:0:0:
414,368,9488,2,0,P|405:338|402:306,1,64,2|0,1:2|0:0,0:0:0:0:
429,237,9821,5,0,0:0:0:0:
437,234,9932,2,0,L|509:218,1,64,6|0,1:2|0:0,0:0:0:0:
279,333,10377,2,0,L|216:346,1,64,2|0,1:2|0:0,0:0:0:0:
53,276,10710,5,0,0:0:0:0:
59,270,10821,2,0,P|113:267|166:306,1,96,6|0,1:2|0:0,0:0:0:0:
213,247,11266,2,0,L|205:205,1,32,10|0,0:0|0:0,0:0:0:0:
302,37,11488,1,8,0:3:0:0:
300,50,11599,1,8,0:3:0:0:
353,97,11710,5,2,1:2:0:0:
352,131,11821,1,8,0:3:0:0:
318,156,11932,1,8,0:3:0:0:
283,152,12043,1,4,0:3:0:0:
225,105,12154,6,0,L|171:121,1,40,2|0,1:2|0:0,0:0:0:0:
128,165,12377,2,0,P|99:157|72:154,1,40,8|8,0:3|0:3,0:0:0:0:
39,71,12599,5,6,1:2:0:0:
39,71,12821,1,8,0:0:0:0:
103,32,12932,1,10,0:0:0:0:
176,45,13043,1,0,1:2:0:0:
225,105,13154,1,8,0:0:0:0:
217,182,13266,1,10,0:0:0:0:
166,236,13377,1,8,0:0:0:0:
85,168,13488,5,2,1:2:0:0:
89,155,13599,1,8,0:0:0:0:
0,259,13710,5,8,0:0:0:0:
6,272,13821,1,8,0:0:0:0:
98,358,13932,5,0,1:0:0:0:
184,344,14043,1,8,0:0:0:0:
269,332,14154,1,8,0:0:0:0:
354,319,14266,1,8,0:0:0:0:
433,345,14377,6,0,P|427:367|425:387,3,40,2|2|2|2,1:2|0:0|0:0|0:0,0:0:0:0:
482,291,15266,2,0,L|474:259,1,30,2|0,0:0|0:0,0:0:0:0:
512,193,15710,6,0,P|527:186|511:197,12,70.000000667572,10|0|0|0|0|0|0|0|0|0|0|0|0,0:0|0:0|0:0|0:0|0:0|0:0|0:0|0:0|0:0|0:0|0:0|0:0|0:0,0:0:0:0:
400,127,16154,6,0,L|273:154,1,120.000004577637,4|0,1:0|0:0,0:0:0:0:
176,45,16488,1,0,1:0:0:0:
258,0,16599,1,8,0:0:0:0:
272,11,16710,6,0,P|279:46|259:84,1,60.0000022888184,2|0,0:1|0:0,0:0:0:0:
92,273,16932,2,0,L|102:219,1,40,2|0,1:0|0:0,0:0:0:0:
217,182,17266,6,0,B|121:143|121:143|178:324,1,276.000005264282,2|0,1:0|0:0,0:0:0:0:
89,374,17710,2,0,P|64:356|90:367,1,92.0000017547608,2|0,1:0|0:0,0:0:0:0:
172,308,17932,6,0,B|261:311|233:378|356:362,1,160,2|0,1:2|0:0,0:0:0:0:
482,291,18266,1,0,1:0:0:0:
410,384,18377,1,10,0:0:0:0:
402,373,18488,6,0,L|415:305,1,60.0000022888184,2|0,0:1|0:0,0:0:0:0:
325,204,18710,1,2,1:0:0:0:
400,127,18821,2,0,L|393:179,1,40,2|0,0:0|0:0,0:0:0:0:
172,307,19043,6,0,B|205:175|68:132|9:187|-24:248|61:301|102:267,1,348.000010620118,2|0,1:0|0:0,0:0:0:0:
209,158,19488,1,8,0:3:0:0:
197,85,19599,1,8,0:3:0:0:
185,19,19710,5,6,1:2:0:0:
300,140,19821,2,0,P|285:207|271:284,1,120.000004577637,0|0,0:0|1:0,0:0:0:0:
355,326,20154,1,10,0:0:0:0:
413,277,20266,6,0,P|429:262|411:269,1,60.0000022888184,2|0,0:1|0:0,0:0:0:0:
257,377,20488,2,0,L|193:369,1,60.0000022888184,2|0,1:0|0:0,0:0:0:0:
276,257,20821,6,0,B|352:237|440:305|367:331|479:395|535:375,1,300,2|0,1:0|0:0,0:0:0:0:
412,101,21266,2,0,B|402:101|384:93|384:93|400:117|405:149,4,66.6666666666667,0|0|0|0|0,1:0|0:0|0:0|0:0|0:0,0:0:0:0:
465,149,21488,6,0,L|452:222,1,68.0000012969971,10|0,0:1|0:0,0:0:0:0:
507,280,21710,2,0,P|528:287|511:272,1,60.0000022888184,2|0,1:2|0:0,0:0:0:0:
260,351,21932,6,0,P|200:368|190:379,1,68.0000012969971,10|0,0:1|0:0,0:0:0:0:
111,319,22154,2,0,P|126:302|119:323,1,60.0000022888184,2|0,1:2|0:0,0:0:0:0:
347,258,22377,6,0,L|431:282,1,68.0000012969971,10|0,0:1|0:0,0:0:0:0:
284,199,22599,1,0,1:0:0:0:
272,202,22673,1,0,1:0:0:0:
260,205,22747,1,0,1:0:0:0:
217,182,22821,5,10,0:0:0:0:
231,110,22932,1,10,0:0:0:0:
317,63,23043,1,10,0:0:0:0:
412,101,23154,1,10,0:0:0:0:
447,211,23266,6,0,P|431:265|419:355,1,143.999995605469,6|0,1:0|0:0,0:0:0:0:
481,384,23599,1,0,1:0:0:0:
347,258,23710,1,8,0:0:0:0:
298,307,23821,6,0,P|283:310|301:310,1,60.0000022888184,2|0,0:1|0:0,0:0:0:0:
360,179,24043,2,0,L|350:134,1,44.0000013427735,2|0,1:1|0:0,0:0:0:0:
512,39,24377,6,0,B|480:44|466:68|466:68|340:38|212:31,1,311.999985717774,2|0,1:0|0:0,0:1:0:0:
92,51,24821,6,0,B|74:36|74:36|90:28|90:28|96:71,3,60.0000022888184,2|2|2|2,1:2|0:0|0:0|0:0,0:0:0:0:
58,120,25043,6,0,P|95:81|173:90,1,120.000004577637,2|0,1:2|0:0,0:0:0:0:
213,31,25377,1,0,1:0:0:0:
350,136,25488,1,10,0:0:0:0:
260,205,25599,6,0,B|251:192|251:192|269:132,1,60.0000022888184,2|0,0:1|0:0,0:0:0:0:
349,7,25821,1,2,1:0:0:0:
358,11,25932,2,0,L|370:63,1,40,2|0,0:0|0:0,0:0:0:0:
507,280,26154,6,0,B|535:227|526:122|424:74|346:113|296:170|319:243|420:233|435:168,1,420.000004005432,2|0,1:0|0:0,0:0:0:0:
469,107,26599,1,8,0:0:0:0:
463,92,26710,1,8,0:0:0:0:
494,24,26821,6,0,L|521:33,2,20,2|0|2,1:2|0:0|0:0,0:0:0:0:
350,136,27043,1,10,0:0:0:0:
272,133,27154,1,10,0:0:0:0:
216,77,27266,1,10,1:2:0:0:
221,2,27377,5,8,0:0:0:0:
233,7,27488,1,8,0:0:0:0:
97,87,27599,5,8,0:0:0:0:
32,116,27710,1,10,1:2:0:0:
39,46,27821,5,10,0:0:0:0:
99,173,27932,1,8,0:0:0:0:
0,260,28043,5,10,0:0:0:0:
77,247,28154,6,0,P|97:272|100:280,1,40,10|0,0:0|0:0,0:0:0:0:
166,285,28266,6,0,P|171:319|169:330,1,40,8|0,0:3|0:0,0:0:0:0:
212,376,28377,5,4,0:3:0:0:
210,384,28488,1,4,0:3:0:0:
279,354,28599,6,0,P|289:343|282:359,1,50,4|0,1:2|0:0,0:0:0:0:
6,170,29043,6,0,P|-4:159|3:175,1,50,4|0,1:2|0:0,0:0:0:0:
233,7,29488,6,0,B|258:13|300:-5|300:-5|249:6|183:80|208:159|290:154|301:96,1,300,14|0,0:0|0:0,0:0:0:0:
346,173,29932,6,0,L|386:160,4,30.0000011444092,8|8|8|8|8,0:0|0:0|0:0|0:0|0:0,0:0:0:0:
417,104,30154,2,0,P|442:115|481:117,4,45.0000017166138,8|8|8|8|8,0:0|0:0|0:0|0:0|0:0,0:0:0:0:
497,189,30377,5,0,1:0:0:0:
497,189,30599,2,0,L|481:270,1,80,8|8,0:1|0:1,0:0:0:0:
498,370,30932,2,0,P|512:346|508:316,1,40,8|0,0:1|0:0,0:0:0:0:
481,267,31154,2,0,P|457:276|435:279,1,40,8|0,0:1|0:0,0:0:0:0:
347,314,31377,2,0,L|386:325,1,40,8|0,0:1|0:0,0:0:0:0:
298,258,31599,1,8,0:1:0:0:
140,324,31710,5,8,0:1:0:0:
141,332,31784,1,8,0:1:0:0:
142,341,31858,1,8,0:3:0:0:
143,349,31932,1,8,0:3:0:0:
144,358,32006,1,4,0:3:0:0:
146,366,32080,1,4,0:3:0:0:
168,381,32154,6,0,B|169:374|179:371|179:371|184:292|195:207,1,170.000003242493,4|0,1:0|0:0,0:0:0:0:
193,217,32488,1,2,1:2:0:0:
104,94,32599,2,0,P|121:126|126:156,1,55.9999982910157,8|0,0:0|0:0,0:0:0:0:
94,213,32821,1,2,1:2:0:0:
94,213,33043,6,0,P|47:244|-5:237,1,111.999996582031,2|0,1:2|0:0,0:0:0:0:
195,121,33377,2,0,L|316:146,1,111.999996582031,2|0,1:2|0:0,0:0:0:0:
373,105,33710,2,0,P|383:90|367:103,1,55.9999982910157,10|0,0:0|0:0,0:0:0:0:
440,247,33932,6,0,L|430:287,1,40,2|0,1:2|0:0,0:0:0:0:
460,343,34154,2,0,L|448:293,1,40,2|0,1:2|0:0,0:0:0:0:
512,262,34377,5,10,0:0:0:0:
378,340,34488,2,0,P|352:332|325:326,1,51.999997619629,2|0,1:2|0:0,0:0:0:0:
264,282,34710,1,2,1:2:0:0:
251,276,34821,2,0,L|221:284,4,26.6666666666667,2|2|2|2|2,0:0|0:0|0:0|0:0|0:0,0:0:0:0:
318,212,35043,6,0,P|328:194|314:209,1,60.0000022888184,4|0,1:2|0:0,0:0:0:0:
127,321,35266,2,0,P|192:316|247:355,1,136.000002593994,8|0,0:0|1:0,0:0:0:0:
53,252,35599,5,0,0:0:0:0:
47,264,35710,2,0,L|-17:280,1,47.9999985351563,2|0,1:2|0:0,0:0:0:0:
107,104,35932,2,0,L|46:93,1,47.9999985351563,2|0,1:2|0:0,0:0:0:0:
153,164,36154,1,10,0:0:0:0:
230,151,36266,1,0,1:0:0:0:
304,143,36377,1,2,1:2:0:0:
304,143,36599,6,0,L|285:276,1,128,2|0,1:2|0:0,0:0:0:0:
455,370,36932,2,0,B|458:348|476:333|476:333|475:273|422:242|376:271,1,160,2|0,1:2|0:0,0:0:0:0:
353,323,37266,2,0,B|364:348|364:348|363:310,1,51.999997619629,10|0,0:0|0:0,0:0:0:0:
285,269,37488,6,0,L|216:284,1,60.0000022888184,6|0,1:2|0:0,0:0:0:0:
183,347,37821,2,0,P|154:337|114:332,1,60.0000022888184,2|0,1:2|0:0,0:0:0:0:
72,283,38154,2,0,P|67:274|79:280,1,30.0000011444092,2|0,1:2|0:0,0:0:0:0:
30,382,38377,6,0,B|24:362|5:350|5:350|33:269|52:195,1,200,14|0,0:0|1:0,0:0:0:0:
4,144,38710,6,0,L|-27:152,2,30.0000011444092,2|0|8,0:0|0:0|0:3,0:0:0:0:
51,198,38932,1,8,0:3:0:0:
131,196,39043,1,4,0:3:0:0:
187,151,39154,1,4,0:3:0:0:
207,74,39266,5,6,1:2:0:0:
201,71,39377,2,0,L|191:13,1,51.999997619629,2|0,0:0|0:0,0:0:0:0:
365,100,39599,1,2,1:2:0:0:
304,143,39710,2,0,P|367:144|413:187,1,120.000004577637,8|0,0:0|1:0,0:0:0:0:
512,77,40154,5,2,1:2:0:0:
508,72,40266,2,0,P|472:84|444:87,1,51.999997619629,2|0,0:0|0:0,0:0:0:0:
302,241,40488,2,0,P|360:228|371:228,1,60.0000022888184,2|0,1:2|0:0,0:0:0:0:
408,179,40821,2,0,P|421:161|403:175,1,60.0000022888184,10|0,0:0|0:0,0:0:0:0:
492,290,41043,6,0,L|471:401,1,95.9999970703126,2|0,1:2|0:0,0:0:0:0:
474,384,41377,1,2,1:2:0:0:
360,228,41488,1,8,0:0:0:0:
413,272,41599,6,0,P|464:278|508:210,1,120.000004577637,0|0,1:2|1:0,0:0:0:0:
354,334,41932,2,0,L|281:348,1,64,10|0,0:0|0:0,0:0:0:0:
170,277,42154,2,0,L|242:265,1,64,6|0,1:2|0:0,0:0:0:0:
65,384,42377,6,0,B|64:372|53:363|53:363|70:320,1,64,8|0,0:0|1:0,0:0:0:0:
0,178,42599,2,0,P|-3:198|3:215,1,32,10|0,0:0|0:0,0:0:0:0:
0,209,42710,2,0,P|17:231|34:234,1,32,8|0,0:0|0:0,0:0:0:0:
82,200,42821,6,0,L|65:119,1,60.0000022888184,2|0,1:2|0:0,0:0:0:0:
260,12,43043,1,8,0:0:0:0:
256,27,43154,1,8,0:0:0:0:
301,106,43266,6,0,P|354:94|381:94,1,60.0000022888184,2|0,1:2|0:0,0:0:0:0:
153,45,43488,1,8,0:0:0:0:
81,63,43599,1,8,0:0:0:0:
13,25,43710,6,0,L|20:-4,1,30.0000011444092,2|0,1:2|0:0,0:0:0:0:
187,151,44043,2,0,L|180:180,1,30.0000011444092,10|0,0:0|0:0,0:0:0:0:
65,384,44377,6,0,B|-8:319|9:166|88:169|118:193|124:275|47:327,1,350,6|0,1:2|0:0,0:0:0:0:
0,273,44821,6,0,P|-14:272|1:272,1,60.0000022888184,8|0,0:0|0:0,0:0:0:0:
130,347,45043,2,0,P|153:339|189:337,1,47.9999985351563,8|0,0:0|0:0,0:0:0:0:
233,266,45266,6,0,L|227:236,2,23.9999992675781,8|0|8,0:0|0:0|0:0,0:0:0:0:
276,187,45488,5,10,0:0:0:0:
352,183,45599,1,8,0:0:0:0:
393,243,45710,1,8,0:3:0:0:
369,311,45821,1,8,0:3:0:0:
298,326,45932,5,4,0:3:0:0:
301,312,46043,1,4,0:3:0:0:
233,266,46154,5,8,0:0:0:0:
259,384,46265,1,8,0:0:0:0:
176,336,46377,5,6,1:2:0:0:
434,179,46599,1,0,0:0:0:0:
256,27,46821,2,0,L|248:108,1,80,8|0,0:0|1:0,0:0:0:0:
317,208,47266,6,0,L|356:218,1,40,0|0,1:1|0:0,0:0:0:0:
411,266,47488,2,0,P|429:260|449:258,1,40,2|0,0:0|0:0,0:0:0:0:
503,210,47710,2,0,P|511:184|507:163,1,40,10|0,0:0|0:0,0:0:0:0:
455,262,47932,6,0,L|472:348,1,80,2|0,1:2|1:0,0:0:0:0:
233,266,48377,2,0,L|192:257,1,40,2|0,0:0|0:0,0:0:0:0:
139,287,48599,2,0,L|177:278,1,40,10|0,0:0|0:0,0:0:0:0:
127,192,48821,1,2,1:2:0:0:
125,199,48932,1,0,0:0:0:0:
123,206,49043,1,0,1:0:0:0:
201,358,49266,5,2,1:2:0:0:
115,90,49488,2,0,L|123:51,1,40,10|0,0:0|0:0,0:0:0:0:
2,171,49710,2,0,P|-12:174|0:165,1,40,2|0,1:2|0:0,0:0:0:0:
49,113,49932,6,0,B|146:114|101:159|208:158,1,155.999992858887,6|0,1:2|0:0,0:0:0:0:
263,103,50377,6,0,B|307:43|261:-4|261:-4|284:27|264:46,1,167.999994873047,10|0,0:0|0:0,0:0:0:0:
194,157,50821,6,0,L|213:285,1,120,6|0,1:2|0:0,0:0:0:0:
132,357,51266,2,0,P|135:335|148:303,1,40,10|0,0:0|0:0,0:0:0:0:
45,277,51488,1,8,0:3:0:0:
31,282,51599,1,4,0:3:0:0:
19,286,51710,5,2,1:2:0:0:
235,214,51932,1,2,0:0:0:0:
123,50,52154,2,0,L|111:104,1,40,10|0,0:0|0:0,0:0:0:0:
119,206,52377,2,0,L|131:152,1,40,2|0,1:2|0:0,0:0:0:0:
56,146,52599,6,0,P|27:150|0:165,1,47.9999985351563,2|0,1:2|0:0,0:0:0:0:
209,86,52821,2,0,L|279:107,1,55.9999982910157,10|0,0:0|0:0,0:0:0:0:
317,156,53043,2,0,L|386:137,1,55.9999982910157,10|0,0:0|0:0,0:0:0:0:
486,58,53266,5,8,0:3:0:0:
500,34,53377,1,4,0:3:0:0:
487,11,53488,1,6,1:2:0:0:
235,214,53821,1,8,0:0:0:0:
297,272,53932,2,0,P|309:286|301:266,1,60.0000022888184,8|0,0:0|0:0,0:0:0:0:
235,214,54154,6,0,L|179:226,1,51.999997619629,8|0,0:0|0:0,0:0:0:0:
51,290,54377,1,2,1:2:0:0:
65,293,54488,1,8,0:0:0:0:
119,333,54599,2,0,L|174:320,1,51.999997619629,10|0,0:0|0:0,0:0:0:0:
229,359,54821,6,0,L|223:392,2,25.9999988098145,10|0|8,0:0|0:0|0:0,0:0:0:0:
116,243,55043,2,0,B|109:226|109:226|130:174,1,51.999997619629,10|0,0:0|0:0,0:0:0:0:
209,86,55266,5,4,1:2:0:0:
459,324,55599,1,8,0:0:0:0:
379,370,55710,2,0,L|308:355,1,51.999997619629,10|0,0:0|0:0,0:0:0:0:
459,324,55932,6,0,P|494:331|518:324,1,51.999997619629,10|0,0:0|0:0,0:0:0:0:
377,129,56154,1,0,1:0:0:0:
390,122,56266,1,8,0:0:0:0:
449,160,56377,6,0,L|439:220,1,44.0000013427735,10|0,0:0|0:0,0:0:0:0:
363,297,56599,2,0,L|373:235,1,44.0000013427735,10|0,0:0|0:0,0:0:0:0:
95,66,56821,5,10,0:0:0:0:
31,118,56932,1,8,0:0:0:0:
121,194,57043,6,0,P|170:180|204:175,1,83.9999974365235,6|0,1:2|0:0,0:0:0:0:
392,124,57488,2,0,P|333:127|287:91,1,120,2|0,1:2|0:0,0:0:0:0:
245,14,57932,6,0,B|259:34|273:42|273:42|249:153|224:307,1,300,2|0,1:2|0:0,0:0:0:0:
274,356,58377,2,0,B|293:369|290:396|267:383|271:359,14,60.0000022888184,2|0|0|0|0|0|0|0|0|0|0|0|0|0|0,1:2|0:0|0:0|0:0|0:0|0:0|0:0|0:0|0:0|0:0|0:0|0:0|0:0|0:0|0:0,0:0:0:0:
225,297,58821,5,10,0:0:0:0:
130,370,58932,2,0,P|90:387|43:380,1,80,8|0,0:0|0:0,0:0:0:0:
346,283,59154,6,0,L|425:301,1,71.9999978027344,8|0,0:0|0:0,0:0:0:0:
200,169,59377,6,0,B|192:155|192:155|212:85,1,71.9999978027344,8|0,0:0|0:0,0:0:0:0:
182,19,59599,5,8,0:0:0:0:
225,297,59710,1,8,0:0:0:0:
477,384,59932,5,0,1:0:0:0:
474,372,60006,5,0,1:0:0:0:
472,360,60080,5,0,1:0:0:0:
492,337,60154,6,0,B|501:325|527:312|527:312|459:244|347:289|334:381|334:381|343:372|343:372|365:299|428:299,1,420.000016021729,14|0,0:0|0:0,0:0:0:0:
422,307,60599,6,0,B|485:276|480:172|405:160|405:160|361:153|327:114|355:54,1,300,6|0,1:2|0:0,0:0:0:0:
495,35,61043,1,10,0:0:0:0:
426,0,61154,2,0,B|415:12|415:12|404:34|423:60,1,60.0000022888184
509,122,61377,5,8,0:0:0:0:
512,114,61432,1,8,0:0:0:0:
508,106,61488,2,0,B|475:70|406:59|366:113|366:113|360:165|303:205|237:165,1,300,6|0,1:2|0:0,0:0:0:0:
88,116,61932,5,10,0:0:0:0:
153,70,62043,2,0,B|163:76|172:67|172:67|213:72|225:113|208:136,1,103.999995239258
146,227,62377,6,0,B|139:293|139:293|136:296|136:296|126:382,1,143.999995605469,6|0,1:2|0:0,0:0:0:0:
127,368,62710,1,0,0:0:0:0:
0,310,62821,6,0,P|100:293|109:269,1,120.000004577637,10|2,0:0|0:0,0:0:0:0:
284,368,63154,1,8,0:0:0:0:
275,375,63266,6,0,L|204:357,1,68.0000012969971,2|0,1:2|0:0,0:0:0:0:
393,284,63488,2,0,L|459:302,1,68.0000012969971,2|0,0:0|0:0,0:0:0:0:
512,365,63710,6,0,P|525:379|508:366,1,68.0000012969971,10|0,0:0|0:0,0:0:0:0:
340,218,63932,2,0,L|349:172,3,34.0000006484985,2|0|0|0,0:0|0:0|0:0|0:0,0:0:0:0:
437,158,64154,6,0,B|341:119|341:119|398:300,1,276.000005264282,6|0,1:2|0:0,0:0:0:0:
315,334,64599,2,0,B|232:333|244:371|162:374,1,160,8|0,0:0|0:0,0:0:0:0:
33,312,64932,5,8,0:0:0:0:
58,384,65043,2,0,B|63:374|71:375|71:375|79:314|88:247,1,136.000002593994,6|0,1:2|0:0,0:0:0:0:
88,182,65377,1,0,0:0:0:0:
79,177,65488,2,0,L|17:191,1,51.999997619629,8|0,0:0|0:0,0:0:0:0:
226,12,65710,5,2,0:0:0:0:
355,64,65821,1,2,0:0:0:0:
275,125,65932,6,0,P|271:97|266:78,1,41.9999987182618,4|0,1:2|0:0,0:0:0:0:
498,240,66266,6,0,P|500:220|505:199,1,41.9999987182618,6|0,1:2|0:0,0:0:0:0:
322,375,66599,6,0,P|318:347|313:328,1,41.9999987182618,2|0,1:2|0:0,0:0:0:0:
265,281,66710,1,8,0:0:0:0:
348,147,66821,2,0,B|361:167|381:185|381:185|349:279,1,136.000002593994,10|0,0:0|1:0,0:0:0:0:
362,293,67117,5,0,1:0:0:0:
390,312,67192,5,0,1:0:0:0:
421,317,67266,6,0,P|475:306|491:306,1,60.0000022888184,10|0,0:0|0:0,0:0:0:0:
264,206,67488,2,0,P|242:211|212:216,1,40,2|0,1:2|0:0,0:0:0:0:
25,384,67710,6,0,B|9:321|57:211|197:218|209:319|146:398|41:313,1,300,4|0,1:2|0:0,0:0:0:0:
53,253,68154,2,0,B|51:241|43:233|43:233|66:130,1,120.000004577637,10|0,0:0|0:0,0:0:0:0:
8,1,68488,5,8,0:0:0:0:
1,5,68543,1,8,0:0:0:0:
0,11,68599,2,0,B|4:100|114:151|181:96|181:96|144:117|94:82,1,300,6|0,1:2|0:0,0:0:0:0:
64,139,69043,6,0,P|32:144|-6:159,1,60.0000022888184,10|0,0:0|0:0,0:0:0:0:
150,34,69266,2,0,L|156:7,2,23.9999992675781
434,157,69488,6,0,B|424:221|424:221|425:227|425:227|414:305,1,136.000002593994,6|0,1:2|0:0,0:0:0:0:
415,291,69821,1,8,0:0:0:0:
303,349,69932,6,0,B|319:342|330:326|330:326|357:310|430:324|425:389,1,160,10|2,0:0|0:0,0:0:0:0:
250,279,70266,1,8,0:0:0:0:
242,289,70377,6,0,L|166:304,1,68.0000012969971,2|0,1:2|0:0,0:0:0:0:
5,247,70599,2,0,L|81:232,1,68.0000012969971,2|0,0:0|0:0,0:0:0:0:
87,378,70821,6,0,B|85:368|74:361|74:361|94:309,1,68.0000012969971,10|0,0:0|0:0,0:0:0:0:
197,217,71043,2,0,L|181:173,3,34.0000006484985,2|0|0|0,0:0|0:0|0:0|0:0,0:0:0:0:
103,162,71266,6,0,B|61:133|46:87|156:4|229:145|70:260,1,300,6|2,1:2|0:0,0:0:0:0:
5,247,71710,2,0,B|88:246|76:284|157:287,1,160,8|2,0:0|0:0,0:0:0:0:
469,347,72043,5,8,0:0:0:0:
405,310,72154,2,0,P|339:312|297:364,1,120.000004577637,2|0,1:2|0:0,0:0:0:0:
447,243,72488,1,0,0:0:0:0:
455,237,72599,2,0,L|516:250,1,51.999997619629,10|0,0:0|0:0,0:0:0:0:
274,125,72821,6,0,P|261:113|275:122,1,51.999997619629,2|0,0:0|0:0,0:0:0:0:
337,21,73043,2,0,B|323:45|302:55|302:55|340:210,1,200,6|0,1:2|0:0,0:0:0:0:
302,348,73377,1,2,0:0:0:0:
230,288,73488,6,0,P|263:282|291:273,1,60.0000022888184,8|0,0:0|0:0,0:0:0:0:
469,347,73710,2,0,L|425:338,2,30.0000011444092,2|0|8,0:0|0:0|0:0,0:0:0:0:
363,384,73932,6,0,B|359:372|350:365|350:365|362:340|372:300,1,80,10|0,0:0|0:0,0:0:0:0:
187,168,74154,1,0,1:0:0:0:
190,183,74229,1,0,1:0:0:0:
194,198,74303,1,0,1:0:0:0:
181,224,74377,5,8,0:0:0:0:
107,246,74488,1,8,0:0:0:0:
25,206,74599,1,8,0:0:0:0:
15,115,74710,1,8,0:0:0:0:
61,60,74821,5,6,1:2:0:0:
61,60,75043,2,0,P|55:35|48:15,1,40,8|0,0:0|0:0,0:0:0:0:
123,0,75266,2,0,P|129:25|136:45,1,40,8|0,0:0|0:0,0:0:0:0:
205,90,75488,6,0,P|227:84|255:76,1,51.999997619629,8|0,0:0|0:0,0:0:0:0:
107,246,75710,2,0,P|79:253|56:259,1,51.999997619629,8|0,0:0|0:0,0:0:0:0:
368,311,75932,6,0,P|333:299|304:293,1,64,8|0,0:0|0:0,0:0:0:0:
15,115,76154,2,0,P|50:127|79:133,1,64,8|0,1:2|0:0,0:0:0:0:
225,354,76377,6,0,L|218:386,3,30.0000011444092,10|0|0|0,0:0|0:0|0:0|0:0,0:0:0:0:
306,293,76599,5,6,1:2:0:0:
306,293,76821,1,2,0:0:0:0:
15,115,77043,5,6,1:2:0:0:
15,115,77265,1,2,0:0:0:0:
437,18,77488,6,0,L|443:54,1,35.9999989013672,6|0,1:2|0:0,0:0:0:0:
502,99,77932,2,0,B|517:98|529:90|529:90|523:103|523:115|523:115|517:104|494:94,12,80,10|0|0|0|0|0|0|0|0|0|0|0|0,0:0|0:0|0:0|0:0|0:0|0:0|0:0|0:0|0:0|0:0|0:0|0:0|0:0,0:0:0:0:
392,200,78377,6,0,L|254:173,1,136.000002593994,4|0,1:0|0:0,0:0:0:0:
62,259,78710,1,0,1:0:0:0:
176,364,78821,1,8,0:0:0:0:
188,359,78932,6,0,B|207:336|207:336|190:279,1,68.0000012969971,2|0,0:1|0:0,0:0:0:0:
147,179,79154,2,0,L|139:236,1,44.0000013427735,2|0,1:0|0:0,0:0:0:0:
34,321,79488,6,0,B|7:312|-1:384|-1:384|39:308|122:263|182:285|182:285|122:279|82:351,1,360.000013732911,2|0,1:0|0:0,0:0:0:0:
62,259,79932,2,0,L|9:248,1,40,2|0,1:0|0:0,0:0:0:0:
350,148,80154,6,0,B|439:151|411:218|534:202,1,160,2|0,1:2|0:0,0:0:0:0:
297,50,80488,1,0,1:0:0:0:
389,5,80599,1,10,0:0:0:0:
398,15,80710,6,0,P|393:61|383:99,1,64,2|0,0:1|0:0,0:0:0:0:
495,204,80932,1,2,1:0:0:0:
420,274,81043,2,0,P|423:250|429:227,1,47.9999985351563,2|0,0:0|0:0,0:0:0:0:
350,148,81266,6,0,B|326:137|316:120|316:120|224:121|175:220|216:300|267:312,1,300,2|0,1:0|0:0,0:0:0:0:
357,384,81710,1,8,0:3:0:0:
428,358,81821,1,8,0:3:0:0:
506,384,81932,5,6,1:2:0:0:
323,324,82043,2,0,P|262:333|175:355,1,136.000002593994
82,293,82377,1,10,0:0:0:0:
19,344,82488,6,0,P|4:351|23:346,1,68.0000012969971,2|8,0:1|0:3,0:0:0:0:
82,293,82710,2,0,L|72:242,2,34.0000006484985,4|0|2,0:3|0:0|1:2,0:0:0:0:
0,208,82932,1,8,0:0:0:0:
106,113,83043,6,0,B|160:88|260:120|208:179|294:244|370:211,1,300,2|8,1:0|0:3,0:0:0:0:
490,39,83488,2,0,B|496:18|512:9|512:9|492:9|474:31,4,66.6666666666667,8|0|0|0|0,0:3|0:0|0:0|1:0|0:0,0:0:0:0:
411,15,83710,6,0,L|428:98,1,70.000000667572,10|0,0:1|0:0,0:0:0:0:
486,150,83932,2,0,P|507:145|489:145,1,70.000000667572,2|0,1:2|0:0,0:0:0:0:
301,348,84154,6,0,P|303:309|325:267,1,70.000000667572,10|0,0:1|0:0,0:0:0:0:
262,212,84376,2,0,P|241:217|259:217,1,70.000000667572,2|0,1:2|0:0,0:0:0:0:
512,276,84599,6,0,B|502:278|492:285|492:285|432:266,1,70.000000667572,10|0,0:1|0:0,0:0:0:0:
213,117,84821,1,0,1:0:0:0:
217,103,84895,1,0,1:0:0:0:
221,89,84969,1,0,1:0:0:0:
260,60,85043,5,10,0:0:0:0:
338,63,85154,1,10,0:0:0:0:
390,129,85266,1,10,0:0:0:0:
364,213,85377,1,10,0:0:0:0:
257,217,85488,5,8,0:0:0:0:
302,349,85599,1,8,0:0:0:0:
209,295,85710,6,0,L|201:329,1,35.000000333786,8|8,0:0|0:0,0:0:0:0:
202,380,85821,2,0,L|210:345,1,35.000000333786,8|8,0:3|0:3,0:0:0:0:
127,298,85932,5,8,0:0:0:0:
55,279,86043,1,8,0:0:0:0:
0,354,86154,5,8,0:0:0:0:
364,213,86377,1,8,0:0:0:0:
391,214,86451,5,8,0:3:0:0:
412,231,86525,5,4,0:3:0:0:
424,255,86599,5,0,1:0:0:0:
392,325,86710,1,0,1:0:0:0:
450,374,86821,2,0,L|478:369,1,29.0000008850098,8|0,0:0|0:0,0:0:0:0:
302,350,87043,6,2,B|190:373|28:311|-66:118|-3:-14|94:-81|196:61|200:136|95:314,1,840.000032043458,4|0,1:0|0:0,0:1:0:0:
97,318,88672,2,0,P|90:330|92:315,2,40.000001525879,8|8|0,0:0|0:0|1:0,0:0:0:0:
