osu file format v14

[General]
AudioFilename: audio.mp3
AudioLeadIn: 0
PreviewTime: 49795
Countdown: 0
SampleSet: Normal
StackLeniency: 0.7
Mode: 1
LetterboxInBreaks: 0
WidescreenStoryboard: 1

[Editor]
Bookmarks: 0,2622,13114,23606,28852,34098,39344,44590,49836,60327
DistanceSpacing: 2
BeatDivisor: 8
GridSize: 32
TimelineZoom: 1.350001

[Metadata]
Title:crimson
TitleUnicode:crimson
Artist:Shiriri
ArtistUnicode:しりり
Creator:Miyoi
Version:komasy's kantan
Source:
Tags:Midnaait Reficul komasy gaston_2199 Electronic Instrumental crimson.mp4
BeatmapID:2400752
BeatmapSetID:632360

[Difficulty]
HPDrainRate:8
CircleSize:5
OverallDifficulty:3
ApproachRate:5
SliderMultiplier:1.4
SliderTickRate:1

[Events]
//Background and Video events
0,0,"aaaaf.jpg",0,-95
//Break Periods
//Storyboard Layer 0 (Background)
//Storyboard Layer 1 (Fail)
//Storyboard Layer 2 (Pass)
//Storyboard Layer 3 (Foreground)
//Storyboard Layer 4 (Overlay)
//Storyboard Sound Samples

[TimingPoints]
0,327.868852459016,4,1,0,90,1,0
49836,-100,4,1,0,90,0,1
70491,-100,4,1,0,90,0,0

[HitObjects]
160,96,0,5,0,0:0:0:0:
160,96,655,1,0,0:0:0:0:
160,96,983,1,0,0:0:0:0:
352,96,1311,1,8,0:0:0:0:
352,96,1803,1,8,0:0:0:0:
352,96,2295,1,8,0:0:0:0:
160,288,2622,1,4,0:0:0:0:
352,96,3606,1,8,0:0:0:0:
160,96,3934,1,0,0:0:0:0:
352,96,4262,1,8,0:0:0:0:
352,96,4918,1,8,0:0:0:0:
160,96,5245,1,0,0:0:0:0:
352,96,5901,1,8,0:0:0:0:
160,96,6557,1,0,0:0:0:0:
352,96,7049,1,8,0:0:0:0:
352,96,7540,1,8,0:0:0:0:
160,288,7868,1,4,0:0:0:0:
352,96,8852,1,8,0:0:0:0:
160,96,9180,1,0,0:0:0:0:
352,96,9508,1,8,0:0:0:0:
352,96,10163,1,8,0:0:0:0:
160,96,10491,1,0,0:0:0:0:
352,96,11147,1,8,0:0:0:0:
352,96,11475,1,8,0:0:0:0:
160,96,11803,1,0,0:0:0:0:
160,96,12295,1,0,0:0:0:0:
352,96,12786,1,8,0:0:0:0:
160,288,13114,1,4,0:0:0:0:
352,96,14098,1,8,0:0:0:0:
160,96,14426,1,0,0:0:0:0:
160,96,14754,1,0,0:0:0:0:
160,96,15409,1,0,0:0:0:0:
352,96,15737,1,8,0:0:0:0:
352,96,16065,1,8,0:0:0:0:
352,96,16721,1,8,0:0:0:0:
160,96,17049,1,0,0:0:0:0:
352,96,17704,1,8,0:0:0:0:
160,96,18360,1,0,0:0:0:0:
352,96,19344,1,8,0:0:0:0:
160,96,19672,1,0,0:0:0:0:
160,96,19999,1,0,0:0:0:0:
160,96,20655,1,0,0:0:0:0:
352,96,20983,1,8,0:0:0:0:
352,96,21311,1,8,0:0:0:0:
352,96,21967,1,8,0:0:0:0:
160,96,22295,1,0,0:0:0:0:
160,96,22950,1,0,0:0:0:0:
352,96,23278,1,8,0:0:0:0:
160,288,23606,1,4,0:0:0:0:
352,96,24590,1,8,0:0:0:0:
160,96,24918,1,0,0:0:0:0:
160,96,25573,1,0,0:0:0:0:
352,96,26229,1,8,0:0:0:0:
352,96,26885,1,8,0:0:0:0:
160,96,27540,1,0,0:0:0:0:
160,96,27868,1,0,0:0:0:0:
352,96,28196,1,8,0:0:0:0:
160,288,28852,1,4,0:0:0:0:
352,96,29836,1,8,0:0:0:0:
160,96,30163,1,0,0:0:0:0:
352,96,30819,1,8,0:0:0:0:
160,96,31475,1,0,0:0:0:0:
352,96,32131,1,8,0:0:0:0:
160,96,32786,1,0,0:0:0:0:
160,96,33114,1,0,0:0:0:0:
352,96,33442,1,8,0:0:0:0:
160,96,33770,1,0,0:0:0:0:
352,96,34098,1,8,0:0:0:0:
160,96,35409,5,0,0:0:0:0:
352,96,36721,1,8,0:0:0:0:
160,96,37377,1,0,0:0:0:0:
352,96,38032,1,8,0:0:0:0:
160,96,38360,1,0,0:0:0:0:
464,246,38688,2,0,L|317:182,1,140
160,288,39344,1,4,0:0:0:0:
352,96,40327,1,8,0:0:0:0:
160,96,40655,1,0,0:0:0:0:
352,96,40983,1,8,0:0:0:0:
352,96,41639,1,8,0:0:0:0:
160,96,41967,1,0,0:0:0:0:
352,96,42622,1,8,0:0:0:0:
160,96,43278,1,0,0:0:0:0:
352,96,43606,1,8,0:0:0:0:
160,96,43934,1,0,0:0:0:0:
352,96,44262,1,8,0:0:0:0:
160,288,44590,1,4,0:0:0:0:
352,96,45573,1,8,0:0:0:0:
352,96,46229,1,8,0:0:0:0:
160,96,46557,1,0,0:0:0:0:
352,96,46885,1,8,0:0:0:0:
160,96,47213,1,0,0:0:0:0:
352,96,47868,1,8,0:0:0:0:
352,96,48196,1,8,0:0:0:0:
160,96,48524,1,0,0:0:0:0:
352,96,49180,1,8,0:0:0:0:
160,288,49836,1,4,0:0:0:0:
352,96,50819,1,8,0:0:0:0:
160,96,51147,1,0,0:0:0:0:
352,96,51803,1,8,0:0:0:0:
160,96,52459,1,0,0:0:0:0:
160,96,52786,1,0,0:0:0:0:
352,96,53114,1,8,0:0:0:0:
352,96,53442,1,8,0:0:0:0:
160,96,53770,1,0,0:0:0:0:
352,96,54426,1,8,0:0:0:0:
160,288,55081,1,4,0:0:0:0:
160,96,56065,1,0,0:0:0:0:
352,96,56393,1,8,0:0:0:0:
160,96,57049,1,0,0:0:0:0:
352,96,57704,1,8,0:0:0:0:
352,96,58032,1,8,0:0:0:0:
160,96,58360,1,0,0:0:0:0:
160,96,58688,1,0,0:0:0:0:
352,96,59016,1,8,0:0:0:0:
352,96,59999,1,8,0:0:0:0:
160,288,60327,1,4,0:0:0:0:
352,96,61311,1,8,0:0:0:0:
160,96,61639,1,0,0:0:0:0:
160,96,61967,1,0,0:0:0:0:
160,96,62622,1,0,0:0:0:0:
352,96,62950,1,8,0:0:0:0:
352,96,63278,1,8,0:0:0:0:
160,96,63606,1,0,0:0:0:0:
352,96,64262,1,8,0:0:0:0:
352,96,64918,1,8,0:0:0:0:
352,96,65245,1,8,0:0:0:0:
160,288,65573,1,4,0:0:0:0:
160,96,66557,1,0,0:0:0:0:
352,96,66885,1,8,0:0:0:0:
352,96,67213,1,8,0:0:0:0:
352,96,67868,1,8,0:0:0:0:
160,96,68196,1,0,0:0:0:0:
160,96,68524,1,0,0:0:0:0:
352,96,68852,1,8,0:0:0:0:
160,96,69508,1,0,0:0:0:0:
352,96,69836,1,8,0:0:0:0:
352,96,70163,1,8,0:0:0:0:
160,288,70491,1,4,0:0:0:0:
