osu file format v14

[General]
AudioFilename: audio.mp3
AudioLeadIn: 0
PreviewTime: 49795
Countdown: 0
SampleSet: Normal
StackLeniency: 0.7
Mode: 1
LetterboxInBreaks: 0
WidescreenStoryboard: 0

[Editor]
DistanceSpacing: 2
BeatDivisor: 4
GridSize: 32
TimelineZoom: 2.350001

[Metadata]
Title:crimson
TitleUnicode:crimson
Artist:Shiriri
ArtistUnicode:しりり
Creator:Miyoi
Version:inner oni
Source:
Tags:Midnaait Reficul komasy gaston_2199 Electronic Instrumental crimson.mp4
BeatmapID:1342339
BeatmapSetID:632360

[Difficulty]
HPDrainRate:6
CircleSize:5
OverallDifficulty:6.6
ApproachRate:5
SliderMultiplier:1.4
SliderTickRate:1

[Events]
//Background and Video events
0,0,"aaaaf.jpg",0,-95
//Break Periods
//Storyboard Layer 0 (Background)
//Storyboard Layer 1 (Fail)
//Storyboard Layer 2 (Pass)
//Storyboard Layer 3 (Foreground)
//Storyboard Layer 4 (Overlay)
//Storyboard Sound Samples

[TimingPoints]
0,327.868852459016,4,1,0,90,1,0
49836,-100,4,1,0,90,0,1
70491,-100,4,1,0,90,0,0

[HitObjects]
224,160,0,5,0,0:0:0:0:
224,160,163,1,8,0:0:0:0:
224,160,327,1,0,0:0:0:0:
224,160,382,1,8,0:0:0:0:
256,160,437,1,8,0:0:0:0:
224,160,491,1,0,0:0:0:0:
224,160,655,1,8,0:0:0:0:
224,160,819,1,8,0:0:0:0:
224,160,983,1,0,0:0:0:0:
224,160,1147,1,8,0:0:0:0:
224,160,1311,1,0,0:0:0:0:
224,160,1475,1,0,0:0:0:0:
224,160,1803,1,0,0:0:0:0:
224,160,2131,1,0,0:0:0:0:
224,160,2213,1,8,0:0:0:0:
224,160,2295,1,8,0:0:0:0:
192,160,2622,1,4,0:0:0:0:
224,160,2786,1,0,0:0:0:0:
224,160,2950,1,8,0:0:0:0:
224,160,3114,1,0,0:0:0:0:
224,160,3196,1,0,0:0:0:0:
224,160,3278,1,8,0:0:0:0:
224,160,3442,1,0,0:0:0:0:
224,160,3606,1,8,0:0:0:0:
224,160,3770,1,8,0:0:0:0:
224,160,3934,1,0,0:0:0:0:
224,160,4016,1,8,0:0:0:0:
224,160,4098,1,0,0:0:0:0:
224,160,4262,1,8,0:0:0:0:
224,160,4426,1,8,0:0:0:0:
224,160,4508,1,0,0:0:0:0:
224,160,4590,1,8,0:0:0:0:
224,160,4672,1,8,0:0:0:0:
224,160,4754,1,0,0:0:0:0:
224,160,4836,1,0,0:0:0:0:
224,160,4918,1,8,0:0:0:0:
224,160,5081,1,0,0:0:0:0:
224,160,5245,1,8,0:0:0:0:
224,160,5409,1,0,0:0:0:0:
224,160,5464,1,0,0:0:0:0:
224,160,5519,1,0,0:0:0:0:
224,160,5573,1,8,0:0:0:0:
224,160,5737,1,8,0:0:0:0:
224,160,5819,1,8,0:0:0:0:
224,160,5901,1,0,0:0:0:0:
224,160,6065,1,8,0:0:0:0:
224,160,6229,1,8,0:0:0:0:
224,160,6311,1,0,0:0:0:0:
224,160,6393,1,0,0:0:0:0:
224,160,6557,1,4,0:0:0:0:
224,160,6803,1,12,0:0:0:0:
224,160,7049,1,12,0:0:0:0:
224,160,7377,1,0,0:0:0:0:
224,160,7540,1,8,0:0:0:0:
224,160,7704,1,0,0:0:0:0:
224,160,7786,1,0,0:0:0:0:
224,160,7868,1,8,0:0:0:0:
224,160,8032,1,8,0:0:0:0:
224,160,8196,1,0,0:0:0:0:
224,160,8360,1,0,0:0:0:0:
207,159,8442,1,0,0:0:0:0:
224,160,8524,1,8,0:0:0:0:
224,160,8688,1,0,0:0:0:0:
224,160,8852,1,8,0:0:0:0:
224,160,9016,1,8,0:0:0:0:
224,160,9180,1,0,0:0:0:0:
224,160,9262,1,8,0:0:0:0:
224,160,9344,1,0,0:0:0:0:
224,160,9508,1,8,0:0:0:0:
224,160,9672,1,8,0:0:0:0:
224,160,9754,1,8,0:0:0:0:
224,160,9836,1,0,0:0:0:0:
224,160,9918,1,8,0:0:0:0:
224,160,9999,1,0,0:0:0:0:
224,160,10054,1,0,0:0:0:0:
224,160,10109,1,0,0:0:0:0:
224,160,10163,1,8,0:0:0:0:
224,160,10327,1,0,0:0:0:0:
224,160,10491,1,8,0:0:0:0:
224,160,10655,1,0,0:0:0:0:
224,160,10737,1,8,0:0:0:0:
224,160,10819,1,0,0:0:0:0:
224,160,10983,1,0,0:0:0:0:
224,160,11147,1,8,0:0:0:0:
224,160,11229,1,8,0:0:0:0:
224,160,11311,1,0,0:0:0:0:
224,160,11475,1,8,0:0:0:0:
224,160,11639,1,0,0:0:0:0:
224,160,11803,1,0,0:0:0:0:
224,160,11967,1,0,0:0:0:0:
224,160,12049,1,0,0:0:0:0:
224,160,12131,1,8,0:0:0:0:
224,160,12213,1,0,0:0:0:0:
224,160,12295,1,0,0:0:0:0:
224,160,12459,1,0,0:0:0:0:
224,160,12622,1,0,0:0:0:0:
224,160,12704,1,0,0:0:0:0:
224,160,12786,1,8,0:0:0:0:
224,160,13114,1,0,0:0:0:0:
224,160,13196,1,0,0:0:0:0:
224,160,13278,1,8,0:0:0:0:
224,160,13360,1,0,0:0:0:0:
224,160,13442,1,8,0:0:0:0:
224,160,13524,1,8,0:0:0:0:
224,160,13606,1,0,0:0:0:0:
224,160,13688,1,0,0:0:0:0:
224,160,13770,1,8,0:0:0:0:
224,160,13852,1,0,0:0:0:0:
224,160,13934,1,8,0:0:0:0:
224,160,14016,1,8,0:0:0:0:
224,160,14098,1,0,0:0:0:0:
224,160,14180,1,0,0:0:0:0:
224,160,14262,1,8,0:0:0:0:
224,160,14426,1,0,0:0:0:0:
224,160,14508,1,8,0:0:0:0:
224,160,14590,1,8,0:0:0:0:
224,160,14672,1,0,0:0:0:0:
224,160,14754,1,8,0:0:0:0:
224,160,14836,1,0,0:0:0:0:
224,160,14918,1,0,0:0:0:0:
224,160,14999,1,8,0:0:0:0:
224,160,15081,1,8,0:0:0:0:
224,160,15163,1,0,0:0:0:0:
224,160,15245,1,8,0:0:0:0:
224,160,15327,1,0,0:0:0:0:
224,160,15409,1,8,0:0:0:0:
224,160,15491,1,8,0:0:0:0:
224,160,15573,1,0,0:0:0:0:
224,160,15655,1,8,0:0:0:0:
224,160,15737,1,0,0:0:0:0:
224,160,15819,1,8,0:0:0:0:
224,160,15901,1,8,0:0:0:0:
224,160,15983,1,8,0:0:0:0:
224,160,16065,1,0,0:0:0:0:
224,160,16147,1,8,0:0:0:0:
224,160,16229,1,0,0:0:0:0:
224,160,16311,1,8,0:0:0:0:
224,160,16393,1,8,0:0:0:0:
224,160,16475,1,8,0:0:0:0:
224,160,16557,1,0,0:0:0:0:
224,160,16639,1,0,0:0:0:0:
224,160,16721,1,8,0:0:0:0:
224,160,16803,1,8,0:0:0:0:
224,160,16885,1,0,0:0:0:0:
224,160,16967,1,8,0:0:0:0:
224,160,17049,1,0,0:0:0:0:
224,160,17131,1,8,0:0:0:0:
224,160,17213,1,8,0:0:0:0:
224,160,17295,1,8,0:0:0:0:
224,160,17377,1,0,0:0:0:0:
224,160,17459,1,8,0:0:0:0:
224,160,17540,1,0,0:0:0:0:
224,160,17622,1,0,0:0:0:0:
224,160,17704,1,8,0:0:0:0:
224,160,17868,1,8,0:0:0:0:
224,160,17923,1,0,0:0:0:0:
224,160,17978,1,0,0:0:0:0:
224,160,18032,1,8,0:0:0:0:
224,160,18114,1,8,0:0:0:0:
224,160,18196,1,0,0:0:0:0:
224,160,18278,1,8,0:0:0:0:
224,160,18360,1,0,0:0:0:0:
224,160,18442,1,0,0:0:0:0:
224,160,18524,1,8,0:0:0:0:
224,160,18606,1,0,0:0:0:0:
224,160,18688,1,8,0:0:0:0:
224,160,18770,1,8,0:0:0:0:
224,160,18852,1,0,0:0:0:0:
224,160,18934,1,0,0:0:0:0:
224,160,19016,1,8,0:0:0:0:
224,160,19098,1,0,0:0:0:0:
224,160,19180,1,8,0:0:0:0:
224,160,19262,1,8,0:0:0:0:
224,160,19344,1,0,0:0:0:0:
224,160,19426,1,0,0:0:0:0:
224,160,19508,1,8,0:0:0:0:
224,160,19672,1,0,0:0:0:0:
224,160,19754,1,8,0:0:0:0:
224,160,19836,1,8,0:0:0:0:
224,160,19918,1,0,0:0:0:0:
224,160,19999,1,8,0:0:0:0:
224,160,20081,1,0,0:0:0:0:
224,160,20163,1,0,0:0:0:0:
224,160,20245,1,8,0:0:0:0:
224,160,20327,1,8,0:0:0:0:
224,160,20409,1,0,0:0:0:0:
224,160,20491,1,8,0:0:0:0:
224,160,20573,1,0,0:0:0:0:
224,160,20655,1,8,0:0:0:0:
224,160,20737,1,8,0:0:0:0:
224,160,20819,1,0,0:0:0:0:
224,160,20901,1,8,0:0:0:0:
224,160,20983,1,0,0:0:0:0:
224,160,21065,1,8,0:0:0:0:
224,160,21147,1,8,0:0:0:0:
224,160,21229,1,8,0:0:0:0:
224,160,21311,1,0,0:0:0:0:
224,160,21393,1,8,0:0:0:0:
224,160,21475,1,0,0:0:0:0:
224,160,21557,1,8,0:0:0:0:
224,160,21639,1,8,0:0:0:0:
224,160,21721,1,8,0:0:0:0:
224,160,21803,1,0,0:0:0:0:
224,160,21885,1,0,0:0:0:0:
224,160,21967,1,8,0:0:0:0:
224,160,22049,1,8,0:0:0:0:
224,160,22131,1,0,0:0:0:0:
224,160,22213,1,8,0:0:0:0:
224,160,22295,1,0,0:0:0:0:
224,160,22377,1,0,0:0:0:0:
224,160,22459,1,8,0:0:0:0:
224,160,22540,1,0,0:0:0:0:
224,160,22622,1,8,0:0:0:0:
224,160,22704,1,8,0:0:0:0:
224,160,22786,1,0,0:0:0:0:
224,160,22868,1,8,0:0:0:0:
224,160,22950,1,0,0:0:0:0:
224,160,23278,1,8,0:0:0:0:
224,160,23442,1,8,0:0:0:0:
224,160,23524,1,8,0:0:0:0:
224,160,23606,1,0,0:0:0:0:
224,160,23770,1,0,0:0:0:0:
224,160,23852,1,8,0:0:0:0:
224,160,23934,1,0,0:0:0:0:
224,160,24098,1,0,0:0:0:0:
224,160,24180,1,8,0:0:0:0:
224,160,24344,1,8,0:0:0:0:
224,160,24426,1,0,0:0:0:0:
224,160,24590,1,8,0:0:0:0:
224,160,24672,1,0,0:0:0:0:
224,160,24754,1,8,0:0:0:0:
224,160,24808,1,8,0:0:0:0:
224,160,24863,1,8,0:0:0:0:
224,160,24918,1,0,0:0:0:0:
224,160,24999,1,8,0:0:0:0:
224,160,25081,1,0,0:0:0:0:
192,96,25245,1,8,0:0:0:0:
192,96,25327,1,0,0:0:0:0:
192,96,25409,1,0,0:0:0:0:
192,96,25573,1,8,0:0:0:0:
192,96,25655,1,8,0:0:0:0:
192,96,25737,1,0,0:0:0:0:
192,96,25819,1,8,0:0:0:0:
192,96,25901,1,0,0:0:0:0:
192,96,25983,1,0,0:0:0:0:
192,96,26065,1,8,0:0:0:0:
192,96,26147,1,8,0:0:0:0:
192,96,26229,1,0,0:0:0:0:
192,96,26393,1,0,0:0:0:0:
192,96,26475,1,8,0:0:0:0:
192,96,26557,1,0,0:0:0:0:
192,96,26721,1,0,0:0:0:0:
192,96,26803,1,8,0:0:0:0:
192,96,26967,1,8,0:0:0:0:
192,96,27049,1,0,0:0:0:0:
192,96,27213,1,8,0:0:0:0:
224,96,27295,1,0,0:0:0:0:
224,96,27377,1,8,0:0:0:0:
224,128,27431,1,8,0:0:0:0:
224,96,27486,1,8,0:0:0:0:
224,96,27540,1,0,0:0:0:0:
224,96,27622,1,8,0:0:0:0:
224,96,27704,1,0,0:0:0:0:
224,64,27868,1,8,0:0:0:0:
224,64,27950,1,8,0:0:0:0:
224,64,28032,1,0,0:0:0:0:
224,64,28114,1,0,0:0:0:0:
224,64,28196,1,8,0:0:0:0:
224,64,28278,1,0,0:0:0:0:
224,64,28360,1,8,0:0:0:0:
224,64,28442,1,8,0:0:0:0:
224,64,28524,1,0,0:0:0:0:
224,64,28606,1,8,0:0:0:0:
224,64,28688,1,8,0:0:0:0:
224,64,28770,1,8,0:0:0:0:
224,64,28852,1,0,0:0:0:0:
224,160,29016,1,0,0:0:0:0:
224,160,29098,1,8,0:0:0:0:
224,160,29180,1,0,0:0:0:0:
192,160,29262,1,0,0:0:0:0:
224,160,29344,1,8,0:0:0:0:
224,160,29426,1,8,0:0:0:0:
224,160,29590,1,8,0:0:0:0:
224,160,29672,1,0,0:0:0:0:
224,160,29836,1,8,0:0:0:0:
224,160,29918,1,8,0:0:0:0:
224,160,29999,1,0,0:0:0:0:
224,160,30081,1,0,0:0:0:0:
224,160,30163,1,0,0:0:0:0:
224,160,30245,1,8,0:0:0:0:
224,160,30327,1,0,0:0:0:0:
192,96,30491,1,8,0:0:0:0:
192,96,30573,1,0,0:0:0:0:
192,96,30655,1,0,0:0:0:0:
192,96,30819,1,8,0:0:0:0:
192,96,30901,1,0,0:0:0:0:
192,96,30983,1,0,0:0:0:0:
192,96,31065,1,8,0:0:0:0:
192,96,31147,1,0,0:0:0:0:
192,96,31229,1,0,0:0:0:0:
192,96,31311,1,8,0:0:0:0:
192,96,31393,1,8,0:0:0:0:
192,96,31475,1,0,0:0:0:0:
192,96,31639,1,0,0:0:0:0:
192,96,31721,1,8,0:0:0:0:
192,96,31803,1,0,0:0:0:0:
224,160,31885,1,0,0:0:0:0:
192,96,31967,1,8,0:0:0:0:
192,96,32049,1,8,0:0:0:0:
192,96,32213,1,8,0:0:0:0:
192,96,32295,1,0,0:0:0:0:
192,96,32459,1,8,0:0:0:0:
224,96,32540,1,8,0:0:0:0:
224,96,32622,1,0,0:0:0:0:
224,96,32704,1,0,0:0:0:0:
224,96,32786,1,8,0:0:0:0:
224,160,32950,1,0,0:0:0:0:
224,160,33114,1,8,0:0:0:0:
224,160,33196,1,8,0:0:0:0:
224,160,33278,1,0,0:0:0:0:
224,160,33360,1,0,0:0:0:0:
224,160,33442,1,8,0:0:0:0:
224,160,33497,1,8,0:0:0:0:
224,160,33551,1,8,0:0:0:0:
224,160,33606,1,0,0:0:0:0:
224,160,33688,1,0,0:0:0:0:
224,160,33770,1,8,0:0:0:0:
224,160,33825,1,8,0:0:0:0:
224,160,33879,1,8,0:0:0:0:
224,160,33934,1,0,0:0:0:0:
224,160,34016,1,0,0:0:0:0:
224,160,34098,1,8,0:0:0:0:
224,160,35409,1,0,0:0:0:0:
224,160,36721,1,8,0:0:0:0:
224,160,37377,1,0,0:0:0:0:
224,160,38032,1,8,0:0:0:0:
224,160,38360,1,0,0:0:0:0:
224,160,38688,1,0,0:0:0:0:
224,160,38729,1,8,0:0:0:0:
224,160,38770,1,0,0:0:0:0:
224,160,38811,1,8,0:0:0:0:
224,160,38852,1,0,0:0:0:0:
224,160,38893,1,8,0:0:0:0:
224,160,38934,1,0,0:0:0:0:
224,160,38975,1,8,0:0:0:0:
224,160,39016,1,0,0:0:0:0:
224,160,39057,1,8,0:0:0:0:
224,160,39098,1,0,0:0:0:0:
224,160,39139,1,8,0:0:0:0:
224,160,39180,1,0,0:0:0:0:
224,160,39221,1,8,0:0:0:0:
224,160,39262,1,0,0:0:0:0:
224,160,39303,1,8,0:0:0:0:
224,160,39344,1,0,0:0:0:0:
224,160,39508,1,0,0:0:0:0:
224,160,39672,1,8,0:0:0:0:
224,160,39754,1,0,0:0:0:0:
224,160,39836,1,8,0:0:0:0:
224,160,39918,1,8,0:0:0:0:
224,160,39999,1,0,0:0:0:0:
224,160,40081,1,0,0:0:0:0:
224,160,40163,1,0,0:0:0:0:
224,160,40327,1,8,0:0:0:0:
224,160,40491,1,8,0:0:0:0:
224,160,40655,1,0,0:0:0:0:
224,160,40737,1,8,0:0:0:0:
224,160,40819,1,0,0:0:0:0:
224,160,40983,1,8,0:0:0:0:
224,160,41147,1,0,0:0:0:0:
224,128,41229,1,8,0:0:0:0:
224,160,41311,1,0,0:0:0:0:
224,128,41393,1,0,0:0:0:0:
224,160,41475,1,0,0:0:0:0:
224,160,41639,1,8,0:0:0:0:
224,128,41803,1,0,0:0:0:0:
224,160,41885,1,0,0:0:0:0:
224,160,41967,1,8,0:0:0:0:
224,160,42131,1,0,0:0:0:0:
224,160,42213,1,0,0:0:0:0:
224,160,42295,1,8,0:0:0:0:
224,160,42377,1,0,0:0:0:0:
224,160,42459,1,8,0:0:0:0:
224,160,42540,1,8,0:0:0:0:
224,160,42622,1,0,0:0:0:0:
224,160,42786,1,0,0:0:0:0:
224,160,42950,1,8,0:0:0:0:
224,160,43114,1,8,0:0:0:0:
224,160,43278,1,0,0:0:0:0:
224,192,43360,1,8,0:0:0:0:
224,160,43442,1,0,0:0:0:0:
224,160,43606,1,8,0:0:0:0:
224,160,43770,1,0,0:0:0:0:
224,160,43825,1,0,0:0:0:0:
224,160,43879,1,0,0:0:0:0:
224,160,43934,1,0,0:0:0:0:
224,160,44098,1,0,0:0:0:0:
224,160,44262,1,8,0:0:0:0:
224,160,44426,1,0,0:0:0:0:
224,160,44508,1,0,0:0:0:0:
224,160,44590,1,8,0:0:0:0:
224,128,44754,1,0,0:0:0:0:
224,128,44918,1,8,0:0:0:0:
224,128,45081,1,0,0:0:0:0:
224,128,45163,1,8,0:0:0:0:
224,128,45245,1,0,0:0:0:0:
224,128,45409,1,0,0:0:0:0:
224,128,45573,1,8,0:0:0:0:
224,128,45737,1,8,0:0:0:0:
224,160,45901,1,0,0:0:0:0:
224,160,45983,1,8,0:0:0:0:
224,128,46065,1,0,0:0:0:0:
224,160,46229,1,8,0:0:0:0:
224,160,46311,1,8,0:0:0:0:
224,160,46393,1,0,0:0:0:0:
224,160,46475,1,0,0:0:0:0:
224,160,46557,1,8,0:0:0:0:
224,160,46721,1,0,0:0:0:0:
224,160,46775,1,8,0:0:0:0:
224,160,46830,1,8,0:0:0:0:
224,160,46885,1,0,0:0:0:0:
224,160,47049,1,0,0:0:0:0:
224,160,47131,1,0,0:0:0:0:
224,160,47213,1,8,0:0:0:0:
160,128,47377,1,0,0:0:0:0:
160,128,47540,1,8,0:0:0:0:
160,128,47704,1,0,0:0:0:0:
192,128,47786,1,8,0:0:0:0:
160,128,47868,1,0,0:0:0:0:
160,128,48032,1,8,0:0:0:0:
192,128,48114,1,0,0:0:0:0:
160,128,48196,1,8,0:0:0:0:
192,128,48278,1,8,0:0:0:0:
160,128,48360,1,0,0:0:0:0:
160,128,48524,1,0,0:0:0:0:
160,128,48606,1,8,0:0:0:0:
160,128,48688,1,0,0:0:0:0:
160,128,48852,1,8,0:0:0:0:
160,143,49016,1,0,0:0:0:0:
160,128,49180,1,0,0:0:0:0:
154,138,49262,1,8,0:0:0:0:
160,128,49344,1,0,0:0:0:0:
160,128,49426,1,0,0:0:0:0:
160,128,49508,1,8,0:0:0:0:
160,128,49672,1,0,0:0:0:0:
160,128,49754,1,0,0:0:0:0:
160,128,49836,1,0,0:0:0:0:
160,128,49999,1,0,0:0:0:0:
160,128,50081,1,0,0:0:0:0:
160,128,50163,1,8,0:0:0:0:
160,128,50327,1,0,0:0:0:0:
160,128,50409,1,0,0:0:0:0:
160,128,50491,1,8,0:0:0:0:
160,128,50573,1,8,0:0:0:0:
128,128,50737,1,0,0:0:0:0:
174,141,50819,1,8,0:0:0:0:
160,128,50983,1,0,0:0:0:0:
160,128,51147,1,0,0:0:0:0:
160,128,51229,1,8,0:0:0:0:
160,128,51311,1,0,0:0:0:0:
160,128,51393,1,0,0:0:0:0:
160,128,51475,1,8,0:0:0:0:
160,128,51639,1,8,0:0:0:0:
160,128,51721,1,8,0:0:0:0:
160,128,51803,1,0,0:0:0:0:
160,128,51885,1,8,0:0:0:0:
160,128,51967,1,0,0:0:0:0:
160,128,52049,1,0,0:0:0:0:
160,128,52131,1,8,0:0:0:0:
160,128,52295,1,8,0:0:0:0:
160,128,52459,1,0,0:0:0:0:
160,128,52622,1,8,0:0:0:0:
160,128,52704,1,8,0:0:0:0:
160,128,52786,1,0,0:0:0:0:
160,128,52950,1,8,0:0:0:0:
160,128,53032,1,8,0:0:0:0:
160,128,53114,1,0,0:0:0:0:
160,128,53196,1,0,0:0:0:0:
160,128,53360,1,8,0:0:0:0:
177,129,53442,1,0,0:0:0:0:
160,128,53606,1,8,0:0:0:0:
160,128,53688,1,0,0:0:0:0:
160,128,53770,1,8,0:0:0:0:
160,128,53852,1,8,0:0:0:0:
160,128,54016,1,8,0:0:0:0:
160,128,54180,1,8,0:0:0:0:
160,128,54262,1,0,0:0:0:0:
160,128,54426,1,8,0:0:0:0:
224,160,54590,1,0,0:0:0:0:
224,160,54644,1,0,0:0:0:0:
224,160,54699,1,0,0:0:0:0:
224,160,54754,1,8,0:0:0:0:
160,128,54836,1,8,0:0:0:0:
160,128,54918,1,0,0:0:0:0:
160,128,55081,1,8,0:0:0:0:
160,128,55245,1,0,0:0:0:0:
160,128,55327,1,0,0:0:0:0:
160,128,55409,1,8,0:0:0:0:
160,128,55573,1,0,0:0:0:0:
160,128,55655,1,0,0:0:0:0:
160,128,55737,1,8,0:0:0:0:
160,128,55819,1,8,0:0:0:0:
128,128,55983,1,0,0:0:0:0:
126,139,56065,1,8,0:0:0:0:
160,128,56229,1,0,0:0:0:0:
160,128,56393,1,8,0:0:0:0:
160,128,56557,1,0,0:0:0:0:
160,128,56639,1,8,0:0:0:0:
160,128,56721,1,8,0:0:0:0:
160,128,56885,1,8,0:0:0:0:
160,128,56967,1,0,0:0:0:0:
160,128,57049,1,0,0:0:0:0:
160,128,57131,1,8,0:0:0:0:
160,128,57213,1,0,0:0:0:0:
160,128,57295,1,0,0:0:0:0:
160,128,57377,1,8,0:0:0:0:
160,128,57431,1,8,0:0:0:0:
160,128,57486,1,8,0:0:0:0:
160,128,57540,1,0,0:0:0:0:
160,128,57704,1,0,0:0:0:0:
160,128,57868,1,8,0:0:0:0:
160,128,57950,1,8,0:0:0:0:
160,128,58032,1,0,0:0:0:0:
160,128,58196,1,8,0:0:0:0:
160,128,58278,1,8,0:0:0:0:
160,128,58360,1,0,0:0:0:0:
160,128,58442,1,0,0:0:0:0:
160,128,58606,1,8,0:0:0:0:
160,128,58688,1,0,0:0:0:0:
160,128,58852,1,8,0:0:0:0:
160,128,59016,1,8,0:0:0:0:
128,128,59098,1,0,0:0:0:0:
160,128,59262,1,0,0:0:0:0:
234,155,59344,1,8,0:0:0:0:
160,128,59426,1,0,0:0:0:0:
160,128,59508,1,8,0:0:0:0:
160,128,59590,1,8,0:0:0:0:
160,128,59672,1,0,0:0:0:0:
224,160,59836,1,0,0:0:0:0:
160,128,59918,1,0,0:0:0:0:
224,160,59999,1,8,0:0:0:0:
192,128,60081,1,8,0:0:0:0:
160,128,60163,1,0,0:0:0:0:
160,128,60327,1,8,0:0:0:0:
160,128,60491,1,0,0:0:0:0:
160,128,60573,1,0,0:0:0:0:
160,128,60655,1,8,0:0:0:0:
160,128,60819,1,0,0:0:0:0:
160,128,60901,1,0,0:0:0:0:
160,128,60983,1,8,0:0:0:0:
160,128,61065,1,8,0:0:0:0:
128,128,61229,1,8,0:0:0:0:
160,128,61311,1,0,0:0:0:0:
160,128,61475,1,0,0:0:0:0:
160,128,61639,1,8,0:0:0:0:
160,128,61721,1,8,0:0:0:0:
160,128,61803,1,8,0:0:0:0:
160,128,61885,1,0,0:0:0:0:
160,128,61967,1,8,0:0:0:0:
160,128,62131,1,8,0:0:0:0:
160,128,62213,1,8,0:0:0:0:
160,128,62295,1,0,0:0:0:0:
160,128,62377,1,8,0:0:0:0:
160,128,62459,1,0,0:0:0:0:
160,128,62540,1,0,0:0:0:0:
160,128,62622,1,8,0:0:0:0:
160,128,62786,1,8,0:0:0:0:
160,128,62950,1,0,0:0:0:0:
160,128,63114,1,8,0:0:0:0:
160,128,63196,1,8,0:0:0:0:
160,128,63278,1,0,0:0:0:0:
160,128,63442,1,8,0:0:0:0:
160,128,63524,1,8,0:0:0:0:
160,128,63606,1,0,0:0:0:0:
160,128,63688,1,0,0:0:0:0:
160,128,63852,1,0,0:0:0:0:
160,128,63934,1,8,0:0:0:0:
160,128,64098,1,8,0:0:0:0:
160,128,64180,1,0,0:0:0:0:
160,128,64262,1,8,0:0:0:0:
160,128,64344,1,8,0:0:0:0:
160,128,64508,1,8,0:0:0:0:
160,128,64672,1,8,0:0:0:0:
160,128,64754,1,0,0:0:0:0:
160,128,64918,1,8,0:0:0:0:
224,160,65081,1,0,0:0:0:0:
224,160,65136,1,0,0:0:0:0:
224,160,65191,1,0,0:0:0:0:
224,160,65245,1,8,0:0:0:0:
160,128,65327,1,8,0:0:0:0:
160,128,65409,1,0,0:0:0:0:
160,128,65573,1,8,0:0:0:0:
160,128,65737,1,0,0:0:0:0:
160,128,65819,1,0,0:0:0:0:
160,128,65901,1,8,0:0:0:0:
160,128,66065,1,0,0:0:0:0:
160,128,66147,1,0,0:0:0:0:
160,128,66229,1,8,0:0:0:0:
160,128,66311,1,8,0:0:0:0:
128,128,66475,1,0,0:0:0:0:
161,134,66557,1,8,0:0:0:0:
160,128,66721,1,0,0:0:0:0:
160,128,66885,1,8,0:0:0:0:
160,128,67049,1,8,0:0:0:0:
160,128,67131,1,8,0:0:0:0:
160,128,67213,1,8,0:0:0:0:
160,128,67377,1,8,0:0:0:0:
160,128,67459,1,8,0:0:0:0:
160,128,67540,1,0,0:0:0:0:
160,128,67622,1,8,0:0:0:0:
160,128,67704,1,8,0:0:0:0:
160,128,67786,1,0,0:0:0:0:
160,128,67868,1,8,0:0:0:0:
160,128,67923,1,8,0:0:0:0:
160,128,67978,1,8,0:0:0:0:
160,128,68032,1,0,0:0:0:0:
160,128,68114,1,0,0:0:0:0:
160,128,68196,1,8,0:0:0:0:
160,128,68360,1,8,0:0:0:0:
192,128,68442,1,8,0:0:0:0:
160,128,68524,1,0,0:0:0:0:
160,128,68688,1,0,0:0:0:0:
160,128,68770,1,8,0:0:0:0:
160,128,68852,1,8,0:0:0:0:
160,128,68934,1,0,0:0:0:0:
160,128,69098,1,8,0:0:0:0:
160,128,69180,1,0,0:0:0:0:
160,128,69262,1,0,0:0:0:0:
160,128,69344,1,8,0:0:0:0:
256,192,69508,1,8,0:0:0:0:
256,192,69590,1,0,0:0:0:0:
256,192,69754,1,8,0:0:0:0:
256,192,69918,1,0,0:0:0:0:
256,192,70081,1,0,0:0:0:0:
256,192,70163,1,8,0:0:0:0:
179,145,70327,1,8,0:0:0:0:
256,192,70491,1,4,0:0:0:0:
