osu file format v14

[General]
AudioFilename: audio.mp3
AudioLeadIn: 0
PreviewTime: 49795
Countdown: 0
SampleSet: Normal
StackLeniency: 0.7
Mode: 1
LetterboxInBreaks: 0
WidescreenStoryboard: 1

[Editor]
Bookmarks: 0,2622,7868,13114,18360,23606,28852,34098,39344,44590,49836,55081,60327,65573
DistanceSpacing: 2
BeatDivisor: 4
GridSize: 32
TimelineZoom: 2.350001

[Metadata]
Title:crimson
TitleUnicode:crimson
Artist:Shiriri
ArtistUnicode:しりり
Creator:Miyoi
Version:2199's oni
Source:
Tags:Midnaait Reficul komasy gaston_2199 Electronic Instrumental crimson.mp4
BeatmapID:2416036
BeatmapSetID:632360

[Difficulty]
HPDrainRate:5
CircleSize:2
OverallDifficulty:6
ApproachRate:10
SliderMultiplier:1.4
SliderTickRate:1

[Events]
//Background and Video events
0,0,"aaaaf.jpg",0,-95
//Break Periods
//Storyboard Layer 0 (Background)
//Storyboard Layer 1 (Fail)
//Storyboard Layer 2 (Pass)
//Storyboard Layer 3 (Foreground)
//Storyboard Layer 4 (Overlay)
//Storyboard Sound Samples

[TimingPoints]
0,327.868852459016,4,1,0,90,1,0
49836,-100,4,1,0,90,0,1
70491,-100,4,1,0,90,0,0

[HitObjects]
224,160,0,5,0,0:0:0:0:
224,160,163,1,8,0:0:0:0:
224,160,327,1,0,0:0:0:0:
256,160,409,1,8,0:0:0:0:
224,160,491,1,0,0:0:0:0:
224,160,655,1,0,0:0:0:0:
224,160,819,1,8,0:0:0:0:
224,160,983,1,0,0:0:0:0:
224,160,1147,1,0,0:0:0:0:
224,160,1311,1,8,0:0:0:0:
224,160,1475,1,8,0:0:0:0:
224,160,1803,1,8,0:0:0:0:
224,160,2131,1,0,0:0:0:0:
224,160,2213,1,0,0:0:0:0:
224,160,2295,1,8,0:0:0:0:
192,160,2622,1,4,0:0:0:0:
224,160,2950,1,8,0:0:0:0:
224,160,3114,1,0,0:0:0:0:
224,160,3196,1,0,0:0:0:0:
224,160,3278,1,8,0:0:0:0:
224,160,3442,1,0,0:0:0:0:
224,160,3606,1,8,0:0:0:0:
224,160,3770,1,0,0:0:0:0:
224,160,3934,1,0,0:0:0:0:
257,37,4016,1,8,0:0:0:0:
143,133,4098,1,0,0:0:0:0:
224,160,4262,1,8,0:0:0:0:
224,160,4426,1,0,0:0:0:0:
224,160,4508,1,0,0:0:0:0:
224,160,4590,1,0,0:0:0:0:
224,160,4672,1,8,0:0:0:0:
224,160,4754,1,0,0:0:0:0:
224,160,4918,1,8,0:0:0:0:
224,160,5081,1,0,0:0:0:0:
224,160,5245,1,8,0:0:0:0:
224,35,5491,1,0,0:0:0:0:
224,160,5573,1,8,0:0:0:0:
224,160,5737,1,8,0:0:0:0:
224,160,5901,1,0,0:0:0:0:
224,160,6065,1,8,0:0:0:0:
224,160,6229,1,8,0:0:0:0:
224,160,6311,1,0,0:0:0:0:
224,160,6393,1,8,0:0:0:0:
224,160,6557,1,0,0:0:0:0:
224,160,6803,1,8,0:0:0:0:
220,16,6967,1,0,0:0:0:0:
224,160,7049,1,8,0:0:0:0:
224,160,7377,1,8,0:0:0:0:
224,160,7540,1,0,0:0:0:0:
157,39,7622,1,0,0:0:0:0:
224,160,7704,1,8,0:0:0:0:
224,160,7868,1,4,0:0:0:0:
224,160,8196,1,8,0:0:0:0:
224,160,8360,1,0,0:0:0:0:
193,64,8442,1,0,0:0:0:0:
224,160,8524,1,8,0:0:0:0:
224,160,8688,1,0,0:0:0:0:
224,160,8852,1,8,0:0:0:0:
224,160,9016,1,8,0:0:0:0:
224,160,9180,1,0,0:0:0:0:
224,160,9262,1,8,0:0:0:0:
118,43,9344,1,0,0:0:0:0:
224,160,9508,1,8,0:0:0:0:
224,160,9672,1,8,0:0:0:0:
224,160,9754,1,8,0:0:0:0:
224,160,9836,1,0,0:0:0:0:
224,160,9918,1,0,0:0:0:0:
224,160,9999,1,0,0:0:0:0:
224,160,10163,1,8,0:0:0:0:
224,160,10327,1,0,0:0:0:0:
224,160,10491,1,8,0:0:0:0:
231,29,10737,1,0,0:0:0:0:
224,160,10819,1,8,0:0:0:0:
224,160,10983,1,0,0:0:0:0:
224,160,11147,1,8,0:0:0:0:
224,160,11311,1,0,0:0:0:0:
224,160,11393,1,0,0:0:0:0:
224,160,11475,1,8,0:0:0:0:
224,160,11639,1,8,0:0:0:0:
224,160,11803,1,0,0:0:0:0:
224,160,11967,1,0,0:0:0:0:
224,160,12049,1,8,0:0:0:0:
224,160,12213,1,0,0:0:0:0:
224,160,12295,1,0,0:0:0:0:
224,160,12622,1,8,0:0:0:0:
196,29,12786,1,0,0:0:0:0:
181,6,12868,1,0,0:0:0:0:
209,32,12950,1,8,0:0:0:0:
224,160,13114,1,4,0:0:0:0:
220,25,13360,1,0,0:0:0:0:
224,160,13442,1,8,0:0:0:0:
262,29,13606,1,0,0:0:0:0:
224,160,13770,1,0,0:0:0:0:
262,29,13852,1,0,0:0:0:0:
224,160,13934,1,8,0:0:0:0:
224,160,14098,1,8,0:0:0:0:
183,62,14262,1,0,0:0:0:0:
224,160,14426,1,8,0:0:0:0:
224,160,14590,1,8,0:0:0:0:
224,160,14672,1,0,0:0:0:0:
224,160,14754,1,8,0:0:0:0:
224,160,14918,1,0,0:0:0:0:
184,27,14999,1,0,0:0:0:0:
224,160,15081,1,8,0:0:0:0:
224,160,15163,1,0,0:0:0:0:
224,160,15245,1,0,0:0:0:0:
224,160,15409,1,8,0:0:0:0:
224,160,15737,1,8,0:0:0:0:
224,160,15819,1,8,0:0:0:0:
224,160,15901,1,0,0:0:0:0:
224,160,16065,1,8,0:0:0:0:
224,160,16229,1,8,0:0:0:0:
240,42,16311,1,8,0:0:0:0:
224,160,16393,1,0,0:0:0:0:
197,1,16475,1,8,0:0:0:0:
224,160,16557,1,0,0:0:0:0:
224,160,16721,1,8,0:0:0:0:
224,160,16885,1,0,0:0:0:0:
224,160,17049,1,8,0:0:0:0:
182,28,17131,1,0,0:0:0:0:
224,160,17213,1,0,0:0:0:0:
229,8,17295,1,0,0:0:0:0:
224,160,17377,1,8,0:0:0:0:
224,160,17540,1,0,0:0:0:0:
224,160,17622,1,0,0:0:0:0:
224,160,17704,1,8,0:0:0:0:
224,160,17868,1,0,0:0:0:0:
224,160,18032,1,8,0:0:0:0:
224,160,18196,1,8,0:0:0:0:
224,160,18360,1,4,0:0:0:0:
224,160,18606,1,0,0:0:0:0:
224,160,18688,1,8,0:0:0:0:
224,160,18852,1,0,0:0:0:0:
224,160,19016,1,0,0:0:0:0:
224,160,19098,1,0,0:0:0:0:
224,160,19180,1,8,0:0:0:0:
224,160,19344,1,8,0:0:0:0:
224,160,19508,1,0,0:0:0:0:
224,160,19672,1,8,0:0:0:0:
224,160,19754,1,0,0:0:0:0:
224,160,19836,1,8,0:0:0:0:
224,160,19999,1,8,0:0:0:0:
224,160,20163,1,0,0:0:0:0:
224,160,20245,1,0,0:0:0:0:
224,160,20327,1,8,0:0:0:0:
224,160,20409,1,0,0:0:0:0:
224,160,20491,1,0,0:0:0:0:
224,160,20655,1,8,0:0:0:0:
224,160,20983,1,8,0:0:0:0:
224,160,21065,1,8,0:0:0:0:
224,160,21147,1,0,0:0:0:0:
224,160,21311,1,8,0:0:0:0:
224,160,21475,1,8,0:0:0:0:
224,160,21557,1,8,0:0:0:0:
224,160,21639,1,0,0:0:0:0:
130,84,21721,1,8,0:0:0:0:
224,160,21803,1,0,0:0:0:0:
224,160,21967,1,8,0:0:0:0:
224,160,22131,1,0,0:0:0:0:
224,160,22295,1,0,0:0:0:0:
224,160,22377,1,8,0:0:0:0:
224,160,22459,1,0,0:0:0:0:
228,13,22540,1,0,0:0:0:0:
224,160,22622,1,8,0:0:0:0:
224,160,22786,1,0,0:0:0:0:
212,8,22868,1,8,0:0:0:0:
224,160,22950,1,0,0:0:0:0:
224,160,23278,1,8,0:0:0:0:
224,160,23442,1,8,0:0:0:0:
224,160,23606,1,4,0:0:0:0:
224,160,23934,1,8,0:0:0:0:
232,27,24098,1,0,0:0:0:0:
224,23,24180,1,8,0:0:0:0:
224,160,24262,1,0,0:0:0:0:
224,160,24426,1,0,0:0:0:0:
224,160,24590,1,8,0:0:0:0:
224,160,24754,1,8,0:0:0:0:
248,13,24836,1,0,0:0:0:0:
224,160,24918,1,0,0:0:0:0:
224,160,24999,1,8,0:0:0:0:
224,160,25081,1,0,0:0:0:0:
192,96,25245,1,8,0:0:0:0:
242,49,25409,1,0,0:0:0:0:
192,96,25573,1,0,0:0:0:0:
192,96,25737,1,0,0:0:0:0:
242,49,25819,1,0,0:0:0:0:
192,96,25901,1,8,0:0:0:0:
192,96,26065,1,8,0:0:0:0:
192,96,26229,1,0,0:0:0:0:
192,96,26557,1,8,0:0:0:0:
192,96,26721,1,0,0:0:0:0:
192,96,26803,1,8,0:0:0:0:
192,96,26885,1,0,0:0:0:0:
192,96,27049,1,0,0:0:0:0:
192,96,27213,1,8,0:0:0:0:
224,96,27377,1,8,0:0:0:0:
167,109,27459,1,8,0:0:0:0:
224,96,27540,1,0,0:0:0:0:
224,96,27622,1,8,0:0:0:0:
224,96,27704,1,0,0:0:0:0:
224,64,27868,1,8,0:0:0:0:
224,64,28032,1,0,0:0:0:0:
224,64,28196,1,8,0:0:0:0:
224,64,28278,1,0,0:0:0:0:
224,64,28360,1,0,0:0:0:0:
224,64,28442,1,0,0:0:0:0:
224,64,28524,1,8,0:0:0:0:
224,64,28606,1,0,0:0:0:0:
224,64,28688,1,8,0:0:0:0:
224,64,28852,1,4,0:0:0:0:
224,160,29180,1,8,0:0:0:0:
224,160,29344,1,8,0:0:0:0:
224,160,29426,1,0,0:0:0:0:
260,42,29590,1,0,0:0:0:0:
224,160,29672,1,8,0:0:0:0:
224,160,29836,1,8,0:0:0:0:
224,160,29999,1,0,0:0:0:0:
224,160,30163,1,0,0:0:0:0:
224,160,30245,1,8,0:0:0:0:
224,160,30327,1,0,0:0:0:0:
192,96,30409,1,0,0:0:0:0:
192,96,30491,1,8,0:0:0:0:
192,96,30655,1,0,0:0:0:0:
192,96,30819,1,8,0:0:0:0:
192,96,30901,1,0,0:0:0:0:
192,96,30983,1,0,0:0:0:0:
192,96,31065,1,0,0:0:0:0:
192,96,31147,1,8,0:0:0:0:
192,96,31311,1,8,0:0:0:0:
192,96,31475,1,0,0:0:0:0:
192,96,31803,1,8,0:0:0:0:
192,96,31967,1,8,0:0:0:0:
192,96,32049,1,0,0:0:0:0:
192,96,32213,1,0,0:0:0:0:
192,96,32295,1,8,0:0:0:0:
192,96,32459,1,8,0:0:0:0:
224,96,32622,1,0,0:0:0:0:
224,96,32786,1,8,0:0:0:0:
150,13,32868,1,8,0:0:0:0:
224,160,32950,1,0,0:0:0:0:
239,35,33032,1,8,0:0:0:0:
224,160,33114,1,0,0:0:0:0:
224,160,33278,1,0,0:0:0:0:
224,160,33442,1,8,0:0:0:0:
224,160,33524,1,8,0:0:0:0:
224,160,33606,1,0,0:0:0:0:
224,160,33688,1,0,0:0:0:0:
224,160,33770,1,8,0:0:0:0:
224,160,33852,1,0,0:0:0:0:
224,160,33934,1,8,0:0:0:0:
224,160,34098,1,8,0:0:0:0:
224,160,35409,1,0,0:0:0:0:
224,160,36721,1,8,0:0:0:0:
224,160,37377,1,0,0:0:0:0:
224,160,38032,1,8,0:0:0:0:
224,160,38360,1,0,0:0:0:0:
283,40,38688,1,8,0:0:0:0:
283,40,38770,1,0,0:0:0:0:
283,40,38852,1,8,0:0:0:0:
283,40,38934,5,0,0:0:0:0:
283,40,39016,1,8,0:0:0:0:
283,40,39098,1,0,0:0:0:0:
283,40,39180,1,8,0:0:0:0:
224,160,39344,1,4,0:0:0:0:
224,160,39672,1,8,0:0:0:0:
224,160,39836,1,0,0:0:0:0:
224,160,39918,1,8,0:0:0:0:
224,160,39999,1,8,0:0:0:0:
224,160,40163,1,0,0:0:0:0:
224,160,40327,1,8,0:0:0:0:
212,24,40491,1,8,0:0:0:0:
224,160,40655,1,0,0:0:0:0:
128,66,40737,1,8,0:0:0:0:
224,160,40819,1,0,0:0:0:0:
224,160,40983,1,8,0:0:0:0:
224,160,41147,1,0,0:0:0:0:
164,83,41229,1,0,0:0:0:0:
224,160,41311,1,0,0:0:0:0:
224,160,41639,1,8,0:0:0:0:
131,13,41803,1,0,0:0:0:0:
256,56,41885,1,0,0:0:0:0:
224,160,41967,1,8,0:0:0:0:
224,160,42131,1,0,0:0:0:0:
224,160,42295,1,8,0:0:0:0:
224,160,42459,1,8,0:0:0:0:
224,160,42540,1,8,0:0:0:0:
224,160,42622,1,0,0:0:0:0:
224,160,42786,1,0,0:0:0:0:
224,160,42950,1,8,0:0:0:0:
204,27,43114,1,0,0:0:0:0:
192,17,43278,1,0,0:0:0:0:
164,47,43360,1,8,0:0:0:0:
224,160,43442,1,0,0:0:0:0:
224,160,43606,1,8,0:0:0:0:
224,160,43770,1,0,0:0:0:0:
224,160,43852,1,0,0:0:0:0:
224,160,43934,1,0,0:0:0:0:
224,160,44098,1,0,0:0:0:0:
224,160,44262,1,8,0:0:0:0:
175,56,44426,1,8,0:0:0:0:
224,160,44590,1,4,0:0:0:0:
224,128,44918,1,8,0:0:0:0:
224,128,45081,1,0,0:0:0:0:
224,128,45163,1,8,0:0:0:0:
224,128,45245,1,0,0:0:0:0:
224,128,45409,1,0,0:0:0:0:
224,128,45573,1,8,0:0:0:0:
224,128,45737,1,0,0:0:0:0:
224,160,45901,1,8,0:0:0:0:
224,160,45983,1,8,0:0:0:0:
173,83,46065,1,0,0:0:0:0:
224,160,46229,1,8,0:0:0:0:
224,160,46393,1,0,0:0:0:0:
224,160,46475,1,0,0:0:0:0:
224,160,46557,1,0,0:0:0:0:
224,160,46721,1,0,0:0:0:0:
224,160,47049,1,0,0:0:0:0:
224,160,47213,1,8,0:0:0:0:
160,128,47377,1,0,0:0:0:0:
217,8,47459,1,0,0:0:0:0:
160,128,47540,1,8,0:0:0:0:
160,128,47704,1,8,0:0:0:0:
192,128,47786,1,0,0:0:0:0:
160,128,47868,1,8,0:0:0:0:
160,128,48032,1,0,0:0:0:0:
160,128,48196,1,8,0:0:0:0:
160,128,48360,1,0,0:0:0:0:
235,38,48442,1,0,0:0:0:0:
160,128,48524,1,8,0:0:0:0:
160,128,48606,1,8,0:0:0:0:
160,128,48688,1,0,0:0:0:0:
160,128,48852,1,8,0:0:0:0:
160,128,49180,1,8,0:0:0:0:
160,128,49344,1,0,0:0:0:0:
160,128,49426,1,0,0:0:0:0:
160,128,49508,1,8,0:0:0:0:
160,128,49672,1,8,0:0:0:0:
160,128,49836,1,4,0:0:0:0:
160,128,50163,1,8,0:0:0:0:
160,128,50327,1,0,0:0:0:0:
160,128,50491,1,8,0:0:0:0:
160,128,50573,1,8,0:0:0:0:
128,128,50737,1,8,0:0:0:0:
160,128,50983,1,8,0:0:0:0:
160,128,51147,1,8,0:0:0:0:
160,128,51229,1,8,0:0:0:0:
160,128,51311,1,0,0:0:0:0:
160,128,51475,1,8,0:0:0:0:
160,128,51639,1,8,0:0:0:0:
160,128,51721,1,0,0:0:0:0:
194,27,51885,1,0,0:0:0:0:
160,128,51967,1,8,0:0:0:0:
160,128,52131,1,8,0:0:0:0:
247,19,52213,1,0,0:0:0:0:
160,128,52295,1,8,0:0:0:0:
160,128,52459,1,0,0:0:0:0:
160,128,52786,1,8,0:0:0:0:
160,128,52950,1,0,0:0:0:0:
160,128,53114,1,8,0:0:0:0:
160,128,53196,1,0,0:0:0:0:
160,128,53360,1,8,0:0:0:0:
160,128,53606,1,8,0:0:0:0:
160,128,53770,1,0,0:0:0:0:
160,128,53852,1,8,0:0:0:0:
160,128,54016,1,8,0:0:0:0:
160,128,54180,1,8,0:0:0:0:
160,128,54262,1,0,0:0:0:0:
160,128,54426,1,8,0:0:0:0:
224,160,54590,1,8,0:0:0:0:
224,160,54672,1,0,0:0:0:0:
160,128,54754,1,8,0:0:0:0:
160,128,54836,1,8,0:0:0:0:
160,128,54918,1,0,0:0:0:0:
160,128,55081,1,4,0:0:0:0:
160,128,55409,1,8,0:0:0:0:
160,128,55573,1,0,0:0:0:0:
160,128,55737,1,8,0:0:0:0:
160,128,55819,1,8,0:0:0:0:
128,128,55983,1,8,0:0:0:0:
160,128,56229,1,0,0:0:0:0:
160,128,56393,1,8,0:0:0:0:
160,128,56557,1,0,0:0:0:0:
160,128,56639,1,8,0:0:0:0:
160,128,56721,1,8,0:0:0:0:
160,128,56885,1,8,0:0:0:0:
160,128,56967,1,8,0:0:0:0:
160,128,57131,1,0,0:0:0:0:
160,128,57213,1,8,0:0:0:0:
160,128,57377,1,8,0:0:0:0:
160,128,57459,1,8,0:0:0:0:
160,128,57540,1,0,0:0:0:0:
160,128,57704,1,0,0:0:0:0:
160,128,58032,1,8,0:0:0:0:
160,128,58196,1,0,0:0:0:0:
160,128,58360,1,8,0:0:0:0:
160,128,58442,1,0,0:0:0:0:
160,128,58606,1,8,0:0:0:0:
160,128,58852,1,8,0:0:0:0:
160,128,59016,1,8,0:0:0:0:
128,128,59098,1,0,0:0:0:0:
160,128,59262,1,8,0:0:0:0:
198,13,59426,1,0,0:0:0:0:
208,12,59508,1,8,0:0:0:0:
160,128,59672,1,0,0:0:0:0:
224,160,59836,1,8,0:0:0:0:
160,128,59918,1,0,0:0:0:0:
224,160,59999,1,0,0:0:0:0:
185,64,60081,1,0,0:0:0:0:
160,128,60163,1,8,0:0:0:0:
160,128,60327,1,4,0:0:0:0:
160,128,60655,1,8,0:0:0:0:
160,128,60819,1,0,0:0:0:0:
160,128,60983,1,8,0:0:0:0:
160,128,61065,1,8,0:0:0:0:
355,103,61147,1,0,0:0:0:0:
128,128,61229,1,8,0:0:0:0:
160,128,61475,1,8,0:0:0:0:
160,128,61639,1,8,0:0:0:0:
160,128,61721,1,8,0:0:0:0:
160,128,61803,1,0,0:0:0:0:
160,128,61967,1,8,0:0:0:0:
160,128,62131,1,8,0:0:0:0:
160,128,62213,1,0,0:0:0:0:
255,40,62295,1,0,0:0:0:0:
194,27,62377,1,0,0:0:0:0:
160,128,62459,1,8,0:0:0:0:
160,128,62622,1,8,0:0:0:0:
247,19,62704,1,0,0:0:0:0:
160,128,62786,1,8,0:0:0:0:
160,128,62950,1,0,0:0:0:0:
160,128,63278,1,8,0:0:0:0:
160,128,63442,1,0,0:0:0:0:
160,128,63606,1,8,0:0:0:0:
160,128,63688,1,0,0:0:0:0:
355,103,63770,1,0,0:0:0:0:
160,128,63852,1,8,0:0:0:0:
160,128,64098,1,8,0:0:0:0:
160,128,64262,1,0,0:0:0:0:
160,128,64344,1,8,0:0:0:0:
160,128,64508,1,8,0:0:0:0:
160,128,64672,1,8,0:0:0:0:
160,128,64754,1,0,0:0:0:0:
178,21,64836,1,0,0:0:0:0:
160,128,64918,1,8,0:0:0:0:
224,160,65081,1,8,0:0:0:0:
224,160,65163,1,0,0:0:0:0:
224,160,65245,1,8,0:0:0:0:
160,128,65327,1,8,0:0:0:0:
160,128,65409,1,0,0:0:0:0:
160,128,65573,1,4,0:0:0:0:
160,128,65901,1,8,0:0:0:0:
160,128,66065,1,0,0:0:0:0:
160,128,66229,1,8,0:0:0:0:
160,128,66311,1,8,0:0:0:0:
324,75,66393,1,0,0:0:0:0:
128,128,66475,1,8,0:0:0:0:
160,128,66721,1,0,0:0:0:0:
160,128,66885,1,8,0:0:0:0:
160,128,67049,1,0,0:0:0:0:
160,128,67131,1,8,0:0:0:0:
160,128,67213,1,8,0:0:0:0:
160,128,67377,1,8,0:0:0:0:
160,128,67459,1,8,0:0:0:0:
160,128,67540,1,0,0:0:0:0:
160,128,67622,1,0,0:0:0:0:
160,128,67704,1,8,0:0:0:0:
160,128,67868,1,8,0:0:0:0:
160,128,67950,1,8,0:0:0:0:
160,128,68032,1,0,0:0:0:0:
160,128,68196,1,0,0:0:0:0:
160,128,68524,1,8,0:0:0:0:
160,128,68688,1,0,0:0:0:0:
324,75,68770,1,8,0:0:0:0:
160,128,68852,1,0,0:0:0:0:
160,128,69016,1,0,0:0:0:0:
160,128,69180,1,8,0:0:0:0:
160,128,69344,1,0,0:0:0:0:
160,128,69508,1,8,0:0:0:0:
128,128,69590,1,0,0:0:0:0:
160,128,69754,1,8,0:0:0:0:
198,13,69918,1,0,0:0:0:0:
208,12,69999,1,8,0:0:0:0:
211,23,70081,1,8,0:0:0:0:
160,128,70163,1,0,0:0:0:0:
224,160,70327,1,8,0:0:0:0:
224,160,70491,1,4,0:0:0:0:
