osu file format v14

[General]
AudioFilename: audio.mp3
AudioLeadIn: 0
PreviewTime:79223
Countdown: 0
SampleSet: Soft
StackLeniency: 0.7
Mode: 0
LetterboxInBreaks: 0
WidescreenStoryboard: 1

[Editor]
Bookmarks: 1400,7047,18341,29635,41635,54340,79752,91046,102340,114340,127045,152457,163751,175045,186340,200457,211751,225869,237163,248810,251104
DistanceSpacing: 0.8
BeatDivisor: 4
GridSize: 32
TimelineZoom: 1.6

[Metadata]
Title:Say! Fanfare!
TitleUnicode:Say!ファンファーレ!
Artist:Shirakami Fubuki
ArtistUnicode:白上フブキ
Creator:ckharv
Version:Amateurre's Insane!
Source:
Tags:gibune amateurre corsace open 2022 co22 dt1 wf f japanese pop j-pop hololive ホロライブ vtuber virtual youtuber fbk ハム hamu foxtail-grass studio アシノ ashino トマト組 tomato gummy cat ears girl neko cute
BeatmapID:3801834
BeatmapSetID:1849738

[Difficulty]
HPDrainRate:5
CircleSize:3.8
OverallDifficulty:8
ApproachRate:8.8
SliderMultiplier:1.8
SliderTickRate:1

[Events]
//Background and Video events
Video,0,"Say_fanfare.mp4"
0,0,"fbk1.jpg",0,0
//Break Periods
2,29835,34653
2,79952,89006
2,102541,106653
2,200657,202476
2,203481,205475
//Storyboard Layer 0 (Background)
//Storyboard Layer 1 (Fail)
//Storyboard Layer 2 (Pass)
//Storyboard Layer 3 (Foreground)
//Storyboard Layer 4 (Overlay)
//Storyboard Sound Samples

[TimingPoints]
1400,352.941176470588,4,2,1,65,1,0
1400,-125,4,2,1,65,0,0
7047,-100,4,2,1,70,0,0
18341,-125,4,2,1,55,0,0
23988,-125,4,2,1,60,0,0
29635,-125,4,2,1,50,0,0
35988,352.941176470588,4,2,1,60,1,0
35988,-125,4,2,1,60,0,0
41635,-125,4,2,1,55,0,0
47105,-250,4,2,1,55,0,0
47635,-125,4,2,1,60,0,0
52929,-125,4,2,1,55,0,0
54340,-100,4,2,1,80,0,0
79752,-100,4,2,1,65,0,0
91046,-125,4,2,1,55,0,0
96693,-125,4,2,1,60,0,0
102340,-125,4,2,1,50,0,0
108693,352.941176470588,4,2,1,60,1,0
108693,-125,4,2,1,60,0,0
114340,-125,4,2,1,55,0,0
120340,-125,4,2,1,60,0,0
125810,-125,4,2,1,55,0,0
127045,-100,4,2,1,70,0,0
127398,-100,4,2,1,80,0,0
163751,-100,4,2,1,80,0,0
175045,-108.695652173913,4,2,1,80,0,0
186340,-125,4,2,1,55,0,0
191810,-250,4,2,1,55,0,0
192340,-125,4,2,1,60,0,0
200457,-125,4,2,1,50,0,0
210340,-125,4,2,1,55,0,0
211751,-100,4,2,1,75,0,0
212104,-100,4,2,1,80,0,0
225869,-100,4,2,1,80,0,0
237163,-100,4,2,1,85,0,0
248810,-100,4,2,1,60,0,0

[Colours]
Combo1 : 231,231,231
Combo2 : 148,238,254

[HitObjects]
60,219,1224,5,0,3:0:0:0:
60,219,1312,1,0,3:0:0:0:
60,219,1400,1,4,1:0:0:0:
37,329,1576,1,0,1:0:0:0:
155,223,1753,1,0,1:0:0:0:
136,341,1929,2,0,P|216:332|279:324,1,144,0|0,1:0|0:0,0:0:0:0:
374,286,2458,6,0,L|357:374,1,72,0|0,3:0|0:0,0:0:0:0:
303,238,2811,1,0,0:0:0:0:
303,238,2988,2,0,L|323:151,1,72,0|0,3:0|0:0,0:0:0:0:
401,149,3341,2,0,P|444:202|513:193,1,144,0|0,3:0|3:0,0:0:0:0:
423,64,3870,2,0,P|390:67|351:72,1,72,0|0,3:0|0:0,0:0:0:0:
264,23,4223,5,4,1:0:0:0:
287,133,4399,1,0,1:0:0:0:
172,46,4576,1,0,1:0:0:0:
190,164,4752,2,0,P|182:234|175:307,1,144,0|0,1:0|0:0,0:0:0:0:
81,243,5282,1,0,3:0:0:0:
207,384,5458,6,0,P|158:333|88:339,1,144,0|0,1:0|1:0,0:0:0:0:
10,253,5988,2,0,P|56:249|95:237,1,72,0|0,1:0|0:0,0:0:0:0:
164,195,6341,1,0,1:0:0:0:
0,12,6694,6,0,P|31:44|109:29,1,108,4|0,0:0|0:0,0:0:0:0:
117,24,7047,6,0,B|224:11|180:77|291:60,1,180,4|8,1:0|0:0,0:0:0:0:
432,176,7576,2,0,P|439:131|451:88,1,90,2|0,0:1|1:0,0:0:0:0:
286,61,7929,1,0,3:0:0:0:
380,13,8105,2,0,P|366:69|360:106,1,90,10|0,0:1|0:0,0:0:0:0:
482,263,8458,6,0,P|351:202|327:214,1,180,2|8,1:0|0:0,0:0:0:0:
263,262,8988,1,0,0:0:0:0:
204,97,9164,2,0,P|73:158|49:146,1,180,2|8,1:0|0:0,0:0:0:0:
8,247,9694,5,0,3:0:0:0:
8,247,9782,1,0,3:0:0:0:
8,247,9870,2,0,P|15:288|20:336,1,90,0|0,1:0|0:0,0:0:0:0:
155,189,10223,1,10,0:1:0:0:
112,348,10399,2,0,P|106:303|99:258,1,90,0|0,3:2|1:0,0:0:0:0:
65,167,10752,1,0,0:0:0:0:
188,277,10929,2,0,P|238:269|277:264,1,90,10|0,0:1|0:0,0:0:0:0:
479,368,11282,6,0,P|415:315|324:344,1,180,0|8,1:0|0:0,0:0:0:0:
236,181,11811,2,0,L|250:78,1,90,0|0,3:0|1:0,0:0:0:0:
411,219,12164,1,8,0:0:0:0:
344,49,12341,2,0,L|331:138,1,90,8|0,0:0|0:0,0:0:0:0:
322,235,12694,5,4,1:2:0:0:
322,235,12870,1,0,3:0:0:0:
146,153,13047,2,0,P|68:180|76:266,1,180,8|0,0:0|1:0,0:0:0:0:
231,335,13576,1,0,0:0:0:0:
138,379,13752,2,0,P|147:324|153:290,1,90,8|0,0:0|0:0,0:0:0:0:
173,191,14105,5,0,1:0:0:0:
173,191,14282,1,0,3:0:0:0:
74,264,14458,2,0,P|20:228|23:164,1,135,8|0,0:0|0:0,0:0:0:0:
35,138,14811,2,0,P|84:126|127:118,1,90,0|0,1:0|0:0,0:0:0:0:
196,14,15164,2,0,P|147:26|104:34,1,90,8|0,0:0|0:0,0:0:0:0:
196,202,15517,6,0,L|219:93,1,90,0|0,1:0|0:0,0:0:0:0:
328,6,15870,2,0,L|309:94,1,90,0|0,1:0|0:0,0:0:0:0:
440,253,16223,2,0,L|424:139,1,90,0|0,1:0|0:0,0:0:0:0:
196,202,16576,2,0,L|212:316,1,90,0|0,1:0|0:0,0:0:0:0:
296,174,16929,5,8,0:3:0:0:
333,296,17105,1,8,0:3:0:0:
333,296,17194,1,8,0:3:0:0:
333,296,17282,1,8,0:0:0:0:
440,253,17458,2,0,L|453:181,2,45,8|8|8,0:3|0:3|0:0,0:0:0:0:
410,356,17811,1,8,0:0:0:0:
233,334,17988,5,10,0:0:0:0:
233,334,18076,1,0,0:0:0:0:
233,334,18164,1,2,0:0:0:0:
233,334,18252,1,0,0:0:0:0:
233,334,18341,2,0,P|189:341|136:350,1,72,6|0,1:2|0:0,0:0:0:0:
59,376,18694,2,0,L|82:233,1,144,0|0,1:0|1:0,0:0:0:0:
158,157,19223,1,0,0:0:0:0:
13,179,19399,2,0,L|31:83,1,72,0|0,1:0|0:0,0:0:0:0:
13,9,19752,6,0,P|43:28|78:30,1,72,0|0,1:0|0:0,0:0:0:0:
165,166,20105,2,0,P|200:163|230:144,1,72,0|0,1:0|0:0,0:0:0:0:
277,15,20458,2,0,P|185:39|176:80,1,144,0|0,1:0|1:0,0:0:0:0:
299,200,20988,5,0,0:0:0:0:
299,199,21164,2,0,P|335:183|369:188,1,72,0|0,1:0|0:0,0:0:0:0:
466,236,21517,2,0,L|476:164,1,72,0|0,1:0|0:0,0:0:0:0:
411,33,21870,2,0,L|400:104,1,72,0|0,1:0|0:0,0:0:0:0:
299,199,22223,2,0,L|227:188,1,72,0|0,1:0|0:0,0:0:0:0:
145,81,22576,5,0,1:0:0:0:
39,132,22752,1,0,0:0:0:0:
220,199,22929,1,0,1:0:0:0:
155,76,23105,1,0,0:0:0:0:
124,188,23282,2,0,P|111:252|111:277,1,72,0|8,1:0|0:0,0:0:0:0:
110,258,23547,1,0,3:0:0:0:
110,258,23635,1,8,1:0:0:0:
15,227,23811,1,8,0:0:0:0:
21,360,23988,6,0,P|97:347|111:347,1,72,4|0,1:0|0:0,0:0:0:0:
205,240,24341,2,0,B|302:234|258:289|364:275,1,144,8|0,0:0|1:0,0:0:0:0:
493,249,24870,1,0,0:0:0:0:
438,372,25047,2,0,P|433:333|426:300,1,72,8|0,0:0|0:0,0:0:0:0:
408,193,25399,5,0,1:0:0:0:
340,277,25576,1,0,0:0:0:0:
224,204,25752,2,0,P|259:199|294:189,1,72,8|0,0:0|0:0,0:0:0:0:
234,348,26105,2,0,P|162:355|92:370,1,144,0|8,1:0|0:0,0:0:0:0:
10,276,26635,1,0,0:0:0:0:
92,370,26811,6,0,P|97:327|99:298,1,72,0|0,1:0|0:0,0:0:0:0:
188,197,27164,2,0,P|184:232|180:268,1,72,8|0,0:0|0:0,0:0:0:0:
263,384,27517,2,0,P|268:341|270:312,1,72,0|0,1:0|0:0,0:0:0:0:
359,211,27870,2,0,P|355:246|351:282,1,72,8|0,0:0|3:0,0:0:0:0:
351,282,28135,1,0,3:0:0:0:
351,282,28223,5,0,1:0:0:0:
275,209,28399,1,0,0:0:0:0:
431,117,28576,1,8,0:0:0:0:
366,203,28752,1,0,0:0:0:0:
205,159,28929,2,0,L|114:148,1,72,0|8,1:0|0:0,0:0:0:0:
133,150,29194,1,0,3:0:0:0:
133,150,29282,1,8,0:0:0:0:
33,202,29458,1,0,3:0:0:0:
66,68,29635,5,4,0:0:0:0:
10,64,35282,6,0,L|20:13,2,48,2|0|0,0:0|0:0|0:0,0:0:0:0:
60,137,35635,2,0,L|50:184,2,48,2|0|0,0:0|0:0|0:0,0:0:0:0:
136,98,35988,6,0,P|173:93|207:89,1,72,0|0,1:0|0:0,0:0:0:0:
381,123,36340,1,8,0:0:0:0:
318,0,36517,2,0,P|304:62|299:93,1,72,0|0,0:0|1:0,0:0:0:0:
288,159,36870,1,0,0:0:0:0:
388,114,37046,1,8,0:0:0:0:
455,206,37223,2,0,P|441:268|436:299,1,72,0|0,0:0|1:0,0:0:0:0:
414,374,37576,5,0,3:0:0:0:
336,239,37752,1,8,0:0:0:0:
442,287,37929,1,0,0:0:0:0:
272,314,38105,2,0,P|202:296|184:294,1,72,0|0,1:0|0:0,0:0:0:0:
78,359,38458,2,0,P|148:377|166:379,1,72,8|0,0:0|0:0,0:0:0:0:
255,213,38811,6,0,P|244:130|236:70,1,144,0|8,1:0|0:0,0:0:0:0:
151,170,39340,1,0,0:0:0:0:
237,71,39517,2,0,L|155:55,1,72,0|0,1:0|0:0,0:0:0:0:
0,84,39870,1,8,0:0:0:0:
73,15,40046,6,0,P|80:52|87:99,1,72,0|0,3:0|1:0,0:0:0:0:
23,184,40399,6,0,P|-4:259|27:305,1,108,0|0,3:0|0:0,0:0:0:0:
21,305,40752,1,0,3:0:0:0:
157,259,40929,2,0,P|120:250|86:243,1,72,0|0,1:0|0:0,0:0:0:0:
80,369,41282,2,0,P|117:378|150:384,1,72,8|0,0:0|0:0,0:0:0:0:
322,334,41635,6,0,P|443:328|454:252,1,216,4|0,1:0|3:0,0:0:0:0:
410,190,42340,1,0,1:0:0:0:
410,190,42517,1,0,1:0:0:0:
410,190,42693,1,8,0:0:0:0:
162,161,43046,6,0,P|91:148|80:65,1,144,0|0,1:0|0:0,0:0:0:0:
93,14,43576,1,0,1:0:0:0:
71,175,43929,1,0,1:0:0:0:
71,175,44105,2,0,P|35:180|0:190,1,72,8|0,0:0|0:0,0:0:0:0:
166,76,44458,6,0,P|267:75|290:123,2,144,0|0|0,1:0|3:0|1:0,0:0:0:0:
280,202,45340,1,0,1:0:0:0:
199,159,45517,2,0,P|192:196|188:230,1,72,8|0,0:0|0:0,0:0:0:0:
81,358,45870,6,0,P|124:311|216:336,1,144,0|0,1:0|0:0,0:0:0:0:
335,376,46399,2,0,P|262:385|245:391,1,72,0|0,1:0|0:0,0:0:0:0:
286,224,46752,2,0,P|293:259|294:295,1,72,8|8,0:0|0:0,0:0:0:0:
512,336,47105,6,0,B|518:285|494:299|501:243,1,90,0|0,1:0|0:0,0:0:0:0:
504,249,47635,6,0,P|461:285|354:260,1,144,4|0,1:0|1:0,0:0:0:0:
197,204,48164,1,0,0:0:0:0:
300,153,48340,2,0,P|291:184|285:223,1,72,8|0,0:0|0:0,0:0:0:0:
315,354,48693,6,0,P|262:307|184:315,1,144,0|8,1:0|0:0,0:0:0:0:
121,373,49223,2,0,P|105:291|105:276,1,72,0|0,0:0|1:0,0:0:0:0:
0,241,49576,2,0,P|10:275|15:311,1,72,0|8,0:0|0:0,0:0:0:0:
121,373,49929,1,0,0:0:0:0:
165,231,50105,6,0,P|154:196|149:160,1,72,0|0,1:0|0:0,0:0:0:0:
237,29,50458,2,0,P|247:63|252:99,1,72,8|0,0:0|0:0,0:0:0:0:
97,97,50811,2,0,P|131:86|167:81,1,72,0|0,1:0|0:0,0:0:0:0:
309,167,51164,2,0,P|274:177|238:182,1,72,8|0,0:0|0:0,0:0:0:0:
325,35,51517,6,0,P|360:29|395:19,1,72,4|0,1:0|3:0,0:0:0:0:
395,19,51782,1,0,3:0:0:0:
395,19,51870,1,8,0:0:0:0:
495,132,52046,2,0,L|488:191,2,36,0|0|0,3:0|3:0|1:0,0:0:0:0:
505,39,52399,1,8,0:0:0:0:
406,139,52576,2,0,P|401:170|397:210,1,72,8|0,0:0|3:0,0:0:0:0:
326,273,52929,5,2,0:0:0:0:
512,384,53811,5,8,0:0:0:0:
512,384,53987,2,0,L|430:374,1,72,8|0,0:0|0:0,0:0:0:0:
227,352,54340,6,0,P|274:307|336:323,1,135,4|0,1:0|0:0,0:0:0:0:
353,336,54693,2,0,P|358:280|362:246,1,90,10|0,0:1|0:0,0:0:0:0:
302,148,55046,1,2,1:0:0:0:
454,269,55223,2,0,P|457:224|463:179,1,90,2|8,0:1|0:0,0:0:0:0:
512,29,55576,6,0,P|469:75|347:59,1,180,2|2,0:1|0:1,0:0:0:0:
158,121,56105,1,8,0:0:0:0:
244,12,56282,1,0,0:0:0:0:
310,161,56458,2,0,P|267:115|145:131,1,180,2|8,1:0|0:0,0:0:0:0:
48,108,56987,1,0,0:0:0:0:
48,108,57164,2,0,P|60:152|70:195,1,90,0|0,1:0|0:0,0:0:0:0:
32,338,57517,6,0,P|81:300|161:335,1,135,8|0,0:0|0:0,0:0:0:0:
161,331,57870,1,2,1:0:0:0:
219,200,58046,2,0,P|248:237|241:288,1,90,2|8,0:1|0:0,0:0:0:0:
332,384,58399,6,0,P|337:294|343:204,1,180,2|2,0:1|0:1,0:0:0:0:
472,103,58929,1,8,0:1:0:0:
429,233,59105,1,2,0:1:0:0:
276,132,59282,2,0,P|345:120|376:117,1,90,0|2,1:0|0:1,0:0:0:0:
512,228,59635,2,0,P|467:233|423:242,1,90,8|2,0:0|0:1,0:0:0:0:
333,284,59987,1,2,3:0:0:0:
333,284,60340,6,0,P|340:206|349:149,1,135,4|0,1:0|0:0,0:0:0:0:
357,123,60693,1,8,0:0:0:0:
176,137,60870,1,0,0:0:0:0:
248,56,61046,1,2,1:0:0:0:
264,154,61223,6,0,P|224:144|175:136,1,90,2|8,0:1|0:0,0:0:0:0:
58,6,61576,1,0,0:0:0:0:
157,54,61752,1,8,0:0:0:0:
10,167,61929,2,0,P|59:126|172:159,1,180,2|2,0:1|0:1,0:0:0:0:
256,233,62458,2,0,P|259:188|268:144,1,90,10|0,0:1|0:0,0:0:0:0:
285,28,62811,5,0,1:0:0:0:
285,28,62987,1,0,3:0:0:0:
477,125,63164,1,8,0:0:0:0:
353,172,63340,1,0,3:0:0:0:
489,120,63517,1,0,1:0:0:0:
410,0,63693,2,0,P|399:54|394:103,1,90,0|10,3:0|0:1,0:0:0:0:
421,250,64046,6,0,P|348:195|241:231,1,180,2|4,0:1|3:2,0:0:0:0:
265,209,64487,1,0,3:0:0:0:
265,209,64576,1,0,1:0:0:0:
169,133,64752,1,0,1:0:0:0:
114,301,64929,1,8,0:0:0:0:
176,227,65105,1,0,1:0:0:0:
4,182,65282,1,8,0:0:0:0:
123,311,65458,1,0,3:0:0:0:
232,289,65635,6,0,P|301:278|353:329,1,135,4|0,1:0|0:0,0:0:0:0:
358,337,65987,2,0,P|433:329|469:328,1,90,10|0,0:1|0:0,0:0:0:0:
308,184,66340,1,0,1:0:0:0:
512,227,66517,2,0,P|437:235|401:236,1,90,2|8,0:1|0:0,0:0:0:0:
273,100,66870,6,2,P|259:189|247:278,1,180,2|0,0:1|0:0,0:1:0:0:
149,346,67399,1,8,0:0:0:0:
167,219,67576,1,0,0:0:0:0:
303,377,67752,2,0,P|240:326|144:351,1,180,2|8,1:0|0:0,0:0:0:0:
53,285,68282,5,2,0:1:0:0:
53,285,68370,1,0,0:0:0:0:
53,285,68458,2,0,P|60:240|72:194,1,90,2|0,1:0|0:0,0:0:0:0:
102,30,68811,1,8,0:0:0:0:
130,136,68987,1,0,0:0:0:0:
26,108,69164,1,0,1:0:0:0:
198,66,69340,2,0,P|245:80|298:86,1,90,2|8,0:1|0:0,0:0:0:0:
509,109,69693,6,0,P|469:37|364:67,1,180,2|2,0:1|0:1,0:0:0:0:
210,162,70223,1,8,0:0:0:0:
392,191,70399,1,2,0:1:0:0:
285,85,70576,2,0,P|299:149|313:262,1,180,0|8,1:0|0:0,0:0:0:0:
432,359,71105,1,2,1:1:0:0:
432,359,71635,6,0,P|440:292|455:226,1,135,4|0,1:0|0:0,0:0:0:0:
465,197,71987,6,0,P|421:162|378:173,1,90,4|0,1:2|0:0,0:0:0:0:
369,188,72252,6,0,P|338:219|294:218,1,90,4|0,1:2|0:0,0:0:0:0:
264,193,72517,6,0,B|155:170|196:237|85:207,1,180,4|0,1:0|3:0,0:0:0:0:
28,75,73046,1,8,0:0:0:0:
123,127,73223,1,0,0:0:0:0:
0,252,73399,2,0,P|84:245|136:326,1,180,0|8,1:0|0:0,0:0:0:0:
236,377,73929,5,0,1:0:0:0:
236,377,74017,1,0,3:0:0:0:
236,377,74105,2,0,L|227:265,1,90,4|0,1:2|3:0,0:0:0:0:
219,172,74458,1,8,0:0:0:0:
348,323,74635,5,0,3:0:0:0:
348,323,74723,1,0,3:0:0:0:
348,323,74811,2,0,L|339:211,1,90,4|0,1:2|1:0,0:0:0:0:
331,118,75164,2,0,P|377:111|420:106,1,90,8|0,0:0|1:0,0:0:0:0:
420,106,75429,1,0,3:0:0:0:
420,106,75517,5,0,1:0:0:0:
495,193,75693,1,0,3:0:0:0:
322,116,75870,1,8,0:0:0:0:
470,21,76046,1,0,3:0:0:0:
390,211,76223,6,0,L|380:276,3,45,0|0|0|0,1:0|3:0|3:0|3:0,0:0:0:0:
309,103,76576,2,0,L|302:58,3,45,0|0|0|0,3:0|3:0|3:0|3:0,0:0:0:0:
284,187,76929,1,0,1:0:0:0:
418,103,77105,5,12,0:0:0:0:
187,62,77282,1,8,0:0:0:0:
277,198,77811,5,12,0:0:0:0:
41,233,77987,1,8,0:0:0:0:
97,150,78340,6,0,P|131:181|135:234,1,90,4|0,1:2|0:0,0:0:0:0:
0,305,78693,2,0,P|10:259|54:229,1,90,4|0,1:2|0:0,0:0:0:0:
178,309,79046,2,0,P|133:322|85:299,1,90,4|0,1:2|0:0,0:0:0:0:
28,100,79399,6,0,P|89:58|154:80,1,135,8|0,0:0|0:0,0:0:0:0:
165,90,79752,1,4,1:0:0:0:
9,82,89635,5,0,1:0:0:0:
93,65,89811,2,0,L|106:11,2,45,8|0|8,0:3|3:0|0:0,0:0:0:0:
128,152,90164,1,8,0:3:0:0:
128,152,90252,1,0,3:0:0:0:
128,152,90340,2,0,L|184:145,1,45,8|0,0:0|3:0,0:0:0:0:
253,90,90517,2,0,L|297:84,1,45,8|0,0:3|3:0,0:0:0:0:
387,129,90693,1,8,0:0:0:0:
490,7,91046,6,0,P|473:38|468:74,1,72,0|0,1:0|0:0,0:0:0:0:
512,159,91399,2,0,P|439:114|376:139,1,144,0|0,1:0|1:0,0:0:0:0:
239,195,91929,1,0,0:0:0:0:
342,265,92105,2,0,L|328:194,1,72,0|0,1:0|0:0,0:0:0:0:
264,130,92458,6,0,P|243:158|238:194,1,72,0|0,1:0|0:0,0:0:0:0:
172,281,92811,2,0,P|169:246|150:216,1,72,0|0,1:0|0:0,0:0:0:0:
19,169,93164,2,0,P|20:237|81:269,1,144,0|0,1:0|3:0,0:0:0:0:
233,358,93694,5,0,3:0:0:0:
233,357,93870,2,0,P|269:341|303:346,1,72,0|0,1:0|0:0,0:0:0:0:
399,267,94223,2,0,P|435:281|456:308,1,72,0|0,1:0|0:0,0:0:0:0:
300,345,94576,2,0,L|311:274,1,72,0|0,1:0|0:0,0:0:0:0:
399,267,94929,2,0,L|410:195,1,72,0|0,1:0|0:0,0:0:0:0:
400,102,95282,5,0,1:0:0:0:
489,144,95458,1,0,0:0:0:0:
387,14,95635,1,0,1:0:0:0:
333,169,95811,1,0,0:0:0:0:
259,121,95988,2,0,P|195:108|170:108,1,72,0|8,1:0|0:0,0:0:0:0:
189,107,96253,1,0,3:0:0:0:
189,107,96341,1,8,0:0:0:0:
85,175,96517,1,0,3:0:0:0:
35,10,96694,6,0,P|22:86|22:100,1,72,4|0,1:0|0:0,0:0:0:0:
158,225,97047,2,0,P|88:212|30:251,1,144,8|0,0:0|1:0,0:0:0:0:
254,178,97576,1,0,0:0:0:0:
352,285,97753,2,0,P|347:246|340:213,1,72,8|0,0:0|0:0,0:0:0:0:
320,87,98105,5,0,1:0:0:0:
441,168,98282,1,0,0:0:0:0:
489,36,98458,2,0,P|454:45|418:51,1,72,8|0,0:0|0:0,0:0:0:0:
262,166,98811,2,0,P|191:150|120:144,1,144,0|8,1:0|0:0,0:0:0:0:
201,53,99341,1,0,0:0:0:0:
40,215,99517,6,0,P|36:164|33:143,1,72,0|0,1:0|0:0,0:0:0:0:
111,72,99870,2,0,P|115:107|119:143,1,72,8|0,0:0|0:0,0:0:0:0:
276,284,100223,2,0,P|281:241|283:212,1,72,0|0,1:0|0:0,0:0:0:0:
200,166,100576,2,0,P|196:201|192:237,1,72,8|0,0:0|3:0,0:0:0:0:
192,237,100841,1,0,3:0:0:0:
192,237,100929,5,0,1:0:0:0:
64,215,101105,1,0,0:0:0:0:
0,360,101282,1,8,0:0:0:0:
101,296,101458,1,0,0:0:0:0:
184,373,101635,2,0,L|275:362,1,72,0|8,1:0|0:0,0:0:0:0:
256,364,101900,1,0,3:0:0:0:
256,364,101988,1,8,0:0:0:0:
351,314,102164,1,0,3:0:0:0:
423,384,102341,5,4,0:0:0:0:
10,105,107282,6,0,L|133:92,1,108,2|0,0:0|0:0,0:0:0:0:
117,93,107635,2,0,L|106:165,1,72,2|0,0:0|0:0,0:0:0:0:
106,164,107899,1,0,0:0:0:0:
106,164,107987,1,0,0:0:0:0:
208,101,108164,1,0,0:0:0:0:
199,225,108340,2,0,L|188:297,1,72,2|0,0:0|0:0,0:0:0:0:
188,296,108604,1,0,0:0:0:0:
188,296,108693,6,0,P|257:287|294:285,1,72,0|0,1:0|0:0,0:0:0:0:
351,330,109045,1,8,0:0:0:0:
457,217,109222,2,0,P|497:262|477:363,1,144,0|0,3:0|0:0,0:0:0:0:
337,240,109751,1,8,0:0:0:0:
503,137,109928,2,0,P|418:183|365:155,1,144,0|0,3:0|3:0,0:0:0:0:
260,94,110457,2,0,P|322:86|358:77,1,72,8|0,0:0|0:0,0:0:0:0:
337,240,110810,2,0,P|275:248|239:257,1,72,0|0,1:0|0:0,0:0:0:0:
102,221,111163,1,8,0:0:0:0:
197,162,111340,1,0,0:0:0:0:
145,299,111516,6,0,P|36:258|1:282,1,144,0|8,1:0|0:0,0:0:0:0:
127,384,112045,1,0,3:0:0:0:
127,384,112134,1,0,3:0:0:0:
127,384,112222,2,0,P|164:373|197:369,1,72,0|0,1:0|0:0,0:0:0:0:
288,288,112575,1,8,0:0:0:0:
208,183,112751,2,0,P|216:143|221:112,1,72,0|0,3:0|0:0,0:0:0:0:
292,23,113104,6,0,B|379:17|341:66|431:51,1,144,0|0,3:0|0:0,0:0:0:0:
512,100,113634,1,0,1:0:0:0:
333,147,113810,1,0,3:0:0:0:
428,52,113987,2,0,P|423:88|419:123,1,72,8|0,0:0|3:0,0:0:0:0:
506,220,114340,6,0,P|385:226|374:302,1,216,4|0,1:0|3:0,0:0:0:0:
330,367,115045,1,0,1:0:0:0:
330,367,115222,1,0,1:0:0:0:
330,367,115398,1,8,0:0:0:0:
46,158,115751,6,0,P|117:171|128:254,1,144,0|0,1:0|0:0,0:0:0:0:
86,294,116281,1,0,1:0:0:0:
157,95,116634,1,0,1:0:0:0:
157,95,116810,2,0,P|162:59|172:24,1,72,8|0,0:0|0:0,0:0:0:0:
229,160,117163,6,0,P|330:161|353:113,2,144,0|0|0,1:0|3:0|1:0,0:0:0:0:
64,52,118045,1,0,1:0:0:0:
44,140,118222,2,0,P|37:177|33:211,1,72,8|0,0:0|0:0,0:0:0:0:
0,302,118575,6,0,P|43:255|135:280,1,144,0|0,1:0|0:0,0:0:0:0:
276,369,119104,2,0,P|285:296|291:279,1,72,0|0,1:0|0:0,0:0:0:0:
218,191,119457,2,0,P|217:226|210:262,1,72,8|8,0:0|0:0,0:0:0:0:
365,346,119810,6,0,P|420:298|500:335,1,144,0|0,1:0|0:0,0:0:0:0:
490,323,120251,1,0,3:0:0:0:
496,331,120340,6,0,P|504:257|511:187,1,144,4|0,1:0|1:0,0:0:0:0:
419,69,120869,1,0,0:0:0:0:
380,209,121045,2,0,P|347:214|309:222,1,72,8|0,0:0|0:0,0:0:0:0:
130,150,121398,6,0,P|165:143|200:136,1,72,0|0,1:0|0:0,0:0:0:0:
309,222,121751,1,8,0:0:0:0:
197,293,121928,2,0,P|201:257|206:221,1,72,0|0,0:0|1:0,0:0:0:0:
139,78,122281,2,0,P|134:113|129:149,1,72,0|8,0:0|0:0,0:0:0:0:
42,199,122634,1,0,0:0:0:0:
219,133,122810,6,0,L|306:144,1,72,0|0,1:0|0:0,0:0:0:0:
303,60,123163,2,0,L|216:49,1,72,8|0,0:0|0:0,0:0:0:0:
113,189,123516,6,0,L|26:200,1,72,0|0,1:0|0:0,0:0:0:0:
29,116,123869,2,0,L|116:105,1,72,8|0,0:0|0:0,0:0:0:0:
207,200,124222,6,0,P|197:232|192:270,1,72,4|0,1:0|3:0,0:0:0:0:
193,270,124487,1,0,3:0:0:0:
193,270,124575,1,8,0:0:0:0:
299,218,124751,2,0,L|306:166,2,36,0|0|4,3:0|3:0|1:2,0:0:0:0:
343,305,125104,1,0,3:0:0:0:
456,284,125281,5,8,0:0:0:0:
456,284,125369,1,0,3:0:0:0:
456,284,125457,1,0,3:0:0:0:
456,284,125545,1,0,3:0:0:0:
456,284,125634,1,0,3:0:0:0:
432,62,126340,6,0,P|429:36|427:14,2,48,2|0|2,0:0|0:0|0:0,0:0:0:0:
369,110,126692,2,0,P|333:102|298:94,1,72,8|0,0:0|0:0,0:0:0:0:
163,19,127045,6,0,P|91:65|35:44,1,135,4|0,1:0|0:0,0:0:0:0:
26,42,127398,2,0,L|11:151,1,90,10|0,0:1|0:0,0:0:0:0:
110,161,127751,1,0,1:0:0:0:
0,265,127928,2,0,P|67:250|103:247,1,90,2|8,0:1|0:0,0:0:0:0:
190,124,128281,6,0,B|300:113|255:174|362:166,1,180,2|0,0:1|3:1,0:0:0:0:
508,119,128810,1,8,0:0:0:0:
405,66,128987,1,0,3:0:0:0:
456,206,129163,2,0,P|444:287|430:384,1,180,2|10,1:1|0:1,0:0:0:0:
329,384,129692,1,0,0:0:0:0:
329,384,129869,2,0,L|348:287,1,90,0|0,1:0|0:0,0:0:0:0:
276,222,130222,6,0,P|207:216|153:271,1,135,8|0,0:0|0:0,0:0:0:0:
155,272,130575,1,0,1:0:0:0:
226,384,130751,2,0,P|236:373|227:297,1,90,0|8,3:0|0:0,0:0:0:0:
86,217,131104,6,0,P|6:191|17:109,1,180,2|2,3:1|0:1,0:0:0:0:
89,28,131634,1,8,0:0:0:0:
126,118,131810,1,2,0:1:0:0:
0,17,131987,2,0,P|46:26|89:27,1,90,0|2,1:0|0:1,0:0:0:0:
220,140,132340,2,0,P|174:131|130:129,1,90,8|2,0:0|0:1,0:0:0:0:
3,210,132693,1,2,3:0:0:0:
3,210,133045,6,0,P|66:204|112:293,1,135,4|0,1:0|0:0,0:0:0:0:
121,277,133398,2,0,P|170:272|210:268,1,90,0|0,1:0|0:0,0:0:0:0:
301,207,133751,1,8,0:0:0:0:
383,382,133928,6,0,P|396:292|410:204,1,180,2|2,0:1|0:1,0:0:0:0:
410,204,134369,1,0,3:0:0:0:
410,204,134457,1,8,0:0:0:0:
294,300,134634,2,0,P|303:251|309:211,1,90,2|0,0:1|1:0,0:0:0:0:
269,72,134987,1,0,0:0:0:0:
439,115,135163,2,0,P|398:119|349:126,1,90,10|0,0:1|0:0,0:0:0:0:
228,169,135516,1,0,1:0:0:0:
228,169,135692,1,0,0:0:0:0:
25,81,135869,6,0,P|83:37|155:59,1,135,8|0,0:0|0:0,0:0:0:0:
164,66,136222,1,0,1:0:0:0:
285,0,136398,2,0,P|271:43|261:86,1,90,0|8,0:0|0:0,0:0:0:0:
144,190,136751,6,0,B|254:166|214:242|319:214,1,180,0|4,0:0|1:0,0:0:0:0:
314,216,137192,1,0,3:0:0:0:
314,216,137281,1,8,0:0:0:0:
428,165,137457,1,0,3:0:0:0:
377,314,137634,1,0,1:0:0:0:
227,250,137810,1,4,1:2:0:0:
125,358,137987,5,8,0:0:0:0:
125,358,138075,1,0,3:0:0:0:
125,358,138163,1,0,3:0:0:0:
125,358,138251,1,0,3:0:0:0:
125,358,138340,2,0,P|50:355|38:283,1,135,4|0,1:0|0:0,0:0:0:0:
14,288,138692,2,0,P|22:243|28:199,1,90,10|0,0:1|0:0,0:0:0:0:
114,130,139045,1,0,1:0:0:0:
9,57,139222,2,0,L|110:37,1,90,0|8,0:0|0:0,0:0:0:0:
332,128,139575,6,2,P|274:199|189:196,1,180,2|0,0:1|0:0,0:1:0:0:
218,29,140104,2,0,P|242:101|235:138,1,90,8|0,0:0|0:0,0:0:0:0:
122,228,140457,2,0,P|54:211|22:330,1,180,2|10,1:1|0:1,0:0:0:0:
96,374,140987,5,2,0:1:0:0:
96,374,141075,1,0,0:0:0:0:
96,374,141163,2,0,P|143:365|185:361,1,90,0|0,1:0|0:0,0:0:0:0:
316,290,141516,1,8,0:0:0:0:
230,250,141692,1,0,0:0:0:0:
299,375,141869,1,2,1:1:0:0:
407,325,142045,2,0,P|414:273|418:235,1,90,2|8,0:1|0:0,0:0:0:0:
486,132,142398,6,0,P|399:192|326:159,1,180,2|2,3:1|0:1,0:0:0:0:
230,86,142928,1,8,0:0:0:0:
182,229,143104,1,2,0:1:0:0:
48,155,143281,2,0,L|156:139,1,90,0|2,1:0|0:1,0:0:0:0:
258,175,143634,1,8,0:0:0:0:
320,23,143810,1,2,0:1:0:0:
320,23,144340,6,0,P|394:37|400:118,1,135,4|0,1:0|0:0,0:0:0:0:
435,108,144692,6,0,P|428:152|424:197,1,90,4|0,1:2|0:0,0:0:0:0:
410,219,144957,6,0,P|366:212|320:208,1,90,0|0,1:0|0:0,0:0:0:0:
297,186,145222,6,0,P|214:161|149:219,1,180,4|0,1:2|3:0,0:0:0:0:
17,250,145751,1,8,0:0:0:0:
68,158,145928,1,0,0:0:0:0:
124,315,146104,2,0,P|167:302|211:292,1,90,0|0,1:0|0:0,0:0:0:0:
364,247,146457,2,0,P|355:284|346:335,1,90,8|0,0:0|0:0,0:0:0:0:
347,335,146722,1,0,3:0:0:0:
347,335,146810,5,4,1:2:0:0:
276,238,146987,1,0,1:0:0:0:
446,287,147163,2,0,L|465:190,1,90,8|0,0:0|0:0,0:0:0:0:
463,198,147428,1,0,3:0:0:0:
463,198,147516,5,4,1:2:0:0:
367,236,147692,1,0,1:0:0:0:
285,152,147869,2,0,L|302:63,1,90,8|0,0:0|1:0,0:0:0:0:
302,63,148134,1,0,3:0:0:0:
302,63,148222,5,4,1:0:0:0:
383,137,148398,1,0,0:0:0:0:
196,189,148575,1,8,0:0:0:0:
220,16,148751,1,0,0:0:0:0:
292,217,148928,6,0,L|283:286,3,45,0|0|0|0,1:0|3:0|3:0|3:0,0:0:0:0:
196,178,149281,2,0,L|187:109,3,45,8|0|0|0,0:0|3:0|3:0|3:0,0:0:0:0:
138,251,149634,1,0,3:0:0:0:
40,162,149810,5,8,0:0:0:0:
105,347,149987,1,8,0:0:0:0:
273,112,150516,5,8,0:0:0:0:
245,311,150692,1,8,0:0:0:0:
327,255,151045,6,0,P|296:221|243:217,1,90,4|0,1:2|0:0,0:0:0:0:
172,352,151398,2,0,P|218:342|248:298,1,90,4|0,1:2|0:0,0:0:0:0:
168,174,151751,2,0,P|155:219|178:267,1,90,4|0,1:2|3:0,0:0:0:0:
321,361,152104,2,0,P|386:347|432:349,1,90,8|0,0:0|0:0,0:0:0:0:
510,191,152457,6,0,P|422:193|367:126,2,180,4|10|0,1:0|0:1|1:0,0:0:0:0:
469,111,153340,1,0,3:0:0:0:
469,111,153428,1,0,3:0:0:0:
469,111,153516,1,8,0:0:0:0:
310,228,153692,2,0,P|318:143|331:49,1,180,2|0,0:1|3:0,0:0:0:0:
150,0,154222,2,0,P|136:74|132:115,1,90,10|2,0:1|0:1,0:0:0:0:
219,155,154575,1,0,1:0:0:0:
243,57,154751,1,2,0:1:0:0:
134,88,154928,2,0,P|89:81|45:72,1,90,10|0,0:1|0:0,0:0:0:0:
182,207,155281,5,2,1:0:0:0:
35,258,155457,2,0,P|103:193|208:234,1,180,0|0,3:0|3:0,3:0:0:0:
315,78,155987,1,2,1:0:0:0:
227,101,156163,2,0,P|295:166|400:125,1,180,2|0,0:1|0:0,0:0:0:0:
490,89,156692,6,0,P|475:154|466:202,1,90,0|2,1:0|0:1,0:0:0:0:
361,289,157045,1,8,0:0:0:0:
512,327,157222,2,0,P|413:268|353:297,1,180,2|2,0:1|0:1,0:0:0:0:
266,354,157751,5,8,0:0:0:0:
266,354,157840,1,0,3:0:0:0:
266,354,157928,1,2,3:1:0:0:
266,354,158016,1,0,3:0:0:0:
266,354,158104,2,0,B|157:364|217:285|97:295,1,180,0|10,1:0|0:1,0:0:0:0:
2,333,158634,2,0,P|9:288|14:243,1,90,0|0,3:0|1:0,0:0:0:0:
106,115,158987,1,0,0:0:0:0:
106,115,159075,1,0,0:0:0:0:
106,115,159163,2,0,P|61:108|17:98,1,90,10|0,0:1|0:0,0:0:0:0:
129,210,159516,6,0,P|173:203|217:193,1,90,0|0,1:0|0:0,0:0:0:0:
317,108,159869,1,10,0:1:0:0:
350,216,160045,1,0,0:0:0:0:
218,99,160222,2,0,P|233:23|247:-9,1,90,0|0,1:0|0:0,0:0:0:0:
498,72,160575,5,10,0:1:0:0:
498,72,160663,1,0,3:0:0:0:
498,72,160751,1,0,3:0:0:0:
498,72,160840,1,0,3:0:0:0:
498,72,160928,2,0,P|400:91|320:102,2,180,0|8|0,1:0|0:0|1:0,0:0:0:0:
376,8,161810,1,2,1:0:0:0:
376,8,161898,1,0,3:0:0:0:
376,8,161987,1,0,3:0:0:0:
425,172,162163,1,0,3:0:0:0:
252,169,162340,6,0,L|128:147,1,90,0|4,1:0|3:2,0:0:0:0:
163,153,162604,1,0,3:0:0:0:
163,153,162692,1,0,1:0:0:0:
40,83,162869,2,0,L|32:38,2,45,0|0|4,3:0|3:0|1:2,0:0:0:0:
175,6,163222,1,0,1:0:0:0:
53,187,163398,5,0,1:0:0:0:
53,187,163487,1,0,1:0:0:0:
53,187,163575,1,0,1:0:0:0:
53,187,163663,1,0,1:0:0:0:
53,187,163751,2,0,P|44:233|36:285,1,90,4|0,1:0|0:0,0:0:0:0:
126,384,164104,2,0,P|133:339|141:295,1,90,8|0,0:0|0:0,0:0:0:0:
234,156,164457,1,0,1:0:0:0:
144,205,164634,1,0,0:0:0:0:
216,322,164810,2,0,P|274:310|319:306,1,90,8|0,0:0|0:0,0:0:0:0:
497,335,165163,6,0,P|449:343|416:220,1,180,0|8,1:0|0:0,0:0:0:0:
501,148,165692,2,0,P|494:187|486:236,1,90,0|0,0:0|1:0,0:0:0:0:
305,281,166045,2,0,P|312:236|319:192,1,90,0|8,0:0|0:0,0:0:0:0:
334,102,166398,1,0,0:0:0:0:
161,302,166751,5,0,0:0:0:0:
161,302,166928,2,0,P|123:310|73:321,1,90,8|0,0:0|0:0,0:0:0:0:
188,140,167281,2,0,P|196:178|207:227,1,90,0|0,1:0|0:0,0:0:0:0:
73,321,167634,2,0,P|65:283|53:233,1,90,8|0,0:0|0:0,0:0:0:0:
37,94,167987,6,0,P|69:136|200:130,1,180,0|8,1:0|0:0,0:0:0:0:
311,13,168516,2,0,P|269:22|222:29,1,90,0|0,0:0|1:0,0:0:0:0:
275,202,168869,2,0,P|284:147|291:113,1,90,0|8,0:0|0:0,0:0:0:0:
408,10,169222,6,0,L|385:120,1,90,0|0,0:0|1:0,0:0:0:0:
426,189,169575,1,0,0:0:0:0:
291,113,169751,2,0,P|215:122|111:131,1,180,8|0,0:0|1:0,0:0:0:0:
20,252,170281,6,0,P|77:273|120:258,1,90,0|8,0:0|0:0,0:0:0:0:
178,211,170634,1,0,0:0:0:0:
254,384,170810,2,0,P|264:290|274:205,1,180,0|8,1:0|0:0,0:0:0:0:
372,137,171340,2,0,P|365:182|360:226,1,90,0|0,0:0|1:0,0:0:0:0:
166,300,171692,2,0,P|170:255|177:210,1,90,0|8,0:0|0:0,0:0:0:0:
224,120,172045,1,0,0:0:0:0:
68,225,172222,6,0,P|27:206|60:88,1,180,0|8,1:0|0:0,0:0:0:0:
22,8,172751,2,0,P|83:18|124:25,1,90,0|0,0:0|1:0,0:0:0:0:
213,125,173104,2,0,P|168:132|124:139,1,90,0|8,0:0|0:0,0:0:0:0:
264,24,173457,2,0,P|325:24|354:133,1,180,0|0,0:0|3:0,0:0:0:0:
359,122,173898,1,0,3:0:0:0:
359,122,173987,1,0,1:0:0:0:
510,177,174163,1,0,3:0:0:0:
473,20,174340,2,0,P|455:89|447:123,1,90,0|0,1:0|3:0,0:0:0:0:
404,216,174692,1,0,1:0:0:0:
276,139,174869,1,0,3:0:0:0:
225,288,175045,5,4,1:0:0:0:
505,238,175222,1,0,1:0:0:0:
505,238,175575,1,0,1:0:0:0:
455,114,175928,1,0,3:0:0:0:
455,114,176105,1,0,3:0:0:0:
319,193,176457,5,0,1:0:0:0:
39,143,176634,1,0,1:0:0:0:
39,143,176987,1,0,1:0:0:0:
102,24,177340,1,0,3:0:0:0:
102,24,177516,2,0,L|115:109,1,82.7999972204591,0|0,3:0|3:0,0:0:0:0:
126,188,177869,5,0,1:0:0:0:
126,188,178045,1,0,1:0:0:0:
250,60,178222,2,0,P|236:150|227:225,1,165.599994440918,12|0,0:0|1:0,0:0:0:0:
149,274,178751,1,0,1:0:0:0:
29,168,178928,2,0,P|41:216|49:250,1,82.7999972204591,12|0,0:0|0:0,0:0:0:0:
22,355,179281,5,0,1:0:0:0:
140,252,179457,1,0,1:0:0:0:
220,373,179634,1,12,0:0:0:0:
322,316,179810,2,0,B|410:304|376:357|481:340,1,165.599994440918,0|0,1:0|0:0,0:0:0:0:
235,366,180340,2,0,P|234:322|229:284,1,82.7999972204591,8|0,0:0|3:0,0:0:0:0:
228,283,180604,1,0,3:0:0:0:
228,283,180692,5,4,1:0:0:0:
323,190,180869,1,0,0:0:0:0:
184,112,181045,1,8,0:0:0:0:
237,207,181222,1,0,0:0:0:0:
400,150,181398,2,0,L|484:174,1,82.7999972204591,4|0,1:2|0:0,0:0:0:0:
339,77,181751,1,8,0:0:0:0:
237,207,181928,6,0,P|206:211|150:220,1,82.7999972204591,0|4,0:0|1:0,0:0:0:0:
70,95,182281,1,0,0:0:0:0:
177,127,182457,1,8,0:0:0:0:
76,274,182634,2,0,L|63:180,1,82.7999972204591,0|4,0:0|1:2,0:0:0:0:
7,14,182987,1,0,3:0:0:0:
87,103,183163,1,8,0:0:0:0:
150,8,183340,1,0,0:0:0:0:
202,151,183516,6,0,P|223:194|327:178,1,165.599994440918,4|8,1:0|0:0,0:0:0:0:
443,125,184045,2,0,L|351:105,1,82.7999972204591,0|0,0:0|1:0,0:0:0:0:
452,272,184398,2,0,L|363:253,1,82.7999972204591,0|8,0:0|0:0,0:0:0:0:
503,191,184751,1,0,0:0:0:0:
373,335,184928,5,0,1:0:0:0:
263,263,185104,2,0,L|259:202,2,41.3999986102295,4|0|0,1:1|1:0|1:0,0:0:0:0:
214,360,185457,1,4,1:2:0:0:
79,258,185634,2,0,L|76:198,2,41.3999986102295,0|0|8,1:0|3:0|0:0,0:0:0:0:
114,374,185987,5,8,0:0:0:0:
114,374,186075,1,0,3:0:0:0:
114,374,186163,1,0,3:0:0:0:
114,374,186251,1,0,3:0:0:0:
114,374,186340,2,0,P|127:267|142:159,1,216,4|0,1:0|3:0,0:0:0:0:
158,89,187045,1,0,1:0:0:0:
158,89,187222,1,0,1:0:0:0:
158,89,187398,1,8,0:0:0:0:
388,239,187751,6,0,P|382:167|374:95,1,144,0|0,1:0|0:0,0:0:0:0:
352,23,188281,1,0,1:0:0:0:
438,167,188634,1,0,1:0:0:0:
438,167,188810,2,0,P|475:172|509:178,1,72,8|0,0:0|0:0,0:0:0:0:
288,110,189163,6,0,P|218:118|144:121,2,144,0|0|0,1:0|3:0|1:0,0:0:0:0:
357,215,190045,1,0,1:0:0:0:
237,198,190222,2,0,P|242:232|242:269,1,72,8|0,0:0|0:0,0:0:0:0:
95,366,190575,6,0,P|27:339|42:262,1,144,0|0,1:0|0:0,0:0:0:0:
87,183,191104,2,0,P|55:180|16:169,1,72,0|0,1:0|0:0,0:0:0:0:
150,271,191457,2,0,P|182:274|220:284,1,72,8|8,0:0|0:0,0:0:0:0:
340,365,191810,6,0,B|392:350|374:385|429:367,1,90,0|0,1:0|0:0,0:0:0:0:
427,367,192340,6,0,P|432:290|437:223,1,144,4|0,1:0|1:0,0:0:0:0:
347,101,192869,1,0,0:0:0:0:
503,118,193045,2,0,P|468:126|435:140,1,72,8|0,0:0|0:0,0:0:0:0:
317,225,193398,2,0,P|271:175|186:185,1,144,0|8,1:0|0:0,0:0:0:0:
37,130,193928,2,0,P|115:117|133:112,1,72,0|0,0:0|1:0,0:0:0:0:
101,285,194281,2,0,P|91:210|84:191,1,72,0|8,0:0|0:0,0:0:0:0:
62,44,194634,1,0,0:0:0:0:
199,176,194810,6,0,P|206:135|211:105,1,72,0|0,1:0|0:0,0:0:0:0:
315,29,195163,2,0,P|308:70|302:99,1,72,8|0,0:0|0:0,0:0:0:0:
418,246,195516,6,0,P|411:205|405:175,1,72,0|0,1:0|0:0,0:0:0:0:
302,99,195869,2,0,P|309:140|314:169,1,72,8|0,0:0|0:0,0:0:0:0:
286,280,196222,5,4,1:0:0:0:
184,225,196398,2,0,L|179:184,2,36,0|0|8,3:0|3:0|0:0,0:0:0:0:
123,340,196751,1,0,3:0:0:0:
123,340,196840,1,0,3:0:0:0:
123,340,196928,1,8,0:0:0:0:
36,285,197104,1,2,1:2:0:0:
36,285,197192,1,0,3:0:0:0:
36,285,197281,2,0,L|43:232,3,36,10|0|2|0,0:2|0:0|3:2|3:0,0:0:0:0:
58,172,197634,1,0,3:3:0:0:
455,338,199928,5,8,0:0:0:0:
455,338,200104,2,0,P|418:343|383:349,1,72,8|0,0:0|3:0,0:0:0:0:
373,361,200369,1,0,3:0:0:0:
373,361,200457,1,4,1:2:0:0:
64,269,203105,5,0,1:0:0:0:
64,269,203281,1,0,1:0:0:0:
505,30,206104,6,0,P|453:76|383:69,1,144,4|2,0:0|0:0,0:0:0:0:
384,70,206810,2,0,L|376:149,1,72,0|0,3:0|3:0,0:0:0:0:
301,29,207163,1,8,0:0:0:0:
236,99,207340,5,0,1:0:0:0:
236,99,207428,1,0,3:0:0:0:
236,99,207516,2,0,P|196:103|164:108,1,72,4|0,1:0|0:0,0:0:0:0:
75,68,207869,1,0,3:0:0:0:
40,194,208045,1,2,3:2:0:0:
40,194,208133,1,0,3:0:0:0:
40,194,208222,2,0,P|44:234|49:265,1,72,0|0,1:0|0:0,0:0:0:0:
150,313,208575,2,0,P|144:277|140:241,1,72,8|0,0:0|1:0,0:0:0:0:
201,167,208928,5,4,1:0:0:0:
201,167,209104,1,0,3:0:0:0:
313,214,209281,1,8,0:0:0:0:
313,214,209457,1,0,1:0:0:0:
283,121,209634,5,4,1:0:0:0:
231,257,209810,1,0,3:0:0:0:
402,191,209987,1,8,0:0:0:0:
271,111,210163,1,0,1:0:0:0:
388,23,210340,6,0,L|372:107,1,72,0|4,1:0|0:1,0:0:0:0:
374,93,210604,1,0,3:0:0:0:
374,93,210692,1,0,1:0:0:0:
282,22,210869,2,0,L|217:12,2,36,0|0|0,3:0|3:0|1:0,0:0:0:0:
173,108,211222,1,8,0:0:0:0:
17,50,211398,5,8,0:0:0:0:
17,50,211487,1,0,1:0:0:0:
17,50,211575,1,0,1:0:0:0:
17,50,211663,1,0,1:0:0:0:
17,50,211751,2,0,P|-12:115|31:190,1,135,4|0,1:0|0:0,0:0:0:0:
24,187,212104,2,0,P|62:164|106:168,1,90,10|0,0:1|0:0,0:0:0:0:
204,220,212457,1,0,1:0:0:0:
320,118,212634,2,0,P|312:157|304:210,1,90,2|8,0:1|0:0,0:0:0:0:
388,350,212987,6,0,P|404:246|423:159,1,180,2|0,0:1|0:0,0:0:0:0:
442,55,213516,1,8,0:0:0:0:
320,118,213692,1,2,0:1:0:0:
111,70,213869,2,0,P|163:14|253:50,1,180,2|8,1:0|0:0,0:0:0:0:
299,210,214398,5,0,3:0:0:0:
299,210,214487,1,0,3:0:0:0:
299,210,214575,2,0,P|253:200|210:193,1,90,0|0,1:0|0:0,0:0:0:0:
22,167,214928,1,10,0:1:0:0:
126,283,215104,1,0,3:0:0:0:
134,167,215281,1,2,1:0:0:0:
22,272,215457,2,0,P|10:314|0:359,1,90,2|8,3:1|0:0,0:0:0:0:
222,231,215810,6,0,P|218:149|208:51,1,180,2|2,3:1|0:1,0:0:0:0:
359,155,216340,1,8,0:0:0:0:
307,27,216516,1,2,0:1:0:0:
171,136,216692,2,0,P|224:148|260:133,1,90,0|2,1:0|0:1,0:0:0:0:
391,67,217045,1,8,0:0:0:0:
481,197,217222,1,2,0:1:0:0:
481,197,217751,6,0,P|418:208|348:221,1,135,12|0,0:2|0:0,0:0:0:0:
324,233,218104,6,0,P|298:271|312:320,1,90,4|0,1:2|0:0,0:0:0:0:
306,339,218369,6,0,P|253:362|206:337,1,90,4|0,1:2|0:0,0:0:0:0:
205,329,218634,6,0,B|107:299|136:386|21:344,1,180,4|0,1:2|3:0,0:0:0:0:
170,218,219163,1,8,0:0:0:0:
11,157,219340,1,0,0:0:0:0:
81,272,219516,2,0,P|87:187|106:93,1,180,0|8,1:0|0:0,0:0:0:0:
54,9,220045,5,0,3:0:0:0:
54,9,220133,1,0,3:0:0:0:
54,9,220221,2,0,P|108:10|166:0,1,90,0|0,1:0|1:0,0:0:0:0:
220,55,220574,1,0,3:0:0:0:
149,167,220751,5,0,3:0:0:0:
149,167,220839,1,0,3:0:0:0:
149,167,220927,2,0,P|202:161|261:158,1,90,0|0,1:0|1:0,0:0:0:0:
334,227,221280,2,0,P|341:181|346:138,1,90,0|0,3:0|1:0,0:0:0:0:
346,137,221545,1,0,3:0:0:0:
346,137,221633,5,0,1:0:0:0:
489,258,221809,1,0,3:0:0:0:
512,90,221986,1,8,0:0:0:0:
436,172,222162,1,0,1:0:0:0:
290,72,222339,6,0,L|300:7,3,45,0|0|0|0,3:0|3:0|3:0|3:0,0:0:0:0:
232,135,222692,2,0,L|225:180,3,45,0|0|0|0,3:0|3:0|3:0|3:0,0:0:0:0:
324,162,223045,1,2,3:0:0:0:
145,94,223221,5,8,0:0:0:0:
386,64,223398,1,8,0:0:0:0:
234,266,223928,5,8,0:0:0:0:
475,290,224104,1,8,0:0:0:0:
323,256,224457,6,0,P|360:229|413:236,1,90,0|0,1:0|0:0,0:0:0:0:
454,383,224810,2,0,P|411:363|390:314,1,90,0|0,1:0|0:0,0:0:0:0:
495,209,225163,2,0,P|498:255|465:297,1,90,0|0,1:0|0:0,0:0:0:0:
234,267,225516,2,0,P|181:231|107:258,1,135,2|0,0:1|0:0,0:0:0:0:
92,269,225869,6,0,P|81:169|70:87,1,180,4|8,1:0|0:0,0:0:0:0:
160,8,226398,2,0,L|175:105,1,90,2|0,0:1|1:0,0:0:0:0:
57,2,226751,1,0,3:0:0:0:
173,96,226928,2,0,L|289:74,1,90,10|0,0:1|0:0,0:0:0:0:
379,14,227281,6,2,P|368:98|356:192,1,180,2|8,1:1|0:0,0:1:0:0:
261,79,227810,1,0,3:0:0:0:
408,274,227987,2,2,P|325:213|255:236,1,180,2|8,1:0|0:0,0:1:0:0:
175,168,228516,5,0,3:0:0:0:
175,168,228604,1,0,3:0:0:0:
175,168,228692,2,0,L|151:352,1,180,0|10,1:0|0:1,0:0:0:0:
62,199,229222,2,0,L|76:95,1,90,0|0,3:0|1:0,0:0:0:0:
127,9,229575,1,0,0:0:0:0:
214,78,229751,2,0,L|322:60,1,90,10|0,0:1|0:0,0:0:0:0:
512,137,230104,6,0,P|439:199|352:183,1,180,0|8,1:0|0:0,0:0:0:0:
284,239,230634,2,0,P|265:195|275:150,1,90,0|0,3:0|1:0,0:0:0:0:
361,188,230987,1,8,0:0:0:0:
202,300,231163,2,0,P|156:293|112:290,1,90,8|0,0:0|1:0,0:0:0:0:
66,53,231516,5,0,1:0:0:0:
66,53,231692,1,0,3:0:0:0:
0,138,231869,2,0,P|100:147|166:89,1,180,10|0,0:1|1:0,0:0:0:0:
329,134,232398,1,0,3:0:0:0:
263,7,232575,2,0,L|247:107,1,90,10|0,0:1|0:0,0:0:0:0:
234,186,232928,5,0,1:0:0:0:
234,186,233104,1,0,3:0:0:0:
419,108,233281,2,0,P|498:140|490:250,1,180,8|0,0:0|1:0,0:0:0:0:
348,325,233810,1,8,0:0:0:0:
446,384,233987,2,0,L|429:280,1,90,8|0,0:0|0:0,0:0:0:0:
363,223,234340,6,0,L|266:235,1,90,0|0,1:0|0:0,0:0:0:0:
240,334,234692,2,0,L|150:345,1,90,10|0,0:1|0:0,0:0:0:0:
16,168,235045,6,0,L|105:156,1,90,0|0,1:0|0:0,0:0:0:0:
184,245,235398,2,0,L|273:233,1,90,10|0,0:1|0:0,0:0:0:0:
450,178,235751,2,0,L|433:277,1,90,0|2,1:0|0:1,0:0:0:0:
434,266,236016,1,0,3:0:0:0:
434,266,236104,1,8,0:0:0:0:
352,156,236281,2,0,L|362:98,2,45,2|0|0,0:1|3:0|1:0,0:0:0:0:
273,232,236634,1,2,0:1:0:0:
168,148,236810,5,8,0:0:0:0:
168,148,236898,1,0,3:0:0:0:
168,148,236987,1,2,3:1:0:0:
168,148,237075,1,0,3:0:0:0:
168,148,237163,2,0,P|125:142|78:136,1,90,4|0,1:0|0:0,0:0:0:0:
0,221,237516,2,0,P|89:228|178:239,1,180,10|0,0:1|1:0,0:0:0:0:
340,197,238045,1,0,3:0:0:0:
255,128,238222,1,8,0:0:0:0:
315,286,238398,6,0,P|363:286|410:250,1,90,2|0,0:1|1:0,0:0:0:0:
483,141,238751,1,0,0:0:0:0:
316,60,238928,1,10,0:1:0:0:
421,6,239104,2,0,P|413:47|403:96,1,90,2|0,0:1|0:0,0:0:0:0:
474,223,239457,2,0,P|483:178|491:134,1,90,2|8,0:1|0:0,0:0:0:0:
304,55,239810,6,0,B|199:42|243:103|126:77,1,180,2|0,0:1|0:0,0:0:0:0:
6,116,240340,2,0,P|92:109|147:175,1,180,10|0,0:1|1:0,0:0:0:0:
313,206,240869,1,0,0:0:0:0:
240,144,241045,2,0,P|231:181|221:232,1,90,10|0,0:1|0:0,0:0:0:0:
13,344,241398,6,0,P|88:281|168:306,1,180,0|8,1:0|0:0,0:0:0:0:
316,352,241928,2,0,P|241:360|199:370,1,90,0|0,0:0|1:0,0:0:0:0:
265,264,242281,1,8,0:0:0:0:
402,384,242457,2,0,P|405:335|411:294,1,90,8|0,0:0|0:0,0:0:0:0:
414,188,242810,5,0,1:0:0:0:
414,188,242987,1,0,1:0:0:0:
266,274,243163,2,0,P|195:278|179:168,1,180,12|0,0:0|1:0,0:0:0:0:
165,187,243604,1,0,3:0:0:0:
165,187,243692,1,0,1:0:0:0:
403,290,243869,6,0,P|474:294|490:184,1,180,12|0,0:0|1:0,0:0:0:0:
504,203,244310,1,0,3:0:0:0:
504,203,244398,1,0,1:0:0:0:
302,191,244575,6,0,P|293:83|285:11,1,180,12|0,0:0|1:0,0:0:0:0:
286,12,245016,1,0,3:0:0:0:
286,12,245104,1,0,1:0:0:0:
393,110,245281,6,0,P|396:154|398:199,1,90,12|0,0:0|0:0,0:0:0:0:
464,318,245634,2,0,L|453:387,3,45,0|0|0|0,1:0|3:0|3:0|3:0,0:0:0:0:
393,255,245987,2,0,L|382:186,3,45,0|0|0|0,1:0|3:0|3:0|3:0,0:0:0:0:
327,323,246340,1,0,1:0:0:0:
327,323,246428,1,0,3:0:0:0:
327,323,246516,2,0,L|269:315,1,45,0|0,3:0|3:0,0:0:0:0:
227,255,246693,1,0,1:0:0:0:
227,255,246781,1,0,3:0:0:0:
227,255,246869,2,0,L|182:248,1,45,0|0,3:0|3:0,0:0:0:0:
101,293,247045,5,0,1:0:0:0:
31,215,247222,2,0,L|35:162,2,45,0|0|8,3:0|3:0|0:0,0:0:0:0:
171,137,247575,1,0,3:0:0:0:
171,137,247663,1,0,3:0:0:0:
171,137,247751,1,8,0:0:0:0:
16,34,247928,1,8,0:0:0:0:
43,169,248104,1,8,0:0:0:0:
148,6,248281,1,0,1:0:0:0:
383,212,248810,5,4,1:0:0:0:
256,192,249075,12,0,251281,0:0:0:0:
