osu file format v14

[General]
AudioFilename: audio.mp3
AudioLeadIn: 0
PreviewTime: 54377
Countdown: 0
SampleSet: Normal
StackLeniency: 0.7
Mode: 2
LetterboxInBreaks: 0
WidescreenStoryboard: 1

[Editor]
Bookmarks: 7113,18407,24054,29701,36053,41701,47701,51583,54406,60406,64465,65701,71701,76995,79818,91112,96759,102406,108758,114405,120405,124287,127110,133110,137169,138405,144405,149875,152522,158169,163816,169463,175110,180757,186405,192405,196287,200522,206169,208993,211816,217816,223287,225934,237228,243228,245699,248875
DistanceSpacing: 1.5
BeatDivisor: 4
GridSize: 32
TimelineZoom: 2.2

[Metadata]
Title:Say! Fanfare!
TitleUnicode:Say!ファンファーレ!
Artist:Shirakami Fubuki
ArtistUnicode:白上フブキ
Creator:Bastian
Version:Secre's Platter
Source:
Tags:jorkseljund secre chickenbible japanese j-pop pop jpop female vocals ホロライブ hololive FUBUKI Original Song BIRTHDAY PARTY 2019 FBKBP2019 1st fes ノンストップ・ストーリー Nonstop Story vtuber virtual youtuber ハム Foxtail-Grass Studio アシノ Muse Dash video rhythm game
BeatmapID:2860644
BeatmapSetID:1384681

[Difficulty]
HPDrainRate:4
CircleSize:3.5
OverallDifficulty:8
ApproachRate:8
SliderMultiplier:1.69
SliderTickRate:2

[Events]
//Background and Video events
Video,0,"FANFARE!.mp4"
0,0,"DOKOMITENDA.jpeg",0,0
//Break Periods
//Storyboard Layer 0 (Background)
//Storyboard Layer 1 (Fail)
//Storyboard Layer 2 (Pass)
//Storyboard Layer 3 (Foreground)
//Storyboard Layer 4 (Overlay)
//Storyboard Sound Samples

[TimingPoints]
1466,352.941176470588,4,1,1,40,1,0
7113,-100,4,1,1,60,0,0
18407,-100,4,1,1,50,0,0
29701,-100,4,2,1,45,0,0
36054,352.941176470588,4,1,1,55,1,0
41701,-100,4,1,1,50,0,0
47701,-100,4,1,1,60,0,0
52995,-100,4,2,1,60,0,0
53171,-100,4,1,1,60,0,0
54406,-100,4,1,1,75,0,1
60053,-100,4,1,1,75,0,0
60406,-100,4,1,1,75,0,1
71348,-100,4,1,1,75,0,0
71701,-100,4,1,1,75,0,1
76995,-100,4,1,1,75,0,0
79818,-100,4,1,1,60,0,0
91112,-100,4,1,1,50,0,0
102406,-100,4,2,1,45,0,0
108758,352.941176470588,4,1,1,55,1,0
114405,-100,4,1,1,50,0,0
120405,-100,4,1,1,60,0,0
125699,-100,4,1,1,60,0,0
127110,-100,4,1,1,75,0,1
132758,-100,4,1,1,75,0,0
133110,-100,4,1,1,75,0,1
144052,-100,4,1,1,75,0,0
144405,-100,4,1,1,75,0,1
149699,-100,4,1,1,75,0,0
152522,-100,4,1,1,70,0,0
163816,-100,4,1,1,75,0,1
175110,-100,4,1,1,60,0,0
180757,-100,4,1,1,65,0,0
186405,-100,4,1,1,50,0,0
192405,-100,4,1,1,55,0,0
197699,-100,4,2,1,55,0,0
199110,-100,4,1,1,55,0,0
200522,-100,4,1,1,50,0,0
206169,-100,4,1,1,55,0,0
208993,-100,4,1,1,60,0,0
211816,-100,4,1,1,75,0,1
217463,-100,4,1,1,75,0,0
217816,-100,4,1,1,75,0,1
223110,-100,4,1,1,75,0,0
225934,-100,4,1,1,70,0,0
247110,-100,4,1,1,60,0,0
249934,-100,4,1,1,40,0,0
250640,-100,4,1,1,20,0,0
251346,-100,4,2,1,5,0,0

[Colours]
Combo1 : 255,182,147
Combo2 : 128,255,255
Combo3 : 5,189,250
Combo4 : 243,114,75

[HitObjects]
292,185,1466,6,0,L|173:186,2,84.5,4|4|12,0:0|0:0|0:0,0:0:0:0:
138,249,1995,2,0,P|61:176|171:93,1,253.5,4|8,0:0|2:1,0:0:0:0:
233,92,2701,1,0,2:0:0:0:
378,167,2877,6,0,L|382:66,1,84.5,0|0,2:0|2:0,0:0:0:0:
220,222,3407,2,0,L|427:225,1,169,0|0,2:0|2:0,0:0:0:0:
237,145,3936,2,0,L|227:43,1,84.5,8|0,2:1|0:0,0:0:0:0:
395,158,4289,6,0,L|486:160,1,84.5,4|4,0:0|0:0,0:0:0:0:
395,158,4642,1,12,0:0:0:0:
233,195,4818,2,0,P|153:139|257:53,1,253.5,4|8,0:0|0:0,0:0:0:0:
402,195,5524,6,0,L|168:196,1,169,2|2,0:0|0:0,0:0:0:0:
320,120,6054,1,8,0:0:0:0:
34,157,6407,2,0,L|33:65,1,84.5,2|0,0:0|0:0,0:0:0:0:
272,152,6760,2,0,L|380:151,1,84.5,0|0,0:0|0:0,0:0:0:0:
99,160,7113,6,0,L|94:55,1,84.5,6|0,0:0|0:0,0:0:0:0:
267,56,7465,2,0,P|353:105|270:197,1,253.5,10|0,0:0|0:0,0:0:0:0:
182,176,8171,2,0,L|172:87,1,84.5,10|0,0:0|0:0,0:0:0:0:
335,77,8524,6,0,L|137:74,1,169,2|10,0:0|0:0,0:0:0:0:
255,149,9054,1,0,0:0:0:0:
411,201,9230,2,0,P|488:142|385:55,1,253.5,2|0,0:0|0:0,0:0:0:0:
246,177,9936,6,0,L|236:52,1,84.5,2|0,0:0|0:0,0:0:0:0:
395,92,10289,2,0,L|399:-25,1,84.5,10|0,0:0|0:0,0:0:0:0:
311,27,10642,2,0,L|205:24,1,84.5,2|0,0:0|0:0,0:0:0:0:
383,177,10995,2,0,L|387:61,1,84.5,10|0,0:0|0:0,0:0:0:0:
226,189,11348,6,0,P|121:139|256:28,1,338,2|2,0:0|0:0,0:0:0:0:
388,97,12230,1,0,0:0:0:0:
236,99,12407,2,0,L|94:98,1,84.5,10|2,0:0|0:0,0:0:0:0:
236,99,12760,6,0,L|247:195,1,84.5,6|0,0:0|0:0,0:0:0:0:
85,228,13113,2,0,P|3:176|116:98,1,253.5,10|0,0:0|0:0,0:0:0:0:
246,128,13818,2,0,L|358:131,1,84.5,10|0,0:0|0:0,0:0:0:0:
246,128,14171,6,0,L|236:37,1,84.5,2|0,0:0|0:0,0:0:0:0:
396,38,14524,2,0,L|399:137,1,84.5,10|0,0:0|0:0,0:0:0:0:
238,195,14877,2,0,L|126:195,1,84.5,2|0,0:0|0:0,0:0:0:0:
307,251,15230,2,0,L|430:252,1,84.5,10|0,0:0|0:0,0:0:0:0:
236,185,15583,6,0,P|187:115|268:80,1,169,2|10,0:0|0:0,0:0:0:0:
327,78,16113,1,0,0:0:0:0:
171,117,16289,2,0,L|156:14,1,84.5,2|0,0:0|0:0,0:0:0:0:
320,144,16642,6,0,L|412:142,1,84.5,10|0,0:0|0:0,0:0:0:0:
256,192,16995,12,10,18054,0:0:0:0:
298,176,18407,6,0,L|114:177,1,169,6|2,0:0|0:0,0:0:0:0:
289,178,19113,2,0,L|466:174,1,169,2|2,0:0|0:0,0:0:0:0:
164,248,19818,6,0,P|121:167|181:136,1,169,2|2,0:0|0:0,0:0:0:0:
256,136,20348,1,0,0:0:0:0:
419,152,20524,2,0,L|416:48,1,84.5,2|0,0:0|0:0,0:0:0:0:
326,63,20877,2,0,L|225:57,1,84.5,2|2,0:0|0:0,0:0:0:0:
400,71,21230,6,0,P|448:151|381:190,1,169,2|2,0:0|0:0,0:0:0:0:
239,222,21936,2,0,L|438:228,1,169,2|2,0:0|0:0,0:0:0:0:
127,193,22642,6,0,L|127:94,1,84.5,2|0,0:0|0:0,0:0:0:0:
214,109,22995,2,0,L|220:16,1,84.5,2|0,0:0|0:0,0:0:0:0:
55,147,23348,2,0,P|14:69|78:36,1,169,2|2,0:0|0:0,0:0:0:0:
149,40,23877,1,2,0:0:0:0:
402,92,24054,6,0,L|418:192,1,84.5,6|0,0:0|0:0,0:0:0:0:
250,232,24407,2,0,P|200:154|268:116,1,169,10|2,0:0|0:0,0:0:0:0:
330,110,24936,1,0,0:0:0:0:
250,99,25113,2,0,L|141:102,1,84.5,10|0,0:0|0:0,0:0:0:0:
322,196,25465,6,0,L|325:105,1,84.5,2|0,0:0|0:0,0:0:0:0:
236,115,25818,2,0,L|228:16,1,84.5,10|0,0:0|0:0,0:0:0:0:
391,51,26171,2,0,P|432:138|374:145,1,169,2|10,0:0|0:0,0:0:0:0:
312,145,26701,1,2,0:0:0:0:
156,181,26877,6,0,L|151:69,1,84.5,2|0,0:0|0:0,0:0:0:0:
242,95,27230,2,0,L|243:-2,1,84.5,10|0,0:0|0:0,0:0:0:0:
85,156,27583,2,0,L|263:155,1,169,2|10,0:0|0:0,0:0:0:0:
168,97,28113,1,0,0:0:0:0:
317,177,28289,6,0,L|311:64,1,84.5,2|0,0:0|0:0,0:0:0:0:
231,76,28642,2,0,L|131:76,1,84.5,10|0,0:0|0:0,0:0:0:0:
317,40,28995,1,2,0:0:0:0:
392,65,29171,1,2,0:0:0:0:
400,144,29348,1,10,0:0:0:0:
330,182,29524,1,2,0:0:0:0:
78,250,29701,6,0,L|63:64,1,169,6|0,0:1|0:0,0:0:0:0:
224,123,30407,2,0,L|69:124,1,112.666666666667,2|0,0:0|0:0,0:0:0:0:
171,195,30760,1,0,0:0:0:0:
283,126,30995,1,0,0:0:0:0:
227,122,31113,6,0,P|172:74|246:15,1,169,2|0,0:0|0:0,0:0:0:0:
336,48,31701,1,0,0:0:0:0:
279,60,31818,2,0,L|271:-20,2,56.3333333333333,2|0|0,0:0|0:0|0:0,0:0:0:0:
336,48,32171,2,0,L|337:-19,2,56.3333333333333,0|0|0,0:0|0:0|0:0,0:0:0:0:
198,224,32524,6,0,P|141:174|216:141,1,169,2|0,0:0|0:0,0:0:0:0:
346,205,33230,1,2,0:0:0:0:
289,205,33348,1,0,0:0:0:0:
233,205,33465,1,0,0:0:0:0:
289,205,33583,2,0,L|376:204,2,56.3333333333333,0|0|0,0:0|0:0|0:0,0:0:0:0:
152,188,33936,6,0,P|99:138|179:71,1,169,2|0,0:0|0:0,0:0:0:0:
434,90,34642,2,0,L|460:290,1,169,2|0,0:0|0:0,0:0:0:0:
292,266,35348,5,0,0:0:0:0:
348,266,35465,1,0,0:0:0:0:
404,266,35583,1,0,0:0:0:0:
404,266,35700,2,0,L|322:267,1,56.3333333333333,0|0,0:0|0:0,0:0:0:0:
289,264,35936,1,0,0:0:0:0:
141,216,36053,6,0,P|89:153|177:175,1,169,6|10,0:0|0:0,0:0:0:0:
231,116,36583,1,0,0:0:0:0:
384,134,36759,2,0,L|382:27,1,84.5,2|0,0:0|0:0,0:0:0:0:
299,37,37112,2,0,L|191:40,1,84.5,10|0,0:0|0:0,0:0:0:0:
374,194,37465,6,0,L|471:192,2,84.5,2|0|10,0:0|0:0|0:0,0:0:0:0:
285,163,37995,1,0,0:0:0:0:
438,140,38171,2,0,L|436:24,1,84.5,2|0,0:0|0:0,0:0:0:0:
284,55,38524,2,0,L|184:56,1,84.5,10|0,0:0|0:0,0:0:0:0:
361,223,38877,6,0,P|408:150|346:119,1,169,2|10,0:0|0:0,0:0:0:0:
268,111,39406,1,0,0:0:0:0:
111,125,39583,2,0,L|98:19,1,84.5,2|0,0:0|0:0,0:0:0:0:
259,50,39936,6,0,L|381:49,2,84.5,10|0|2,0:0|0:0|0:0,0:0:0:0:
96,178,40465,2,0,L|86:68,1,84.5,0|10,0:0|0:0,0:0:0:0:
181,87,40818,1,0,0:0:0:0:
343,128,40995,2,0,L|346:19,1,84.5,2|0,0:0|0:0,0:0:0:0:
181,87,41348,2,0,L|64:84,1,84.5,10|2,0:0|0:0,0:0:0:0:
357,248,41701,6,0,P|436:211|339:116,1,253.5,6|0,0:0|0:0,0:0:0:0:
275,134,42406,1,2,0:0:0:0:
355,129,42583,1,2,0:0:0:0:
436,125,42759,1,8,0:0:0:0:
151,219,43112,6,0,P|78:166|179:77,1,253.5,2|2,0:0|0:0,0:0:0:0:
246,104,43818,2,0,L|252:7,1,84.5,2|0,0:0|0:0,0:0:0:0:
168,45,44171,2,0,L|161:-49,1,84.5,10|2,0:0|0:0,0:0:0:0:
323,89,44524,6,0,L|506:89,1,169,2|0,0:0|0:0,0:0:0:0:
211,201,45230,2,0,L|1:202,1,169,2|10,0:0|0:0,0:0:0:0:
338,223,45936,6,0,P|374:127|306:120,1,169,2|0,0:0|0:0,0:0:0:0:
250,120,46465,2,0,L|244:15,1,84.5,2|0,0:0|0:0,0:0:0:0:
329,51,46818,1,10,0:0:0:0:
405,68,46995,1,10,0:0:0:0:
486,86,47171,1,2,0:0:0:0:
486,86,47348,1,0,0:0:0:0:
38,200,47701,6,0,L|263:198,1,169,14|2,0:0|0:0,0:0:0:0:
122,137,48230,1,0,0:0:0:0:
206,131,48406,2,0,L|210:30,1,84.5,10|0,0:0|0:0,0:0:0:0:
47,159,48759,6,0,L|38:-10,1,169,2|10,0:0|0:0,0:0:0:0:
191,89,49289,2,0,L|280:91,1,84.5,0|2,0:0|0:0,0:0:0:0:
189,175,49642,2,0,L|97:175,2,84.5,0|10|2,0:0|0:0|0:0,0:0:0:0:
353,193,50171,6,0,P|395:105|332:67,1,169,2|10,0:0|0:0,0:0:0:0:
263,78,50701,1,0,0:0:0:0:
108,146,50877,2,0,L|96:40,1,84.5,2|0,0:0|0:0,0:0:0:0:
189,55,51230,2,0,L|81:58,1,84.5,10|0,0:0|0:0,0:0:0:0:
364,104,51583,6,0,L|375:232,1,84.5,6|2,0:0|0:0,0:0:0:0:
325,207,51848,1,2,0:0:0:0:
279,208,51936,2,0,L|271:113,1,84.5,10|2,0:0|0:0,0:0:0:0:
432,104,52289,2,0,L|439:215,1,84.5,6|0,0:0|0:0,0:0:0:0:
355,239,52642,1,14,0:0:0:0:
397,239,52730,1,0,0:0:0:0:
439,239,52818,1,0,0:0:0:0:
276,174,52995,5,0,0:0:0:0:
256,192,53171,12,10,54053,2:1:0:0:
142,168,54406,6,0,P|90:115|162:63,1,169,14|10,0:0|0:0,0:0:0:0:
231,54,54936,1,0,0:0:0:0:
400,119,55112,1,2,0:0:0:0:
310,132,55289,2,0,L|307:29,1,84.5,0|10,0:0|0:0,0:0:0:0:
481,68,55642,6,0,L|483:173,1,84.5,0|2,0:0|0:0,0:0:0:0:
396,177,55995,1,0,0:0:0:0:
228,120,56171,2,0,L|123:120,1,84.5,10|0,0:0|0:0,0:0:0:0:
404,220,56524,2,0,L|403:112,1,84.5,2|0,0:0|0:0,0:0:0:0:
311,137,56877,1,10,0:0:0:0:
404,136,57053,6,0,L|493:136,2,84.5,2|2|0,0:0|0:0|0:0,0:0:0:0:
223,149,57583,2,0,L|220:56,1,84.5,10|0,0:0|0:0,0:0:0:0:
311,59,57936,1,2,0:0:0:0:
221,65,58112,2,0,L|118:65,2,84.5,0|10|0,0:0|0:0|0:0,0:0:0:0:
482,203,58642,6,0,L|485:98,1,84.5,2|0,0:0|0:0,0:0:0:0:
394,95,58995,2,0,L|265:94,1,84.5,10|0,0:0|0:0,0:0:0:0:
394,95,59348,2,0,L|396:-8,1,84.5,2|0,0:0|0:0,0:0:0:0:
223,173,59701,2,0,L|107:173,1,84.5,10|0,0:0|0:0,0:0:0:0:
381,62,60053,6,0,L|391:167,1,84.5,2|0,0:0|0:0,0:0:0:0:
127,212,60406,2,0,P|80:137|146:125,1,169,14|2,0:0|0:0,0:0:0:0:
219,105,60936,1,0,0:0:0:0:
133,106,61112,2,0,L|122:2,1,84.5,10|0,0:0|0:0,0:0:0:0:
281,49,61465,5,2,0:0:0:0:
356,71,61642,1,0,0:0:0:0:
360,150,61818,1,10,0:0:0:0:
287,181,61995,1,0,0:0:0:0:
129,126,62171,2,0,L|116:18,1,84.5,2|0,0:0|0:0,0:0:0:0:
280,82,62524,2,0,L|397:86,1,84.5,10|2,0:0|0:0,0:0:0:0:
280,82,62877,6,0,L|271:-20,1,84.5,2|0,0:0|0:0,0:0:0:0:
424,70,63230,2,0,L|509:68,2,84.5,10|0|2,0:0|0:0|0:0,0:0:0:0:
268,172,63759,1,0,0:0:0:0:
352,172,63936,1,10,0:0:0:0:
434,175,64112,1,0,0:0:0:0:
352,172,64289,1,2,0:0:0:0:
108,170,64465,6,0,L|3:170,2,84.5,14|10|0,0:0|0:0|0:0,0:0:0:0:
351,129,64995,2,0,L|348:7,1,84.5,14|0,0:0|0:0,0:0:0:0:
188,43,65348,2,0,L|51:43,1,84.5,10|0,0:0|0:0,0:0:0:0:
385,235,65701,6,0,L|389:120,1,84.5,14|0,0:0|0:0,0:0:0:0:
138,160,66053,2,0,P|90:97|175:54,1,169,10|2,0:0|0:0,0:0:0:0:
227,47,66583,1,0,0:0:0:0:
148,71,66759,2,0,L|144:-19,1,84.5,10|0,0:0|0:0,0:0:0:0:
302,132,67112,6,0,L|305:25,1,84.5,2|0,0:0|0:0,0:0:0:0:
221,68,67465,2,0,L|208:-38,1,84.5,10|0,0:0|0:0,0:0:0:0:
366,47,67818,2,0,P|401:139|348:146,1,169,2|10,0:0|0:0,0:0:0:0:
281,142,68348,1,0,0:0:0:0:
363,110,68524,6,0,L|365:0,1,84.5,2|0,0:0|0:0,0:0:0:0:
200,149,68877,2,0,L|98:149,2,84.5,10|0|2,0:0|0:0|0:0,0:0:0:0:
286,147,69406,2,0,L|291:34,1,84.5,0|10,0:0|0:0,0:0:0:0:
197,61,69759,1,0,0:0:0:0:
435,145,69936,6,0,L|438:10,1,84.5,2|0,0:0|0:0,0:0:0:0:
283,83,70289,2,0,L|275:-29,1,84.5,10|0,0:0|0:0,0:0:0:0:
368,47,70642,2,0,L|370:-53,1,84.5,2|0,0:0|0:0,0:0:0:0:
215,112,70995,1,10,0:0:0:0:
130,116,71171,1,0,0:0:0:0:
48,123,71348,1,0,0:0:0:0:
479,248,71701,6,0,L|481:134,1,84.5,14|0,0:0|0:0,0:0:0:0:
209,146,72053,2,0,L|56:143,1,126.75,14|14,0:0|0:0,0:0:0:0:
416,254,72583,6,0,P|466:178|372:169,1,169,14|0,0:0|0:0,0:0:0:0:
330,149,73112,2,0,L|205:152,1,84.5,10|0,0:0|0:0,0:0:0:0:
402,227,73465,2,0,L|403:109,1,84.5,2|0,0:0|0:0,0:0:0:0:
316,139,73818,2,0,L|411:138,1,84.5,10|0,0:0|0:0,0:0:0:0:
156,185,74171,6,0,L|152:68,1,84.5,6|0,0:0|0:0,0:0:0:0:
242,106,74524,2,0,L|428:103,1,169,10|6,0:0|0:0,0:0:0:0:
321,174,75053,1,0,0:0:0:0:
168,149,75230,2,0,L|162:51,1,84.5,10|2,0:0|0:0,0:0:0:0:
405,79,75583,6,0,P|450:160|368:152,1,169,6|10,0:0|0:0,0:0:0:0:
324,176,76112,1,0,0:0:0:0:
166,155,76289,2,0,L|149:42,1,84.5,2|0,0:0|0:0,0:0:0:0:
310,97,76642,1,10,0:0:0:0:
311,54,76730,1,0,0:0:0:0:
312,12,76818,1,0,0:0:0:0:
155,79,76995,6,0,L|33:80,1,84.5,0|6,0:0|0:0,0:0:0:0:
326,187,77348,1,6,0:0:0:0:
326,187,77877,1,6,0:0:0:0:
78,123,78053,1,6,0:0:0:0:
216,103,78406,6,0,L|51:204,1,169,6|6,0:0|0:0,0:0:0:0:
357,178,79112,1,6,0:0:0:0:
206,117,79465,2,0,L|93:117,1,84.5,0|0,0:0|0:0,0:0:0:0:
385,161,79818,6,0,L|394:56,1,84.5,6|0,0:0|0:0,0:0:0:0:
229,55,80171,2,0,P|143:104|226:196,1,253.5,10|0,0:0|0:0,0:0:0:0:
315,178,80877,2,0,L|325:89,1,84.5,10|0,0:0|0:0,0:0:0:0:
177,77,81230,6,0,L|375:74,1,169,2|10,0:0|0:0,0:0:0:0:
257,149,81759,1,0,0:0:0:0:
101,201,81936,2,0,P|24:142|127:55,1,253.5,2|0,0:0|0:0,0:0:0:0:
266,177,82642,6,0,L|276:52,1,84.5,2|0,0:0|0:0,0:0:0:0:
117,92,82995,2,0,L|113:-25,1,84.5,10|0,0:0|0:0,0:0:0:0:
201,27,83348,2,0,L|307:24,1,84.5,2|0,0:0|0:0,0:0:0:0:
129,177,83701,2,0,L|125:61,1,84.5,10|0,0:0|0:0,0:0:0:0:
286,189,84053,6,0,P|391:139|256:28,1,338,2|2,0:0|0:0,0:0:0:0:
124,97,84936,1,0,0:0:0:0:
276,99,85112,2,0,L|418:98,1,84.5,10|0,0:0|0:0,0:0:0:0:
276,99,85465,6,0,L|265:195,1,84.5,6|0,0:0|0:0,0:0:0:0:
427,228,85818,2,0,P|509:176|396:98,1,253.5,10|0,0:0|0:0,0:0:0:0:
266,128,86524,2,0,L|154:131,1,84.5,10|0,0:0|0:0,0:0:0:0:
266,128,86877,6,0,L|276:37,1,84.5,2|0,0:0|0:0,0:0:0:0:
192,108,87230,2,0,L|100:111,1,84.5,10|0,0:0|0:0,0:0:0:0:
274,195,87583,2,0,L|386:195,1,84.5,2|0,0:0|0:0,0:0:0:0:
205,251,87936,2,0,L|82:252,1,84.5,10|0,0:0|0:0,0:0:0:0:
276,185,88289,6,0,L|280:74,1,84.5,2|0,0:0|0:0,0:0:0:0:
128,111,88642,2,0,L|124:5,1,84.5,10|0,0:0|0:0,0:0:0:0:
285,94,88995,2,0,L|391:98,1,84.5,2|0,0:0|0:0,0:0:0:0:
112,179,89348,6,0,L|105:89,1,84.5,10|0,0:0|0:0,0:0:0:0:
256,192,89701,12,2,90759,0:0:0:0:
214,176,91112,6,0,L|398:177,1,169,6|2,0:0|0:0,0:0:0:0:
223,178,91818,2,0,L|46:174,1,169,2|2,0:0|0:0,0:0:0:0:
348,248,92524,6,0,P|391:167|331:136,1,169,2|2,0:0|0:0,0:0:0:0:
256,136,93053,1,0,0:0:0:0:
93,152,93230,2,0,L|96:48,1,84.5,2|0,0:0|0:0,0:0:0:0:
186,63,93583,2,0,L|287:57,1,84.5,2|0,0:0|0:0,0:0:0:0:
112,71,93936,6,0,P|64:151|131:190,1,169,2|2,0:0|0:0,0:0:0:0:
273,222,94642,2,0,L|74:228,1,169,2|2,0:0|0:0,0:0:0:0:
385,193,95348,6,0,L|385:94,1,84.5,2|0,0:0|0:0,0:0:0:0:
298,109,95701,2,0,L|292:16,1,84.5,2|0,0:0|0:0,0:0:0:0:
457,147,96053,2,0,P|498:69|434:36,1,169,2|2,0:0|0:0,0:0:0:0:
363,40,96583,1,2,0:0:0:0:
110,92,96759,6,0,L|94:192,1,84.5,6|0,0:0|0:0,0:0:0:0:
262,232,97112,2,0,P|312:154|244:116,1,169,10|2,0:0|0:0,0:0:0:0:
182,110,97642,1,0,0:0:0:0:
262,99,97818,2,0,L|371:102,1,84.5,10|0,0:0|0:0,0:0:0:0:
190,196,98171,6,0,L|187:105,1,84.5,2|0,0:0|0:0,0:0:0:0:
276,115,98524,2,0,L|284:16,1,84.5,10|0,0:0|0:0,0:0:0:0:
121,51,98877,2,0,P|80:138|138:145,1,169,2|10,0:0|0:0,0:0:0:0:
200,145,99406,1,2,0:0:0:0:
356,181,99583,6,0,L|361:69,1,84.5,2|0,0:0|0:0,0:0:0:0:
270,95,99936,2,0,L|269:-2,1,84.5,10|0,0:0|0:0,0:0:0:0:
427,156,100289,2,0,L|249:155,1,169,2|10,0:0|0:0,0:0:0:0:
344,97,100818,1,0,0:0:0:0:
195,177,100995,6,0,L|195:63,1,84.5,2|0,0:0|0:0,0:0:0:0:
280,23,101348,2,0,L|384:24,1,84.5,10|0,0:0|0:0,0:0:0:0:
195,40,101701,1,2,0:0:0:0:
120,65,101877,1,2,0:0:0:0:
112,144,102053,1,10,0:0:0:0:
182,182,102230,1,2,0:0:0:0:
434,250,102406,6,0,L|449:64,1,169,6|0,0:1|0:0,0:0:0:0:
288,123,103112,2,0,L|443:124,1,112.666666666667,2|0,0:0|0:0,0:0:0:0:
341,195,103465,1,0,0:0:0:0:
229,126,103701,1,0,0:0:0:0:
285,122,103818,6,0,P|340:74|266:15,1,169,2|0,0:0|0:0,0:0:0:0:
176,48,104406,1,0,0:0:0:0:
233,60,104524,2,0,L|241:-20,2,56.3333333333333,2|0|0,0:0|0:0|0:0,0:0:0:0:
176,48,104877,2,0,L|175:-19,2,56.3333333333333,0|0|0,0:0|0:0|0:0,0:0:0:0:
322,225,105230,6,0,P|379:175|304:142,1,169,2|0,0:0|0:0,0:0:0:0:
166,205,105936,1,2,0:0:0:0:
223,205,106053,1,0,0:0:0:0:
279,205,106171,1,0,0:0:0:0:
223,205,106289,2,0,L|136:204,2,56.3333333333333,0|0|0,0:0|0:0|0:0,0:0:0:0:
360,188,106642,6,0,P|413:138|333:71,1,169,2|0,0:0|0:0,0:0:0:0:
78,90,107348,2,0,L|52:290,1,169,2|0,0:0|0:0,0:0:0:0:
220,266,108053,6,0,L|218:157,1,84.5,0|0,0:0|0:0,0:0:0:0:
130,166,108406,2,0,L|122:42,1,84.5,0|0,0:0|0:0,0:0:0:0:
371,216,108758,6,0,P|423:153|335:175,1,169,6|10,0:0|0:0,0:0:0:0:
281,116,109287,1,0,0:0:0:0:
128,134,109463,2,0,L|130:27,1,84.5,2|0,0:0|0:0,0:0:0:0:
213,37,109816,2,0,L|321:40,1,84.5,10|0,0:0|0:0,0:0:0:0:
138,194,110169,6,0,L|41:192,2,84.5,2|0|10,0:0|0:0|0:0,0:0:0:0:
227,163,110699,1,0,0:0:0:0:
74,140,110875,2,0,L|76:24,1,84.5,2|0,0:0|0:0,0:0:0:0:
228,55,111228,2,0,L|328:56,1,84.5,10|0,0:0|0:0,0:0:0:0:
151,223,111581,6,0,P|104:150|166:119,1,169,2|10,0:0|0:0,0:0:0:0:
244,111,112110,1,0,0:0:0:0:
401,125,112287,2,0,L|414:19,1,84.5,2|0,0:0|0:0,0:0:0:0:
328,38,112640,1,10,0:0:0:0:
243,37,112816,1,0,0:0:0:0:
243,37,112993,5,2,0:0:0:0:
416,178,113169,2,0,L|426:68,1,84.5,0|10,0:0|0:0,0:0:0:0:
331,87,113522,1,0,0:0:0:0:
169,128,113699,2,0,L|166:19,1,84.5,2|0,0:0|0:0,0:0:0:0:
331,87,114052,2,0,L|448:84,1,84.5,10|2,0:0|0:0,0:0:0:0:
155,248,114405,6,0,P|76:211|173:116,1,253.5,6|0,0:0|0:0,0:0:0:0:
243,133,115110,1,2,0:0:0:0:
157,129,115287,1,2,0:0:0:0:
68,122,115463,1,8,0:0:0:0:
369,209,115816,6,0,P|442:156|341:67,1,253.5,2|2,0:0|0:0,0:0:0:0:
266,104,116522,2,0,L|260:7,1,84.5,2|0,0:0|0:0,0:0:0:0:
344,45,116875,2,0,L|351:-49,1,84.5,10|2,0:0|0:0,0:0:0:0:
189,89,117228,6,0,L|6:89,1,169,2|2,0:0|0:0,0:0:0:0:
301,201,117934,2,0,L|511:202,1,169,2|10,0:0|0:0,0:0:0:0:
174,223,118640,6,0,P|138:127|206:120,1,169,2|0,0:0|0:0,0:0:0:0:
262,120,119169,2,0,L|268:15,1,84.5,2|0,0:0|0:0,0:0:0:0:
183,51,119522,1,10,0:0:0:0:
107,68,119699,1,10,0:0:0:0:
101,147,119875,1,0,0:0:0:0:
175,175,120052,1,0,0:0:0:0:
474,200,120405,6,0,L|249:198,1,169,14|2,0:0|0:0,0:0:0:0:
390,137,120934,1,0,0:0:0:0:
306,131,121110,2,0,L|302:30,1,84.5,10|0,0:0|0:0,0:0:0:0:
465,159,121463,6,0,L|474:-10,1,169,2|10,0:0|0:0,0:0:0:0:
321,89,121993,2,0,L|232:91,1,84.5,0|2,0:0|0:0,0:0:0:0:
323,175,122346,2,0,L|415:175,2,84.5,0|10|2,0:0|0:0|0:0,0:0:0:0:
159,193,122875,6,0,P|117:105|180:67,1,169,2|10,0:0|0:0,0:0:0:0:
249,78,123405,1,0,0:0:0:0:
404,146,123581,2,0,L|416:40,1,84.5,2|0,0:0|0:0,0:0:0:0:
323,55,123934,2,0,L|431:58,1,84.5,10|0,0:0|0:0,0:0:0:0:
148,104,124287,6,0,L|137:232,1,84.5,6|2,0:0|0:0,0:0:0:0:
187,207,124552,1,2,0:0:0:0:
233,208,124640,2,0,L|241:113,1,84.5,10|2,0:0|0:0,0:0:0:0:
80,104,124993,2,0,L|73:215,1,84.5,6|0,0:0|0:0,0:0:0:0:
157,239,125346,1,14,0:0:0:0:
115,239,125434,1,0,0:0:0:0:
73,239,125522,1,0,0:0:0:0:
232,171,125699,5,2,2:1:0:0:
256,192,125875,12,10,126757,1:0:0:0:
370,168,127110,6,0,P|422:115|350:63,1,169,14|10,0:0|0:0,0:0:0:0:
281,54,127640,1,0,0:0:0:0:
112,119,127816,1,2,0:0:0:0:
202,132,127993,2,0,L|205:29,1,84.5,0|10,0:0|0:0,0:0:0:0:
31,68,128346,6,0,L|29:173,1,84.5,0|2,0:0|0:0,0:0:0:0:
116,177,128699,1,0,0:0:0:0:
284,120,128875,2,0,L|389:120,1,84.5,10|0,0:0|0:0,0:0:0:0:
108,220,129228,2,0,L|109:112,1,84.5,2|0,0:0|0:0,0:0:0:0:
201,137,129581,1,10,0:0:0:0:
108,136,129757,6,0,L|19:136,2,84.5,2|2|0,0:0|0:0|0:0,0:0:0:0:
289,149,130287,2,0,L|292:56,1,84.5,10|0,0:0|0:0,0:0:0:0:
201,59,130640,1,2,0:0:0:0:
291,65,130816,2,0,L|394:65,2,84.5,0|10|0,0:0|0:0|0:0,0:0:0:0:
30,203,131346,6,0,L|27:98,1,84.5,2|0,0:0|0:0,0:0:0:0:
118,95,131699,2,0,L|247:94,1,84.5,10|0,0:0|0:0,0:0:0:0:
118,95,132052,2,0,L|116:-8,1,84.5,2|0,0:0|0:0,0:0:0:0:
289,173,132405,2,0,L|405:173,1,84.5,10|0,0:0|0:0,0:0:0:0:
131,62,132758,6,0,L|121:167,1,84.5,0|0,0:0|0:0,0:0:0:0:
385,212,133110,2,0,P|432:137|366:125,1,169,14|2,0:0|0:0,0:0:0:0:
293,105,133640,1,0,0:0:0:0:
379,106,133816,2,0,L|390:2,1,84.5,10|0,0:0|0:0,0:0:0:0:
231,49,134169,5,2,0:0:0:0:
156,71,134346,1,0,0:0:0:0:
152,150,134522,1,10,0:0:0:0:
225,181,134699,1,0,0:0:0:0:
383,126,134875,2,0,L|396:18,1,84.5,2|0,0:0|0:0,0:0:0:0:
232,82,135228,2,0,L|115:86,1,84.5,10|0,0:0|0:0,0:0:0:0:
232,82,135581,6,0,L|241:-20,1,84.5,2|0,0:0|0:0,0:0:0:0:
88,70,135934,2,0,L|3:68,2,84.5,10|0|2,0:0|0:0|0:0,0:0:0:0:
244,172,136463,1,0,0:0:0:0:
160,172,136640,1,10,0:0:0:0:
78,175,136816,1,0,0:0:0:0:
160,172,136993,1,2,0:0:0:0:
411,193,137169,5,14,0:0:0:0:
450,181,137257,1,2,0:0:0:0:
468,144,137346,1,10,0:0:0:0:
452,106,137434,1,0,0:0:0:0:
413,93,137522,1,0,0:0:0:0:
165,128,137699,1,14,0:0:0:0:
163,85,137787,1,0,0:0:0:0:
162,43,137875,1,0,0:0:0:0:
324,43,138052,2,0,L|461:43,1,84.5,10|0,0:0|0:0,0:0:0:0:
143,235,138405,6,0,L|139:120,1,84.5,14|0,0:0|0:0,0:0:0:0:
382,161,138757,2,0,P|430:98|345:55,1,169,10|2,0:0|0:0,0:0:0:0:
285,47,139287,1,0,0:0:0:0:
364,71,139463,2,0,L|368:-19,1,84.5,10|0,0:0|0:0,0:0:0:0:
210,132,139816,6,0,L|207:25,1,84.5,2|0,0:0|0:0,0:0:0:0:
291,68,140169,2,0,L|304:-38,1,84.5,10|0,0:0|0:0,0:0:0:0:
146,47,140522,2,0,P|111:139|164:146,1,169,2|10,0:0|0:0,0:0:0:0:
231,142,141052,1,0,0:0:0:0:
149,110,141228,6,0,L|147:0,1,84.5,2|0,0:0|0:0,0:0:0:0:
312,149,141581,2,0,L|414:149,2,84.5,10|0|2,0:0|0:0|0:0,0:0:0:0:
226,147,142110,2,0,L|221:34,1,84.5,0|10,0:0|0:0,0:0:0:0:
315,61,142463,1,0,0:0:0:0:
77,145,142640,6,0,L|74:10,1,84.5,2|0,0:0|0:0,0:0:0:0:
229,83,142993,2,0,L|237:-29,1,84.5,10|0,0:0|0:0,0:0:0:0:
144,47,143346,2,0,L|142:-53,1,84.5,2|0,0:0|0:0,0:0:0:0:
297,112,143699,2,0,L|416:119,2,84.5,10|0|0,0:0|0:0|0:0,0:0:0:0:
33,248,144405,6,0,L|31:134,1,84.5,14|0,0:0|0:0,0:0:0:0:
303,146,144757,2,0,L|456:143,1,126.75,14|14,0:0|0:0,0:0:0:0:
96,254,145287,6,0,P|46:178|140:169,1,169,14|0,0:0|0:0,0:0:0:0:
182,149,145816,2,0,L|307:152,1,84.5,10|0,0:0|0:0,0:0:0:0:
110,227,146169,2,0,L|109:109,1,84.5,2|0,0:0|0:0,0:0:0:0:
196,139,146522,2,0,L|101:138,1,84.5,10|0,0:0|0:0,0:0:0:0:
356,185,146875,6,0,L|360:68,1,84.5,6|0,0:0|0:0,0:0:0:0:
270,106,147228,2,0,L|84:103,1,169,10|6,0:0|0:0,0:0:0:0:
191,174,147757,1,0,0:0:0:0:
344,149,147934,2,0,L|350:51,1,84.5,10|0,0:0|0:0,0:0:0:0:
107,79,148287,6,0,P|62:160|144:152,1,169,6|10,0:0|0:0,0:0:0:0:
188,176,148816,1,0,0:0:0:0:
346,155,148993,2,0,L|363:42,1,84.5,0|0,0:0|0:0,0:0:0:0:
202,97,149346,1,10,0:0:0:0:
201,54,149434,1,0,0:0:0:0:
200,12,149522,1,0,0:0:0:0:
357,79,149699,6,0,L|479:80,1,84.5,0|6,0:0|0:0,0:0:0:0:
186,187,150052,1,6,0:0:0:0:
186,187,150581,1,6,0:0:0:0:
434,123,150757,1,6,0:0:0:0:
308,82,151110,6,0,L|451:200,1,169,6|6,0:0|0:0,0:0:0:0:
155,178,151816,1,6,0:0:0:0:
85,138,151993,1,0,0:0:0:0:
89,58,152169,1,0,0:0:0:0:
162,25,152346,1,0,0:0:0:0:
410,201,152522,6,0,L|414:103,1,84.5,6|0,0:0|0:0,0:0:0:0:
144,169,152875,2,0,P|69:115|188:18,1,253.5,10|0,0:0|0:0,0:0:0:0:
230,51,153581,1,10,0:0:0:0:
399,200,153757,6,0,L|175:197,1,169,0|0,0:0|0:0,0:0:0:0:
315,141,154287,2,0,L|321:45,1,84.5,10|0,0:0|0:0,0:0:0:0:
154,70,154640,2,0,L|148:-25,1,84.5,2|0,0:0|0:0,0:0:0:0:
234,31,154993,2,0,L|333:33,1,84.5,10|0,0:0|0:0,0:0:0:0:
159,147,155346,6,0,L|146:41,1,84.5,2|0,0:0|0:0,0:0:0:0:
301,98,155699,2,0,L|392:96,1,84.5,10|0,0:0|0:0,0:0:0:0:
301,98,156052,2,0,L|288:1,1,84.5,2|0,0:0|0:0,0:0:0:0:
446,24,156405,2,0,L|454:142,1,84.5,10|0,0:0|0:0,0:0:0:0:
194,179,156757,6,0,L|106:178,1,84.5,2|0,0:0|0:0,0:0:0:0:
194,179,157110,2,0,L|194:60,1,84.5,10|0,0:0|0:0,0:0:0:0:
37,89,157463,2,0,L|24:-10,1,84.5,2|0,0:0|0:0,0:0:0:0:
110,57,157816,2,0,L|22:55,1,84.5,10|0,0:0|0:0,0:0:0:0:
282,167,158169,6,0,L|381:171,1,84.5,6|0,0:0|0:0,0:0:0:0:
209,179,158522,2,0,L|199:83,1,84.5,10|0,0:0|0:0,0:0:0:0:
281,88,158875,2,0,L|377:89,1,84.5,6|0,0:0|0:0,0:0:0:0:
203,105,159228,2,0,L|196:0,1,84.5,10|0,0:0|0:0,0:0:0:0:
357,64,159581,6,0,L|478:67,2,84.5,6|0|10,0:0|0:0|0:0,0:0:0:0:
192,218,160110,2,0,P|141:147|209:131,1,169,0|0,0:0|0:0,0:0:0:0:
353,162,160640,1,10,0:0:0:0:
353,119,160728,1,0,0:0:0:0:
354,77,160816,1,0,0:0:0:0:
104,226,160993,6,0,P|6:183|138:67,1,338,6|2,0:0|0:0,0:0:0:0:
277,141,161875,1,0,0:0:0:0:
195,130,162052,1,10,0:0:0:0:
114,127,162228,1,0,0:0:0:0:
375,211,162405,6,0,L|378:106,1,84.5,2|6,0:0|0:0,0:0:0:0:
223,101,162757,2,0,L|214:4,1,84.5,14|0,0:0|0:0,0:0:0:0:
378,42,163110,1,6,0:0:0:0:
419,46,163199,1,0,0:0:0:0:
452,72,163287,1,0,0:0:0:0:
465,111,163375,1,0,0:0:0:0:
456,151,163463,1,14,0:0:0:0:
426,181,163552,1,0,0:0:0:0:
385,189,163640,1,0,0:0:0:0:
123,150,163816,5,14,0:0:0:0:
201,142,163993,2,0,L|203:24,1,84.5,0|10,0:0|0:0,0:0:0:0:
127,59,164346,1,0,0:0:0:0:
277,192,164522,2,0,L|386:190,1,84.5,2|0,0:0|0:0,0:0:0:0:
277,192,164875,2,0,L|270:88,1,84.5,10|0,0:0|0:0,0:0:0:0:
426,127,165228,6,0,L|223:123,1,169,2|10,0:0|0:0,0:0:0:0:
344,196,165757,2,0,L|354:92,1,84.5,0|2,0:0|0:0,0:0:0:0:
267,108,166110,2,0,L|147:110,1,84.5,0|10,0:0|0:0,0:0:0:0:
267,189,166463,1,0,0:0:0:0:
428,186,166640,6,0,L|427:73,1,84.5,2|0,0:0|0:0,0:0:0:0:
261,78,166993,2,0,L|142:80,1,84.5,10|0,0:0|0:0,0:0:0:0:
264,204,167346,1,2,0:0:0:0:
348,174,167522,1,0,0:0:0:0:
348,94,167699,1,10,0:0:0:0:
264,61,167875,1,0,0:0:0:0:
17,204,168052,6,0,P|28:118|142:99,1,169,2|10,0:0|0:0,0:0:0:0:
241,172,168581,2,0,L|239:79,1,84.5,0|2,0:0|0:0,0:0:0:0:
156,89,168934,2,0,L|21:86,2,84.5,0|10|0,0:0|0:0|0:0,0:0:0:0:
414,241,169463,6,0,L|419:135,1,84.5,14|0,0:0|0:0,0:0:0:0:
332,154,169816,2,0,L|212:156,2,84.5,10|0|2,0:0|0:0|0:0,0:0:0:0:
169,97,170346,2,0,L|70:100,2,84.5,0|10|0,0:0|0:0|0:0,0:0:0:0:
330,172,170875,6,0,L|334:62,1,84.5,2|0,0:0|0:0,0:0:0:0:
251,93,171228,1,10,0:0:0:0:
407,137,171405,2,0,L|409:36,1,84.5,0|2,0:0|0:0,0:0:0:0:
325,52,171757,1,0,0:0:0:0:
406,49,171934,1,10,0:0:0:0:
488,52,172110,1,2,0:0:0:0:
225,220,172287,6,0,P|176:140|247:122,1,169,2|10,0:0|0:0,0:0:0:0:
382,178,172816,2,0,L|388:74,1,84.5,0|2,0:0|0:0,0:0:0:0:
229,104,173169,2,0,L|444:105,1,169,0|0,0:0|0:0,0:0:0:0:
140,203,173699,5,2,0:0:0:0:
221,160,173875,1,2,0:0:0:0:
221,117,173963,1,2,0:0:0:0:
221,75,174052,1,10,0:0:0:0:
308,73,174228,1,0,0:0:0:0:
396,74,174405,1,2,0:0:0:0:
479,98,174581,1,0,0:0:0:0:
481,177,174757,1,10,0:0:0:0:
395,207,174934,1,0,0:0:0:0:
120,214,175110,6,0,P|72:142|141:124,1,169,6|0,0:0|0:0,0:0:0:0:
279,175,175640,2,0,L|279:77,1,84.5,2|0,0:0|0:0,0:0:0:0:
199,87,175993,1,8,0:0:0:0:
275,81,176169,1,0,0:0:0:0:
356,83,176346,1,0,0:0:0:0:
98,174,176522,6,0,L|3:173,2,84.5,2|2|0,0:0|0:0|0:0,0:0:0:0:
261,180,177052,2,0,L|256:85,1,84.5,2|0,0:0|0:0,0:0:0:0:
175,91,177405,2,0,L|56:93,2,84.5,8|0|2,0:0|0:0|0:0,0:0:0:0:
428,123,177934,6,0,L|427:237,1,84.5,2|0,0:0|0:0,0:0:0:0:
270,217,178287,2,0,L|170:216,1,84.5,12|0,0:0|0:0,0:0:0:0:
273,174,178640,2,0,L|273:69,1,84.5,2|0,0:0|0:0,0:0:0:0:
113,103,178993,2,0,L|107:7,1,84.5,12|0,0:0|0:0,0:0:0:0:
371,132,179346,6,0,L|468:128,2,84.5,2|2|14,0:0|0:0|0:0,0:0:0:0:
209,162,179875,2,0,L|201:59,1,84.5,2|0,0:0|0:0,0:0:0:0:
284,62,180228,1,2,0:0:0:0:
125,57,180405,2,0,L|31:56,1,84.5,10|2,0:0|0:0,0:0:0:0:
315,221,180757,6,0,P|365:145|278:130,1,169,14|10,0:0|0:0,0:0:0:0:
230,111,181287,1,0,0:0:0:0:
377,147,181463,2,0,L|384:51,1,84.5,6|0,0:0|0:0,0:0:0:0:
301,52,181816,2,0,L|177:54,1,84.5,10|0,0:0|0:0,0:0:0:0:
470,85,182169,6,0,L|476:209,1,84.5,6|0,0:0|0:0,0:0:0:0:
390,212,182522,2,0,L|475:209,1,84.5,10|0,0:0|0:0,0:0:0:0:
217,106,182875,2,0,L|111:106,1,84.5,6|0,0:0|0:0,0:0:0:0:
287,192,183228,2,0,L|374:201,1,84.5,10|0,0:0|0:0,0:0:0:0:
115,238,183581,6,0,P|76:161|146:132,1,169,6|10,0:0|0:0,0:0:0:0:
286,129,184110,2,0,L|293:17,1,84.5,0|2,0:0|0:0,0:0:0:0:
205,101,184463,2,0,L|200:-11,1,84.5,0|10,0:0|0:0,0:0:0:0:
281,24,184816,1,0,0:0:0:0:
124,156,184993,5,2,0:0:0:0:
205,147,185169,1,6,0:0:0:0:
206,104,185257,1,2,0:0:0:0:
207,62,185346,1,10,0:0:0:0:
124,156,185522,1,0,0:0:0:0:
286,215,185699,2,0,L|388:214,1,84.5,6|0,0:0|0:0,0:0:0:0:
206,125,186052,2,0,L|89:124,1,84.5,14|0,0:0|0:0,0:0:0:0:
386,242,186405,6,0,P|470:162|356:150,1,253.5,6|0,0:0|0:0,0:0:0:0:
290,130,187110,1,2,0:0:0:0:
376,123,187287,2,0,L|375:13,1,84.5,2|8,0:0|0:0,0:0:0:0:
103,242,187816,6,0,P|19:162|133:150,1,253.5,2|2,0:0|0:0,0:0:0:0:
199,130,188522,2,0,L|205:30,1,84.5,2|0,0:0|0:0,0:0:0:0:
118,72,188875,2,0,L|119:-26,1,84.5,10|0,0:0|0:0,0:0:0:0:
286,75,189228,6,0,L|472:74,1,169,2|0,0:0|0:0,0:0:0:0:
177,199,189934,2,0,L|5:199,1,169,2|10,0:0|0:0,0:0:0:0:
90,141,190463,1,0,0:0:0:0:
254,156,190640,6,0,L|352:157,2,84.5,2|0|0,0:0|0:0|0:0,0:0:0:0:
93,114,191169,2,0,L|85:9,1,84.5,2|0,0:0|0:0,0:0:0:0:
240,36,191522,2,0,L|246:146,1,84.5,10|10,0:0|0:0,0:0:0:0:
163,142,191875,1,2,0:0:0:0:
78,140,192052,1,0,0:0:0:0:
492,273,192405,6,0,P|485:178|335:126,1,253.5,6|0,0:0|0:0,0:0:0:0:
271,117,193110,1,10,0:0:0:0:
352,118,193287,1,0,0:0:0:0:
198,201,193463,6,0,P|160:109|228:98,1,169,2|10,0:0|0:0,0:0:0:0:
286,89,193993,1,0,0:0:0:0:
137,149,194169,2,0,L|124:36,1,84.5,2|0,0:0|0:0,0:0:0:0:
281,94,194522,2,0,L|414:95,1,84.5,10|2,0:0|0:0,0:0:0:0:
107,225,194875,6,0,P|62:146|147:117,1,169,2|10,0:0|0:0,0:0:0:0:
191,103,195405,1,0,0:0:0:0:
345,188,195581,2,0,L|348:80,1,84.5,2|0,0:0|0:0,0:0:0:0:
191,103,195934,2,0,L|176:-8,1,84.5,10|0,0:0|0:0,0:0:0:0:
446,116,196287,5,6,0:0:0:0:
366,180,196463,1,2,0:0:0:0:
408,180,196552,1,2,0:0:0:0:
450,180,196640,1,10,0:0:0:0:
366,180,196816,1,0,0:0:0:0:
214,215,196993,2,0,L|218:98,1,84.5,6|10,0:0|0:0,0:0:0:0:
304,109,197346,1,14,0:0:0:0:
52,42,197522,6,0,P|8:160|326:191,1,591.5,0|0,0:0|0:0,0:0:0:0:
256,192,199110,12,10,200169,1:0:0:0:
120,200,200522,6,0,P|146:112|243:100,1,169,14|0,0:0|0:0,0:0:0:0:
375,123,201228,2,0,L|389:232,1,84.5,0|0,0:0|0:0,0:0:0:0:
141,253,201757,6,0,L|341:243,1,169,0|0,0:0|0:0,0:0:0:0:
226,179,202287,1,0,0:0:0:0:
142,160,202463,1,0,0:0:0:0:
305,193,202640,2,0,P|347:114|277:97,1,169,0|8,0:0|0:0,0:0:0:0:
213,80,203169,1,2,0:0:0:0:
131,78,203346,5,2,0:0:0:0:
287,177,203699,1,0,0:0:0:0:
126,137,204052,2,0,L|111:33,1,84.5,0|0,0:0|0:0,0:0:0:0:
383,66,204581,6,0,P|433:137|366:182,1,169,0|0,0:0|0:0,0:0:0:0:
217,202,205110,2,0,L|209:81,1,84.5,0|0,0:0|0:0,0:0:0:0:
293,110,205463,2,0,L|290:2,1,84.5,0|8,0:0|0:0,0:0:0:0:
202,30,205816,2,0,L|101:57,1,84.5,0|2,0:0|0:0,0:0:0:0:
358,195,206169,6,0,L|362:92,1,84.5,6|0,0:0|0:0,0:0:0:0:
117,145,206522,2,0,P|69:75|126:55,1,169,0|0,0:0|0:0,0:0:0:0:
221,73,207052,1,0,0:0:0:0:
140,66,207228,1,0,0:0:0:0:
55,54,207405,1,2,0:0:0:0:
305,173,207581,5,6,0:0:0:0:
226,179,207757,2,0,L|223:69,1,84.5,0|0,0:0|0:0,0:0:0:0:
308,74,208110,1,0,0:0:0:0:
154,107,208287,2,0,L|156:-1,1,84.5,0|0,0:0|0:0,0:0:0:0:
308,74,208640,2,0,L|427:76,1,84.5,10|2,0:0|0:0,0:0:0:0:
134,214,208993,5,6,0:0:0:0:
64,173,209169,1,0,0:0:0:0:
68,93,209346,1,10,0:0:0:0:
141,59,209522,1,0,0:0:0:0:
302,144,209699,2,0,L|184:145,3,84.5,6|0|10|0,0:0|0:0|0:0|0:0,0:0:0:0:
366,197,210581,5,14,0:0:0:0:
209,131,210757,2,0,L|201:21,1,84.5,10|0,0:0|0:0,0:0:0:0:
352,77,211110,2,0,L|356:-19,1,84.5,14|0,0:0|0:0,0:0:0:0:
106,99,211463,2,0,L|99:-13,1,84.5,14|0,0:0|0:0,0:0:0:0:
362,179,211816,6,0,P|414:253|362:271,1,169,14|10,0:0|0:0,0:0:0:0:
288,267,212346,1,0,0:0:0:0:
134,179,212522,1,2,0:0:0:0:
284,168,212699,2,0,L|284:64,1,84.5,0|10,0:0|0:0,0:0:0:0:
126,103,213052,6,0,L|307:108,1,169,0|0,0:0|0:0,0:0:0:0:
215,197,213581,2,0,L|212:82,1,84.5,10|0,0:0|0:0,0:0:0:0:
369,113,213934,2,0,P|421:185|348:191,1,169,2|10,0:0|0:0,0:0:0:0:
294,204,214463,1,2,0:0:0:0:
144,143,214640,6,0,L|142:35,1,84.5,2|0,0:0|0:0,0:0:0:0:
226,50,214993,2,0,L|101:50,2,84.5,10|0|2,0:0|0:0|0:0,0:0:0:0:
386,91,215522,2,0,L|394:204,1,84.5,0|10,0:0|0:0,0:0:0:0:
302,184,215875,1,0,0:0:0:0:
42,140,216052,6,0,L|36:26,1,84.5,2|0,0:0|0:0,0:0:0:0:
127,84,216405,2,0,L|19:84,1,84.5,10|0,0:0|0:0,0:0:0:0:
202,85,216757,2,0,L|292:91,1,84.5,2|0,0:0|0:0,0:0:0:0:
121,196,217110,2,0,L|6:196,1,84.5,10|0,0:0|0:0,0:0:0:0:
121,196,217463,5,0,0:0:0:0:
387,255,217816,2,0,L|393:138,1,84.5,14|0,0:0|0:0,0:0:0:0:
127,138,218169,2,0,P|94:72|130:46,1,126.75,14|14,0:0|0:0,0:0:0:0:
455,194,218699,6,0,L|257:194,1,169,14|0,0:0|0:0,0:0:0:0:
370,132,219228,2,0,L|376:35,1,84.5,10|0,0:0|0:0,0:0:0:0:
116,134,219581,2,0,L|98:34,1,84.5,2|0,0:0|0:0,0:0:0:0:
251,72,219934,2,0,L|354:73,1,84.5,10|2,0:0|0:0,0:0:0:0:
82,181,220287,6,0,L|66:82,1,84.5,6|0,0:0|0:0,0:0:0:0:
232,99,220640,1,10,0:0:0:0:
390,132,220993,2,0,L|285:131,1,84.5,6|0,0:0|0:0,0:0:0:0:
144,172,221346,2,0,L|138:53,1,84.5,10|2,0:0|0:0,0:0:0:0:
430,129,221699,5,6,0:0:0:0:
506,149,221875,1,0,0:0:0:0:
504,229,222052,1,10,0:0:0:0:
431,257,222228,1,0,0:0:0:0:
179,179,222405,1,2,0:0:0:0:
176,136,222493,1,0,0:0:0:0:
174,94,222581,1,0,0:0:0:0:
334,115,222757,1,10,0:0:0:0:
376,116,222846,1,0,0:0:0:0:
418,117,222934,1,0,0:0:0:0:
334,115,223110,5,0,0:0:0:0:
92,184,223287,2,0,L|88:59,1,84.5,6|6,0:0|0:0,0:0:0:0:
320,176,223993,1,6,0:0:0:0:
77,175,224169,2,0,L|73:68,1,84.5,6|0,0:0|0:0,0:0:0:0:
332,107,224522,6,0,P|386:160|320:203,1,169,6|6,0:0|0:0,0:0:0:0:
89,144,225228,1,6,0:0:0:0:
375,152,225581,2,0,L|374:46,1,84.5,0|0,0:0|0:0,0:0:0:0:
114,174,225934,6,0,L|102:80,1,84.5,6|0,0:0|0:0,0:0:0:0:
379,79,226287,2,0,P|468:110|366:171,1,253.5,10|0,0:0|0:0,0:0:0:0:
297,191,226993,2,0,L|389:190,1,84.5,10|0,0:0|0:0,0:0:0:0:
228,258,227346,6,0,P|158:208|253:103,1,253.5,2|0,0:0|0:0,0:0:0:0:
408,109,228052,2,0,P|421:168|267:241,1,253.5,2|0,0:0|0:0,0:0:0:0:
431,208,228757,6,0,L|431:107,1,84.5,2|0,0:0|0:0,0:0:0:0:
271,122,229110,2,0,L|166:122,1,84.5,10|0,0:0|0:0,0:0:0:0:
271,122,229463,2,0,L|276:19,1,84.5,2|0,0:0|0:0,0:0:0:0:
120,40,229816,2,0,L|25:45,1,84.5,10|0,0:0|0:0,0:0:0:0:
188,229,230169,6,0,P|259:185|155:85,1,253.5,2|0,0:0|0:0,0:0:0:0:
96,88,230875,1,2,0:0:0:0:
250,131,231052,1,0,0:0:0:0:
96,88,231228,2,0,L|87:-8,1,84.5,10|0,0:0|0:0,0:0:0:0:
172,109,231581,6,0,L|70:108,1,84.5,6|0,0:0|0:0,0:0:0:0:
353,261,231934,2,0,P|419:225|336:112,1,253.5,10|0,0:0|0:0,0:0:0:0:
185,159,232640,2,0,L|176:44,1,84.5,10|0,0:0|0:0,0:0:0:0:
263,52,232993,6,0,L|150:56,1,84.5,2|0,0:0|0:0,0:0:0:0:
336,170,233346,2,0,L|432:172,2,84.5,10|0|2,0:0|0:0|0:0,0:0:0:0:
182,120,233875,1,0,0:0:0:0:
337,168,234052,2,0,L|338:78,1,84.5,10|0,0:0|0:0,0:0:0:0:
83,174,234405,6,0,L|67:73,1,84.5,2|0,0:0|0:0,0:0:0:0:
226,108,234757,2,0,L|317:108,1,84.5,10|0,0:0|0:0,0:0:0:0:
158,161,235110,2,0,L|153:55,1,84.5,2|0,0:0|0:0,0:0:0:0:
314,89,235463,2,0,L|414:89,1,84.5,10|0,0:0|0:0,0:0:0:0:
134,170,235816,6,0,L|128:66,1,84.5,10|0,0:0|0:0,0:0:0:0:
284,106,236169,2,0,L|291:-2,1,84.5,10|0,0:0|0:0,0:0:0:0:
32,113,236522,2,0,L|29:22,1,84.5,10|0,0:0|0:0,0:0:0:0:
187,59,236875,2,0,L|293:62,1,84.5,10|0,0:0|0:0,0:0:0:0:
18,155,237228,2,0,L|14:53,1,84.5,14|0,0:0|0:0,0:0:0:0:
269,107,237581,6,0,P|339:137|261:246,1,253.5,10|0,0:0|0:0,0:0:0:0:
181,201,238287,1,10,0:0:0:0:
348,217,238463,6,0,L|353:40,1,169,0|0,0:0|0:0,0:0:0:0:
270,58,238993,1,10,0:0:0:0:
355,59,239169,1,0,0:0:0:0:
196,200,239346,2,0,P|135:163|233:61,1,253.5,2|0,0:0|0:0,0:0:0:0:
377,171,240052,2,0,L|380:65,1,84.5,2|0,0:0|0:0,0:0:0:0:
226,74,240405,6,0,L|112:76,1,84.5,10|0,0:0|0:0,0:0:0:0:
226,74,240757,2,0,L|231:163,1,84.5,2|0,0:0|0:0,0:0:0:0:
72,192,241110,2,0,L|61:84,1,84.5,10|0,0:0|0:0,0:0:0:0:
319,119,241463,6,0,P|423:148|302:283,1,338,2|2,0:0|0:0,0:0:0:0:
180,188,242346,1,0,0:0:0:0:
329,202,242522,2,0,L|331:93,1,84.5,10|0,0:0|0:0,0:0:0:0:
249,113,242875,2,0,L|337:117,1,84.5,2|2,0:0|0:0,0:0:0:0:
74,206,243228,6,0,L|64:101,1,84.5,14|0,0:0|0:0,0:0:0:0:
147,98,243581,2,0,L|42:98,1,84.5,2|2,0:0|0:0,0:0:0:0:
326,173,243934,2,0,L|328:69,1,84.5,14|0,0:0|0:0,0:0:0:0:
245,81,244287,2,0,L|136:79,1,84.5,2|2,0:0|0:0,0:0:0:0:
416,191,244640,6,0,L|428:79,1,84.5,14|0,0:0|0:0,0:0:0:0:
347,109,244993,2,0,L|444:109,1,84.5,2|2,0:0|0:0,0:0:0:0:
170,129,245346,2,0,L|156:28,1,84.5,14|0,0:0|0:0,0:0:0:0:
415,60,245699,6,0,P|470:84|409:152,1,169,14|14,0:0|0:0,0:0:0:0:
341,145,246228,1,2,0:0:0:0:
182,137,246405,2,0,L|170:46,1,84.5,14|2,0:0|0:0,0:0:0:0:
427,134,246757,6,0,L|431:29,1,84.5,14|2,0:0|0:0,0:0:0:0:
256,192,247110,12,0,248522,0:0:0:0:
307,196,248875,5,6,0:0:0:0:
256,192,249052,12,0,251346,0:0:0:0:
