osu file format v14

[General]
AudioFilename: audio.mp3
AudioLeadIn: 0
PreviewTime: 54377
Countdown: 0
SampleSet: Normal
StackLeniency: 0.7
Mode: 2
LetterboxInBreaks: 0
WidescreenStoryboard: 0

[Editor]
Bookmarks: 7113,12760,18407,24054,29701,36053,41701,47701,51583,54406,60406,64465,65701,71701,76995,79818,85465,91112,96759,102406,108758,114405,120405,124287,127110,133110,137169,138405,144405,149875,152522,158169,163816,169463,175110,180757,186405,192405,196287,200522,206169,208993,211816,217816,223287,225934,231581,237228,243228,245699,248875
DistanceSpacing: 1.5
BeatDivisor: 4
GridSize: 32
TimelineZoom: 2.2

[Metadata]
Title:Say! Fanfare!
TitleUnicode:Say!ファンファーレ!
Artist:Shirakami Fubuki
ArtistUnicode:白上フブキ
Creator:Bastian
Version:Friend
Source:
Tags:jorkseljund secre chickenbible japanese j-pop pop jpop female vocals ホロライブ hololive FUBUKI Original Song BIRTHDAY PARTY 2019 FBKBP2019 1st fes ノンストップ・ストーリー Nonstop Story vtuber virtual youtuber ハム Foxtail-Grass Studio アシノ Muse Dash video rhythm game
BeatmapID:2860643
BeatmapSetID:1384681

[Difficulty]
HPDrainRate:5
CircleSize:4
OverallDifficulty:9
ApproachRate:9
SliderMultiplier:2
SliderTickRate:2

[Events]
//Background and Video events
Video,0,"FANFARE!.mp4"
0,0,"DOKOMITENDA.jpeg",0,0
//Break Periods
//Storyboard Layer 0 (Background)
//Storyboard Layer 1 (Fail)
//Storyboard Layer 2 (Pass)
//Storyboard Layer 3 (Foreground)
//Storyboard Layer 4 (Overlay)
//Storyboard Sound Samples

[TimingPoints]
1466,352.941176470588,4,1,1,40,1,0
7113,-100,4,1,1,60,0,0
18407,-100,4,1,1,50,0,0
29701,-100,4,2,1,45,0,0
36054,352.941176470588,4,1,1,55,1,0
41701,-100,4,1,1,50,0,0
47701,-100,4,1,1,60,0,0
52995,-100,4,2,1,60,0,0
54406,-100,4,1,1,75,0,1
60053,-100,4,1,1,75,0,0
60406,-100,4,1,1,75,0,1
71348,-100,4,1,1,75,0,0
71701,-100,4,1,1,75,0,1
76995,-100,4,1,1,75,0,0
79818,-100,4,1,1,60,0,0
91112,-100,4,1,1,50,0,0
102406,-100,4,2,1,45,0,0
108758,352.941176470588,4,1,1,55,1,0
114405,-100,4,1,1,50,0,0
120405,-100,4,1,1,60,0,0
125699,-100,4,1,1,60,0,0
127110,-100,4,1,1,75,0,1
132758,-100,4,1,1,75,0,0
133110,-100,4,1,1,75,0,1
144052,-100,4,1,1,75,0,0
144405,-100,4,1,1,75,0,1
149699,-100,4,1,1,75,0,0
152522,-100,4,1,1,70,0,0
163816,-100,4,1,1,75,0,1
175110,-100,4,1,1,60,0,0
180757,-100,4,1,1,65,0,0
186405,-100,4,1,1,50,0,0
192405,-100,4,1,1,55,0,0
197699,-100,4,2,1,55,0,0
200522,-100,4,1,1,50,0,0
206169,-100,4,1,1,55,0,0
208993,-100,4,1,1,60,0,0
211816,-100,4,1,1,75,0,1
217463,-100,4,1,1,75,0,0
217816,-100,4,1,1,75,0,1
223110,-100,4,1,1,75,0,0
225934,-100,4,1,1,70,0,0
247110,-100,4,1,1,60,0,0
249934,-100,4,1,1,40,0,0
250640,-100,4,1,1,20,0,0
251346,-100,4,2,1,5,0,0

[Colours]
Combo1 : 255,182,147
Combo2 : 128,255,255
Combo3 : 5,189,250
Combo4 : 243,114,75

[HitObjects]
209,330,1466,6,0,L|322:330,2,100,4|4|12,0:0|0:0|0:0,0:0:0:0:
449,330,1995,1,4,0:0:0:0:
148,338,2701,6,0,L|31:338,2,100,0|0|0,2:0|2:0|2:0,0:0:0:0:
448,338,3407,2,0,P|474:246|374:200,1,200,0|0,2:0|2:0,0:0:0:0:
297,195,3936,1,8,2:1:0:0:
397,195,4113,1,0,0:0:0:0:
266,328,4289,6,0,L|147:328,2,100,4|4|12,0:0|0:0|0:0,0:0:0:0:
25,328,4818,1,4,0:0:0:0:
357,335,5524,6,0,L|130:335,1,200,2|2,0:0|0:0,0:0:0:0:
308,335,6054,2,0,L|361:233,1,100,8|0,0:0|0:0,0:0:0:0:
204,215,6407,2,0,L|204:106,1,100,2|0,0:0|0:0,0:0:0:0:
444,115,6760,2,0,L|444:215,1,100
163,215,7113,6,0,L|163:105,1,100,6|0,0:0|0:0,0:0:0:0:
312,115,7465,1,8,0:0:0:0:
161,115,7642,1,0,0:0:0:0:
312,115,7818,2,0,L|340:226,1,100,2|0,0:0|0:0,0:0:0:0:
485,215,8171,2,0,L|485:316,1,100,10|0,0:0|0:0,0:0:0:0:
244,315,8524,6,0,L|19:315,1,200,2|10,0:0|0:0,0:0:0:0:
144,315,9054,1,0,0:0:0:0:
383,315,9230,2,0,P|445:255|366:191,1,200,2|10,0:0|0:0,0:0:0:0:
227,189,9760,2,0,L|155:189,1,50,0|0,0:0|0:0,0:0:0:0:
336,189,9936,6,0,L|477:189,1,100,2|0,0:0|0:0,0:0:0:0:
285,189,10289,2,0,L|161:189,1,100,10|0,0:0|0:0,0:0:0:0:
335,189,10642,2,0,L|335:83,1,100,2|0,0:0|0:0,0:0:0:0:
184,89,10995,2,0,L|70:89,1,100,10|0,0:0|0:0,0:0:0:0:
324,89,11348,6,0,P|324:157|195:209,1,200,2|10,0:0|0:0,0:0:0:0:
68,216,11877,2,0,L|68:318,1,100,0|2,0:0|0:0,0:0:0:0:
318,316,12230,2,0,L|211:264,2,100,0|10|2,0:0|0:0|0:0,0:0:0:0:
35,316,12760,6,0,L|35:213,1,100,6|0,0:0|0:0,0:0:0:0:
185,216,13113,1,10,0:0:0:0:
35,216,13289,1,0,0:0:0:0:
184,216,13465,2,0,L|318:216,1,100,2|0,0:0|0:0,0:0:0:0:
133,216,13818,2,0,L|15:216,1,100,10|0,0:0|0:0,0:0:0:0:
273,216,14171,6,0,L|273:111,1,100,2|0,0:0|0:0,0:0:0:0:
122,116,14524,2,0,L|122:11,1,100,10|0,0:0|0:0,0:0:0:0:
272,16,14877,2,0,L|416:16,1,100,2|0,0:0|0:0,0:0:0:0:
221,16,15230,2,0,L|94:16,1,100,10|0,0:0|0:0,0:0:0:0:
361,16,15583,6,0,L|361:117,1,100,2|0,0:0|0:0,0:0:0:0:
210,116,15936,2,0,L|210:217,1,100,10|0,0:0|0:0,0:0:0:0:
450,216,16289,2,0,L|450:317,1,100,2|0,0:0|0:0,0:0:0:0:
299,316,16642,1,10,0:0:0:0:
448,316,16818,1,0,0:0:0:0:
207,316,16995,6,0,L|207:208,1,100,2|2,0:0|0:0,0:0:0:0:
307,216,17260,1,2,0:0:0:0:
406,216,17348,2,0,L|406:100,1,100,10|2,0:0|0:0,0:0:0:0:
328,117,17613,1,2,0:0:0:0:
255,116,17701,1,2,0:0:0:0:
404,116,17877,1,10,0:0:0:0:
163,116,18054,1,10,0:0:0:0:
98,145,18142,1,0,0:0:0:0:
99,216,18230,1,0,0:0:0:0:
163,245,18318,1,0,0:0:0:0:
344,245,18407,6,0,L|475:245,1,100,6|0,0:0|0:0,0:0:0:0:
293,245,18760,2,0,P|233:207|312:128,1,200,2|2,0:0|0:0,0:0:0:0:
445,123,19289,2,0,L|445:15,1,100,0|2,0:0|0:0,0:0:0:0:
344,23,19642,1,0,0:0:0:0:
104,23,19818,6,0,L|104:133,1,100,2|0,0:0|0:0,0:0:0:0:
254,123,20171,1,2,0:0:0:0:
103,123,20348,1,0,0:0:0:0:
252,123,20524,2,0,P|316:184|223:245,1,200,2|2,0:0|0:0,0:0:0:0:
102,251,21054,1,2,0:0:0:0:
341,251,21230,6,0,L|341:133,1,100,2|0,0:0|0:0,0:0:0:0:
190,151,21583,2,0,L|190:33,1,100,2|0,0:0|0:0,0:0:0:0:
340,51,21936,2,0,L|454:51,1,100,2|0,0:0|0:0,0:0:0:0:
290,51,22289,2,0,L|190:51,1,100,2|0,0:0|0:0,0:0:0:0:
430,51,22642,6,0,L|430:167,1,100,2|0,0:0|0:0,0:0:0:0:
279,151,22995,1,2,0:0:0:0:
428,151,23171,1,0,0:0:0:0:
277,151,23348,2,0,P|212:204|297:268,1,200,2|2,0:0|0:0,0:0:0:0:
426,272,23877,1,2,0:0:0:0:
145,272,24054,6,0,L|25:272,1,100,6|0,0:0|0:0,0:0:0:0:
195,272,24407,2,0,L|419:272,1,200,10|2,0:0|0:0,0:0:0:0:
244,272,24936,1,0,0:0:0:0:
394,272,25113,2,0,L|394:160,1,100,10|0,0:0|0:0,0:0:0:0:
154,172,25465,6,0,L|154:59,1,100,2|0,0:0|0:0,0:0:0:0:
304,72,25818,2,0,L|433:72,1,100,10|0,0:0|0:0,0:0:0:0:
253,72,26171,2,0,P|146:97|121:182,1,200,2|10,0:0|0:0,0:0:0:0:
271,173,26701,1,2,0:0:0:0:
31,173,26877,6,0,L|31:282,1,100,2|0,0:0|0:0,0:0:0:0:
181,273,27230,2,0,L|317:273,1,100,10|0,0:0|0:0,0:0:0:0:
130,273,27583,2,0,P|85:216|168:182,1,150,2|0,0:0|0:0,0:0:0:0:
231,171,27936,2,0,L|364:171,1,100,10|0,0:0|0:0,0:0:0:0:
90,171,28289,6,0,L|90:49,1,100,2|0,0:0|0:0,0:0:0:0:
240,71,28642,1,8,0:0:0:0:
99,71,28818,1,0,0:0:0:0:
339,71,28995,1,2,0:0:0:0:
405,99,29083,1,2,0:0:0:0:
406,170,29171,1,2,0:0:0:0:
342,200,29259,1,2,0:0:0:0:
180,200,29348,1,10,0:0:0:0:
114,172,29436,1,2,0:0:0:0:
113,101,29524,1,2,0:0:0:0:
177,71,29612,1,2,0:0:0:0:
379,171,29701,6,0,P|418:226|360:268,1,133.333333333333,6|0,0:1|0:0,0:0:0:0:
269,271,30054,2,0,P|229:325|291:359,1,133.333333333333
378,371,30407,2,0,L|378:226,1,133.333333333333,2|0,0:0|0:0,0:0:0:0:
488,221,30760,2,0,L|488:78,1,133.333333333333
301,69,31113,6,0,L|79:69,1,200,2|0,0:0|0:0,0:0:0:0:
276,71,31701,1,0,0:0:0:0:
166,71,31818,2,0,L|166:230,1,133.333333333333,2|0,0:0|0:0,0:0:0:0:
55,221,32171,2,0,L|55:374,1,133.333333333333
216,371,32524,5,2,0:0:0:0:
72,373,32760,2,0,P|9:311|88:249,1,200
191,242,33230,2,0,L|191:84,1,133.333333333333,2|0,0:0|0:0,0:0:0:0:
80,92,33583,2,0,L|80:240,1,133.333333333333
260,236,33936,6,0,P|334:234|362:115,1,200,2|0,0:0|0:0,0:0:0:0:
212,140,34524,1,0,0:0:0:0:
321,140,34642,2,0,P|386:198|303:256,1,200,2|0,0:0|0:0,0:0:0:0:
132,260,35348,5,0,0:0:0:0:
69,238,35465,1,0,0:0:0:0:
32,185,35583,1,0,0:0:0:0:
34,119,35700,1,0,0:0:0:0:
74,68,35818,1,0,0:0:0:0:
137,50,35936,1,0,0:0:0:0:
345,78,36053,6,0,L|467:78,2,100,6|0|10,0:0|0:0|0:0,0:0:0:0:
193,78,36583,2,0,P|193:142|316:202,1,200,0|0,0:0|0:0,0:0:0:0:
149,206,37112,1,10,0:0:0:0:
299,206,37289,6,0,L|428:206,1,100,0|2,0:0|0:0,0:0:0:0:
158,206,37642,1,0,0:0:0:0:
27,208,37818,2,0,L|27:106,1,100,10|0,0:0|0:0,0:0:0:0:
178,108,38171,2,0,L|178:211,1,100,2|0,0:0|0:0,0:0:0:0:
27,208,38524,2,0,L|27:308,1,100,10|0,0:0|0:0,0:0:0:0:
287,306,38877,6,0,P|351:251|261:189,1,200,2|10,0:0|0:0,0:0:0:0:
135,182,39406,1,0,0:0:0:0:
285,182,39583,1,2,0:0:0:0:
135,182,39759,2,0,L|23:182,2,100,0|10|0,0:0|0:0|0:0,0:0:0:0:
397,182,40289,6,0,L|397:289,1,100,2|0,0:0|0:0,0:0:0:0:
246,282,40642,1,10,0:0:0:0:
395,282,40818,1,0,0:0:0:0:
154,282,40995,2,0,L|154:171,1,100,2|0,0:0|0:0,0:0:0:0:
394,182,41348,2,0,L|394:73,1,100,10|2,0:0|0:0,0:0:0:0:
113,82,41701,6,0,L|332:82,1,200,6|0,0:0|0:0,0:0:0:0:
152,82,42230,1,0,0:0:0:0:
311,82,42406,2,0,L|311:186,1,100,2|2,0:0|0:0,0:0:0:0:
150,182,42759,1,8,0:0:0:0:
410,182,43112,6,0,P|473:231|392:300,1,200,2|2,0:0|0:0,0:0:0:0:
256,303,43642,1,2,0:0:0:0:
405,303,43818,2,0,L|405:204,1,100,2|0,0:0|0:0,0:0:0:0:
254,203,44171,1,10,0:0:0:0:
404,203,44348,1,2,0:0:0:0:
164,203,44524,6,0,P|78:201|32:100,1,200,2|0,0:0|0:0,0:0:0:0:
291,108,45230,2,0,L|77:108,1,200,2|10,0:0|0:0,0:0:0:0:
351,108,45936,6,0,P|446:180|391:267,1,200,2|0,0:0|0:0,0:0:0:0:
273,294,46465,2,0,L|150:294,1,100,2|0,0:0|0:0,0:0:0:0:
324,294,46818,2,0,L|424:294,1,100,10|10,0:0|0:0,0:0:0:0:
273,294,47171,2,0,L|39:294,1,200,2|0,0:0|0:0,0:0:0:0:
133,294,47612,1,0,0:0:0:0:
314,294,47701,6,0,L|441:294,2,100,14|0|2,0:0|0:0|0:0,0:0:0:0:
163,294,48230,2,0,L|163:192,1,100,0|10,0:0|0:0,0:0:0:0:
313,194,48583,1,0,0:0:0:0:
73,194,48759,6,0,P|77:131|196:71,1,200,2|10,0:0|0:0,0:0:0:0:
347,69,49289,2,0,L|347:168,1,100,0|2,0:0|0:0,0:0:0:0:
186,169,49642,2,0,L|82:169,2,100,0|10|2,0:0|0:0|0:0,0:0:0:0:
446,169,50171,6,0,L|303:169,1,100,2|0,0:0|0:0,0:0:0:0:
195,169,50524,2,0,L|66:169,1,100,10|0,0:0|0:0,0:0:0:0:
335,169,50877,2,0,L|456:169,3,100,2|0|10|0,0:0|0:0|0:0|0:0,0:0:0:0:
154,169,51583,6,0,L|154:62,1,100,6|2,0:0|0:0,0:0:0:0:
254,69,51848,1,2,0:0:0:0:
353,69,51936,2,0,L|353:182,1,100,10|2,0:0|0:0,0:0:0:0:
112,169,52289,2,0,L|112:274,1,100,6|0,0:0|0:0,0:0:0:0:
352,269,52642,2,0,L|470:269,1,100,14|0,0:0|0:0,0:0:0:0:
256,192,52995,12,0,53701,0:0:0:0:
355,335,53877,5,2,2:1:0:0:
455,335,54053,2,0,L|455:220,1,100,10|0,2:1|0:0,0:0:0:0:
174,235,54406,6,0,L|409:235,1,200,14|10,0:0|0:0,0:0:0:0:
212,235,54936,1,0,0:0:0:0:
371,235,55112,2,0,L|497:235,2,100,2|0|10,0:0|0:0|0:0,0:0:0:0:
108,235,55642,6,0,P|40:182|124:133,1,200,0|0,0:0|0:0,0:0:0:0:
268,126,56171,1,10,0:0:0:0:
107,126,56348,1,0,0:0:0:0:
346,126,56524,2,0,L|345:233,1,100,2|0,0:0|0:0,0:0:0:0:
184,225,56877,2,0,L|75:225,1,100,10|2,0:0|0:0,0:0:0:0:
344,225,57230,6,0,L|459:225,1,100,2|0,0:0|0:0,0:0:0:0:
283,225,57583,2,0,L|383:225,1,100,10|0,0:0|0:0,0:0:0:0:
142,225,57936,2,0,L|31:225,2,100,2|0|10,0:0|0:0|0:0,0:0:0:0:
402,225,58465,6,0,P|426:308|304:352,1,200,0|0,0:0|0:0,0:0:0:0:
184,254,58995,2,0,L|184:361,1,100,10|0,0:0|0:0,0:0:0:0:
344,354,59348,2,0,L|485:354,1,100,2|0,0:0|0:0,0:0:0:0:
203,354,59701,2,0,L|80:354,1,100,10|0,0:0|0:0,0:0:0:0:
342,354,60053,2,0,L|485:354,1,100,2|0,0:0|0:0,0:0:0:0:
381,354,60318,1,0,0:0:0:0:
203,354,60406,6,0,L|203:207,1,100,14|0,0:0|0:0,0:0:0:0:
363,254,60759,2,0,L|255:254,2,100,2|0|10,0:0|0:0|0:0,0:0:0:0:
100,254,61289,6,0,P|101:188|219:131,1,200,0|0,0:0|0:0,0:0:0:0:
368,128,61818,1,10,0:0:0:0:
207,128,61995,2,0,L|80:128,2,100,0|2|0,0:0|0:0|0:0,0:0:0:0:
367,128,62524,2,0,L|367:235,1,100,10|2,0:0|0:0,0:0:0:0:
126,228,62877,6,0,L|126:333,1,100,2|0,0:0|0:0,0:0:0:0:
286,328,63230,1,10,0:0:0:0:
126,328,63406,1,0,0:0:0:0:
366,328,63583,2,0,L|512:328,2,100,2|0|10,0:0|0:0|0:0,0:0:0:0:
105,328,64112,2,0,L|105:222,1,100,0|2,0:0|0:0,0:0:0:0:
385,228,64465,6,0,L|460:228,1,50,14|2,0:0|0:0,0:0:0:0:
273,228,64642,2,0,P|243:192|279:157,1,100,10|0,0:0|0:0,0:0:0:0:
332,157,64906,1,0,0:0:0:0:
493,157,64995,2,0,L|493:51,1,100,14|0,0:0|0:0,0:0:0:0:
252,57,65348,2,0,L|181:57,1,50,10|0,0:0|0:0,0:0:0:0:
361,57,65524,2,0,L|411:57,1,50,0|0,0:0|0:0,0:0:0:0:
229,57,65701,6,0,P|132:62|92:164,1,200,14|10,0:0|0:0,0:0:0:0:
249,145,66230,1,0,0:0:0:0:
89,145,66406,2,0,L|89:245,1,100,2|0,0:0|0:0,0:0:0:0:
189,245,66759,1,10,0:0:0:0:
429,245,66936,6,0,L|218:245,1,200,0|0,0:0|0:0,0:0:0:0:
389,245,67465,2,0,L|513:245,1,100,10|0,0:0|0:0,0:0:0:0:
248,245,67818,2,0,L|122:244,1,100,2|0,0:0|0:0,0:0:0:0:
308,244,68171,2,0,L|414:244,1,100,10|0,0:0|0:0,0:0:0:0:
148,244,68524,6,0,L|148:142,1,100,2|0,0:0|0:0,0:0:0:0:
308,144,68877,1,10,0:0:0:0:
148,144,69053,1,0,0:0:0:0:
388,144,69230,2,0,L|497:144,2,100,2|0|10,0:0|0:0|0:0,0:0:0:0:
147,144,69759,6,0,P|81:180|150:252,1,200,0|0,0:0|0:0,0:0:0:0:
306,253,70289,2,0,L|306:364,1,100,10|0,0:0|0:0,0:0:0:0:
65,353,70642,2,0,L|65:246,1,100,2|0,0:0|0:0,0:0:0:0:
305,253,70995,1,10,0:0:0:0:
145,253,71171,6,0,P|54:189|122:124,1,200,0|0,0:0|0:0,0:0:0:0:
148,132,71612,1,0,0:0:0:0:
329,132,71701,2,0,L|459:132,1,100,14|0,0:0|0:0,0:0:0:0:
189,132,72053,2,0,P|122:133|63:218,1,150,14|14,0:0|0:0,0:0:0:0:
399,190,72583,6,0,P|466:241|388:300,1,200,14|0,0:0|0:0,0:0:0:0:
238,302,73112,1,10,0:0:0:0:
398,302,73289,1,0,0:0:0:0:
238,302,73465,2,0,L|123:302,1,100,2|0,0:0|0:0,0:0:0:0:
298,302,73818,2,0,L|403:302,1,100,10|0,0:0|0:0,0:0:0:0:
137,302,74171,6,0,L|25:302,3,100,6|0|10|0,0:0|0:0|0:0|0:0,0:0:0:0:
297,302,74877,2,0,L|397:302,3,100,6|0|10|2,0:0|0:0|0:0|0:0,0:0:0:0:
136,302,75583,6,0,L|136:199,1,100,6|2,0:0|0:0,0:0:0:0:
296,202,75936,1,10,0:0:0:0:
136,202,76112,1,0,0:0:0:0:
376,202,76289,1,2,0:0:0:0:
440,172,76377,1,0,0:0:0:0:
439,101,76465,1,0,0:0:0:0:
373,73,76553,1,0,0:0:0:0:
212,73,76642,1,10,0:0:0:0:
162,73,76730,1,0,0:0:0:0:
112,73,76818,1,0,0:0:0:0:
392,73,76995,6,0,L|392:180,1,100,0|6,0:0|0:0,0:0:0:0:
151,173,77348,1,6,0:0:0:0:
310,173,77524,1,0,0:0:0:0:
149,173,77701,2,0,L|149:273,1,100,0|6,0:0|0:0,0:0:0:0:
388,273,78053,2,0,L|388:160,1,100,6|0,0:0|0:0,0:0:0:0:
147,173,78406,6,0,L|326:271,2,200,6|6|6,0:0|0:0|0:0,0:0:0:0:
417,159,79465,2,0,L|417:266,1,100,0|0,0:0|0:0,0:0:0:0:
132,117,79818,6,0,L|132:226,1,100,6|0,0:0|0:0,0:0:0:0:
282,217,80171,2,0,L|356:311,1,100,8|0,0:0|0:0,0:0:0:0:
182,117,80524,2,0,L|182:225,1,100,2|0,0:0|0:0,0:0:0:0:
32,217,80877,2,0,L|32:318,1,100,10|0,0:0|0:0,0:0:0:0:
273,317,81230,6,0,L|498:317,1,200,2|10,0:0|0:0,0:0:0:0:
373,317,81759,1,0,0:0:0:0:
134,317,81936,2,0,P|72:257|151:193,1,200,2|10,0:0|0:0,0:0:0:0:
290,191,82465,2,0,L|362:191,1,50,0|0,0:0|0:0,0:0:0:0:
181,191,82642,6,0,L|40:191,1,100,2|0,0:0|0:0,0:0:0:0:
232,191,82995,2,0,L|356:191,1,100,10|0,0:0|0:0,0:0:0:0:
182,191,83348,2,0,L|182:85,1,100,2|0,0:0|0:0,0:0:0:0:
333,91,83701,2,0,L|447:91,1,100,10|0,0:0|0:0,0:0:0:0:
193,91,84053,6,0,P|193:159|322:211,1,200,2|10,0:0|0:0,0:0:0:0:
449,218,84583,2,0,L|449:320,1,100,0|2,0:0|0:0,0:0:0:0:
199,318,84936,2,0,L|76:318,2,100,0|10|0,0:0|0:0|0:0,0:0:0:0:
482,318,85465,6,0,L|482:215,1,100,6|0,0:0|0:0,0:0:0:0:
332,218,85818,1,10,0:0:0:0:
482,218,85995,1,0,0:0:0:0:
333,218,86171,2,0,L|199:218,1,100,2|0,0:0|0:0,0:0:0:0:
384,218,86524,2,0,L|502:218,1,100,10|0,0:0|0:0,0:0:0:0:
244,218,86877,6,0,L|244:113,1,100,2|0,0:0|0:0,0:0:0:0:
395,118,87230,2,0,L|395:13,1,100,10|0,0:0|0:0,0:0:0:0:
245,18,87583,2,0,L|101:18,1,100,2|0,0:0|0:0,0:0:0:0:
296,18,87936,2,0,L|423:18,1,100,10|0,0:0|0:0,0:0:0:0:
156,18,88289,6,0,L|156:119,1,100,2|0,0:0|0:0,0:0:0:0:
307,118,88642,2,0,L|421:118,1,100,10|0,0:0|0:0,0:0:0:0:
164,118,88995,1,2,0:0:0:0:
98,146,89083,1,0,0:0:0:0:
98,217,89171,1,0,0:0:0:0:
161,247,89259,1,0,0:0:0:0:
322,247,89348,2,0,L|397:247,1,50,10|0,0:0|0:0,0:0:0:0:
212,247,89524,2,0,L|162:247,1,50,0|0,0:0|0:0,0:0:0:0:
343,247,89701,6,0,L|457:247,1,100,2|2,0:0|0:0,0:0:0:0:
343,247,89965,1,2,0:0:0:0:
243,247,90053,2,0,L|243:147,1,100,10|2,0:0|0:0,0:0:0:0:
403,147,90406,1,2,0:0:0:0:
456,173,90494,1,2,0:0:0:0:
484,215,90582,1,2,0:0:0:0:
499,269,90670,1,2,0:0:0:0:
490,319,90758,1,2,0:0:0:0:
39,147,91112,6,0,L|86:244,1,100,6|0,0:0|0:0,0:0:0:0:
242,247,91465,2,0,P|323:247|377:350,1,200,2|2,0:0|0:0,0:0:0:0:
216,341,91995,2,0,L|113:341,2,100,0|2|0,0:0|0:0|0:0,0:0:0:0:
456,341,92524,6,0,L|456:217,1,100,2|0,0:0|0:0,0:0:0:0:
305,241,92877,1,2,0:0:0:0:
454,241,93053,1,0,0:0:0:0:
303,241,93230,2,0,P|215:240|172:145,1,200,2|2,0:0|0:0,0:0:0:0:
321,148,93759,1,0,0:0:0:0:
80,148,93936,6,0,L|80:253,1,100,2|0,0:0|0:0,0:0:0:0:
230,248,94289,2,0,L|230:353,1,100,2|0,0:0|0:0,0:0:0:0:
80,348,94642,2,0,L|80:248,1,100,2|0,0:0|0:0,0:0:0:0:
230,248,94995,1,2,0:0:0:0:
80,248,95171,1,0,0:0:0:0:
320,248,95348,6,0,L|453:248,2,100,2|0|2,0:0|0:0|0:0,0:0:0:0:
169,248,95877,1,0,0:0:0:0:
318,248,96053,2,0,P|312:168|203:117,1,200,2|2,0:0|0:0,0:0:0:0:
63,115,96583,1,2,0:0:0:0:
342,115,96759,6,0,L|342:217,1,100,6|0,0:0|0:0,0:0:0:0:
181,215,97112,2,0,P|115:149|184:104,1,200,10|2,0:0|0:0,0:0:0:0:
343,103,97642,2,0,L|468:103,2,100,0|10|0,0:0|0:0|0:0,0:0:0:0:
102,103,98171,6,0,L|102:206,1,100,2|0,0:0|0:0,0:0:0:0:
252,203,98524,1,10,0:0:0:0:
101,203,98701,1,0,0:0:0:0:
252,203,98877,2,0,P|315:248|236:320,1,200,2|10,0:0|0:0,0:0:0:0:
100,323,99406,1,2,0:0:0:0:
340,323,99583,6,0,L|376:223,1,100,2|0,0:0|0:0,0:0:0:0:
236,323,99936,2,0,L|123:323,1,100,10|0,0:0|0:0,0:0:0:0:
286,323,100289,2,0,P|332:271|276:224,1,150,2|0,0:0|0:0,0:0:0:0:
183,223,100642,2,0,L|183:121,1,100,10|0,0:0|0:0,0:0:0:0:
423,123,100995,6,0,L|423:230,1,100,2|0,0:0|0:0,0:0:0:0:
272,223,101348,2,0,L|167:223,1,100,10|0,0:0|0:0,0:0:0:0:
412,223,101701,1,2,0:0:0:0:
478,251,101789,1,2,0:0:0:0:
479,322,101877,1,2,0:0:0:0:
415,352,101965,1,2,0:0:0:0:
255,352,102053,1,10,0:0:0:0:
205,355,102142,1,2,0:0:0:0:
161,333,102230,1,2,0:0:0:0:
135,291,102318,1,2,0:0:0:0:
316,291,102406,6,0,P|356:242|290:208,1,133.333333333333,6|0,0:1|0:0,0:0:0:0:
206,191,102759,2,0,P|163:157|226:117,1,133.333333333333
315,90,103112,2,0,P|382:147|284:188,1,200,2|0,0:0|0:0,0:0:0:0:
129,202,103701,1,0,0:0:0:0:
308,202,103818,6,0,P|351:248|304:290,1,133.333333333333,2|0,0:0|0:0,0:0:0:0:
197,289,104171,2,0,P|146:255|174:185,1,133.333333333333
284,214,104524,2,0,L|284:62,1,133.333333333333,2|0,0:0|0:0,0:0:0:0:
399,66,104877,2,0,L|399:211,1,133.333333333333
211,202,105230,5,2,0:0:0:0:
352,202,105465,1,0,0:0:0:0:
238,203,105583,2,0,L|238:363,1,133.333333333333
352,352,105936,2,0,P|429:353|482:244,1,200,2|0,0:0|0:0,0:0:0:0:
37,260,106642,6,0,P|17:189|79:77,1,200,2|0,0:0|0:0,0:0:0:0:
350,163,107348,2,0,L|132:163,1,200,2|0,0:0|0:0,0:0:0:0:
352,354,108582,2,0,L|352:287,1,50,0|0,0:0|0:0,0:0:0:0:
167,306,108758,6,0,L|45:306,2,100,6|0|10,0:0|0:0|0:0,0:0:0:0:
319,306,109287,2,0,P|319:242|196:182,1,200,0|0,0:0|0:0,0:0:0:0:
363,178,109816,1,10,0:0:0:0:
213,178,109993,6,0,L|84:178,1,100,0|2,0:0|0:0,0:0:0:0:
354,178,110346,2,0,L|464:178,2,100,0|10|0,0:0|0:0|0:0,0:0:0:0:
194,178,110875,1,2,0:0:0:0:
354,178,111052,1,0,0:0:0:0:
454,178,111228,2,0,L|454:78,1,100,10|0,0:0|0:0,0:0:0:0:
191,78,111581,6,0,P|127:133|217:195,1,200,2|10,0:0|0:0,0:0:0:0:
343,202,112110,1,0,0:0:0:0:
193,202,112287,1,2,0:0:0:0:
343,202,112463,2,0,L|455:202,2,100,0|10|0,0:0|0:0|0:0,0:0:0:0:
81,202,112993,6,0,L|81:95,1,100,2|0,0:0|0:0,0:0:0:0:
232,102,113346,1,10,0:0:0:0:
83,102,113522,1,0,0:0:0:0:
324,102,113699,2,0,L|324:213,1,100,2|0,0:0|0:0,0:0:0:0:
84,202,114052,2,0,L|84:311,1,100,10|2,0:0|0:0,0:0:0:0:
365,302,114405,6,0,L|146:302,1,200,6|0,0:0|0:0,0:0:0:0:
326,302,114934,1,0,0:0:0:0:
167,302,115110,2,0,L|167:198,1,100,2|2,0:0|0:0,0:0:0:0:
328,202,115463,1,8,0:0:0:0:
68,202,115816,6,0,P|5:153|86:84,1,200,2|2,0:0|0:0,0:0:0:0:
222,81,116346,1,2,0:0:0:0:
73,81,116522,2,0,L|73:180,1,100,2|0,0:0|0:0,0:0:0:0:
224,181,116875,1,10,0:0:0:0:
74,181,117052,1,2,0:0:0:0:
314,181,117228,6,0,P|400:183|446:284,1,200,2|2,0:0|0:0,0:0:0:0:
187,276,117934,2,0,L|401:276,1,200,2|10,0:0|0:0,0:0:0:0:
127,276,118640,6,0,L|52:86,1,200,2|0,0:0|0:0,0:0:0:0:
205,90,119169,2,0,L|328:90,1,100,2|0,0:0|0:0,0:0:0:0:
154,90,119522,2,0,L|54:90,1,100,10|10,0:0|0:0,0:0:0:0:
205,90,119875,2,0,L|439:90,1,200,0|0,0:0|0:0,0:0:0:0:
345,90,120316,1,0,0:0:0:0:
164,90,120405,6,0,L|37:90,2,100,14|0|2,0:0|0:0|0:0,0:0:0:0:
315,90,120934,2,0,L|315:192,1,100,0|10,0:0|0:0,0:0:0:0:
165,190,121287,1,0,0:0:0:0:
405,190,121463,6,0,P|401:253|282:313,1,200,2|10,0:0|0:0,0:0:0:0:
131,315,121993,2,0,L|131:216,1,100,0|2,0:0|0:0,0:0:0:0:
292,215,122346,2,0,L|396:215,2,100,0|10|2,0:0|0:0|0:0,0:0:0:0:
32,215,122875,6,0,L|175:215,1,100,2|0,0:0|0:0,0:0:0:0:
283,215,123228,2,0,L|412:215,1,100,10|0,0:0|0:0,0:0:0:0:
143,215,123581,2,0,L|22:215,3,100,2|0|10|0,0:0|0:0|0:0|0:0,0:0:0:0:
324,215,124287,6,0,L|324:322,1,100,6|2,0:0|0:0,0:0:0:0:
224,315,124552,1,2,0:0:0:0:
125,315,124640,2,0,L|125:202,1,100,10|2,0:0|0:0,0:0:0:0:
366,215,124993,2,0,L|366:110,1,100,6|0,0:0|0:0,0:0:0:0:
126,115,125346,2,0,L|8:115,1,100,14|0,0:0|0:0,0:0:0:0:
256,192,125699,12,10,126757,1:0:0:0:
338,235,127110,6,0,L|103:235,1,200,14|10,0:0|0:0,0:0:0:0:
300,235,127640,1,0,0:0:0:0:
141,235,127816,2,0,L|15:235,2,100,2|0|10,0:0|0:0|0:0,0:0:0:0:
404,235,128346,6,0,P|472:182|388:133,1,200,0|0,0:0|0:0,0:0:0:0:
244,126,128875,1,10,0:0:0:0:
405,126,129052,1,0,0:0:0:0:
166,126,129228,2,0,L|167:233,1,100,2|0,0:0|0:0,0:0:0:0:
328,225,129581,2,0,L|437:225,1,100,10|2,0:0|0:0,0:0:0:0:
168,225,129934,6,0,L|53:225,1,100,2|0,0:0|0:0,0:0:0:0:
229,225,130287,2,0,L|129:225,1,100,10|0,0:0|0:0,0:0:0:0:
370,225,130640,2,0,L|481:225,2,100,2|0|10,0:0|0:0|0:0,0:0:0:0:
110,225,131169,6,0,P|86:308|208:352,1,200,0|0,0:0|0:0,0:0:0:0:
328,254,131699,2,0,L|328:361,1,100,10|0,0:0|0:0,0:0:0:0:
168,354,132052,2,0,L|27:354,1,100,2|0,0:0|0:0,0:0:0:0:
309,354,132405,2,0,L|432:354,1,100,10|0,0:0|0:0,0:0:0:0:
170,354,132758,2,0,L|27:354,1,100,0|0,0:0|0:0,0:0:0:0:
131,354,133022,1,0,0:0:0:0:
309,354,133110,6,0,L|309:207,1,100,14|0,0:0|0:0,0:0:0:0:
149,254,133463,2,0,L|257:254,2,100,2|0|10,0:0|0:0|0:0,0:0:0:0:
412,254,133993,6,0,P|411:188|293:131,1,200,0|0,0:0|0:0,0:0:0:0:
144,128,134522,1,10,0:0:0:0:
305,128,134699,2,0,L|432:128,2,100,0|2|0,0:0|0:0|0:0,0:0:0:0:
145,128,135228,2,0,L|145:235,1,100,10|0,0:0|0:0,0:0:0:0:
386,228,135581,6,0,L|386:333,1,100,2|0,0:0|0:0,0:0:0:0:
226,328,135934,1,10,0:0:0:0:
386,328,136110,1,0,0:0:0:0:
146,328,136287,2,0,L|0:328,2,100,2|0|10,0:0|0:0|0:0,0:0:0:0:
407,328,136816,2,0,L|407:222,1,100,0|2,0:0|0:0,0:0:0:0:
127,228,137169,6,0,L|52:228,1,50,14|2,0:0|0:0,0:0:0:0:
239,228,137346,2,0,P|269:192|233:157,1,100,10|0,0:0|0:0,0:0:0:0:
180,157,137610,1,0,0:0:0:0:
19,157,137699,2,0,L|19:51,1,100,14|0,0:0|0:0,0:0:0:0:
260,57,138052,2,0,L|331:57,1,50,10|0,0:0|0:0,0:0:0:0:
151,57,138228,2,0,L|101:57,1,50,0|0,0:0|0:0,0:0:0:0:
283,57,138405,6,0,P|380:62|420:164,1,200,14|10,0:0|0:0,0:0:0:0:
263,145,138934,1,0,0:0:0:0:
423,145,139110,2,0,L|423:245,1,100,2|0,0:0|0:0,0:0:0:0:
323,245,139463,1,10,0:0:0:0:
83,245,139640,6,0,L|294:245,1,200,0|0,0:0|0:0,0:0:0:0:
123,245,140169,2,0,L|-1:245,1,100,10|0,0:0|0:0,0:0:0:0:
264,245,140522,2,0,L|390:244,1,100,2|0,0:0|0:0,0:0:0:0:
204,244,140875,2,0,L|98:244,1,100,10|0,0:0|0:0,0:0:0:0:
364,244,141228,6,0,L|364:142,1,100,2|0,0:0|0:0,0:0:0:0:
204,144,141581,1,10,0:0:0:0:
364,144,141757,1,0,0:0:0:0:
124,144,141934,2,0,L|15:144,2,100,2|0|10,0:0|0:0|0:0,0:0:0:0:
365,144,142463,6,0,P|431:180|362:252,1,200,0|0,0:0|0:0,0:0:0:0:
206,253,142993,2,0,L|206:364,1,100,10|0,0:0|0:0,0:0:0:0:
447,353,143346,2,0,L|447:246,1,100,2|0,0:0|0:0,0:0:0:0:
207,253,143699,1,10,0:0:0:0:
367,253,143875,6,0,P|458:189|390:124,1,200,0|0,0:0|0:0,0:0:0:0:
364,132,144316,1,0,0:0:0:0:
183,132,144405,2,0,L|53:132,1,100,14|0,0:0|0:0,0:0:0:0:
323,132,144757,2,0,P|390:133|449:218,1,150,14|14,0:0|0:0,0:0:0:0:
113,190,145287,6,0,P|46:241|124:300,1,200,14|0,0:0|0:0,0:0:0:0:
274,302,145816,1,10,0:0:0:0:
114,302,145993,1,0,0:0:0:0:
274,302,146169,2,0,L|389:302,1,100,2|0,0:0|0:0,0:0:0:0:
214,302,146522,2,0,L|109:302,1,100,10|0,0:0|0:0,0:0:0:0:
375,302,146875,6,0,L|487:302,3,100,6|0|10|0,0:0|0:0|0:0|0:0,0:0:0:0:
215,302,147581,2,0,L|115:302,3,100,6|0|10|0,0:0|0:0|0:0|0:0,0:0:0:0:
376,302,148287,6,0,L|376:199,1,100,6|0,0:0|0:0,0:0:0:0:
216,202,148640,1,10,0:0:0:0:
376,202,148816,1,0,0:0:0:0:
136,202,148993,1,0,0:0:0:0:
72,172,149081,1,0,0:0:0:0:
73,101,149169,1,0,0:0:0:0:
139,73,149257,1,0,0:0:0:0:
300,73,149346,1,10,0:0:0:0:
350,73,149434,1,0,0:0:0:0:
400,73,149522,1,0,0:0:0:0:
120,73,149699,6,0,L|120:180,1,100,0|6,0:0|0:0,0:0:0:0:
361,173,150052,1,6,0:0:0:0:
202,173,150228,1,0,0:0:0:0:
363,173,150405,2,0,L|363:273,1,100,0|6,0:0|0:0,0:0:0:0:
124,273,150757,2,0,L|124:160,1,100,6|0,0:0|0:0,0:0:0:0:
365,173,151110,6,0,L|186:271,2,200,6|6|6,0:0|0:0|0:0,0:0:0:0:
203,173,151993,2,0,L|85:173,2,100,0|0|0,0:0|0:0|0:0,0:0:0:0:
483,173,152522,6,0,L|483:297,1,100,6|0,0:0|0:0,0:0:0:0:
332,273,152875,1,10,0:0:0:0:
482,273,153052,1,0,0:0:0:0:
332,273,153228,2,0,L|451:273,2,100,2|0|10,0:0|0:0|0:0,0:0:0:0:
91,273,153757,6,0,P|92:211|210:148,1,200,0|0,0:0|0:0,0:0:0:0:
351,146,154287,2,0,L|351:37,1,100,10|0,0:0|0:0,0:0:0:0:
200,46,154640,2,0,L|200:158,1,100,2|0,0:0|0:0,0:0:0:0:
351,146,154993,2,0,L|351:246,1,100,10|0,0:0|0:0,0:0:0:0:
100,246,155346,6,0,P|48:219|115:124,1,200,2|10,0:0|0:0,0:0:0:0:
254,122,155875,1,0,0:0:0:0:
103,122,156052,2,0,L|103:241,1,100,2|0,0:0|0:0,0:0:0:0:
253,222,156405,1,10,0:0:0:0:
103,222,156581,1,0,0:0:0:0:
342,222,156757,6,0,L|449:222,1,100,2|0,0:0|0:0,0:0:0:0:
291,222,157110,2,0,L|191:222,1,100,10|0,0:0|0:0,0:0:0:0:
431,222,157463,2,0,L|431:111,1,100,2|0,0:0|0:0,0:0:0:0:
191,122,157816,2,0,L|77:122,1,100,10|0,0:0|0:0,0:0:0:0:
371,122,158169,6,0,P|439:176|367:227,1,200,6|10,0:0|0:0,0:0:0:0:
218,227,158699,1,0,0:0:0:0:
457,227,158875,2,0,L|246:227,1,200,6|10,0:0|0:0,0:0:0:0:
408,227,159405,1,0,0:0:0:0:
168,227,159581,6,0,P|100:173|194:134,1,200,6|10,0:0|0:0,0:0:0:0:
319,119,160110,1,0,0:0:0:0:
78,119,160287,2,0,L|78:226,1,100,6|0,0:0|0:0,0:0:0:0:
318,219,160640,2,0,L|395:219,1,50,10|0,0:0|0:0,0:0:0:0:
318,219,160816,2,0,L|268:219,1,50,0|0,0:0|0:0,0:0:0:0:
86,219,160993,6,0,P|23:178|87:100,1,200,6|10,0:0|0:0,0:0:0:0:
236,99,161522,1,0,0:0:0:0:
85,99,161699,2,0,L|85:203,1,100,2|0,0:0|0:0,0:0:0:0:
235,199,162052,1,10,0:0:0:0:
85,199,162228,1,0,0:0:0:0:
345,199,162405,6,0,L|344:308,1,100,2|6,0:0|0:0,0:0:0:0:
244,298,162669,1,0,0:0:0:0:
144,298,162757,2,0,L|144:198,1,100,14|0,0:0|0:0,0:0:0:0:
205,198,163022,1,0,0:0:0:0:
364,198,163110,2,0,L|498:198,1,100,6|0,0:0|0:0,0:0:0:0:
403,198,163375,1,0,0:0:0:0:
243,198,163463,2,0,L|161:198,1,50,14|0,0:0|0:0,0:0:0:0:
354,198,163640,2,0,L|404:198,1,50,0|0,0:0|0:0,0:0:0:0:
224,198,163816,6,0,L|107:198,2,100,14|0|10,0:0|0:0|0:0,0:0:0:0:
385,198,164346,1,0,0:0:0:0:
225,198,164522,2,0,L|225:90,1,100,2|0,0:0|0:0,0:0:0:0:
385,98,164875,2,0,L|385:200,1,100,10|0,0:0|0:0,0:0:0:0:
124,198,165228,6,0,L|350:198,1,200,2|10,0:0|0:0,0:0:0:0:
163,198,165757,2,0,L|53:198,1,100,0|2,0:0|0:0,0:0:0:0:
223,198,166110,2,0,L|113:198,2,100,0|10|0,0:0|0:0|0:0,0:0:0:0:
485,198,166640,6,0,L|485:312,1,100,2|0,0:0|0:0,0:0:0:0:
324,298,166993,1,10,0:0:0:0:
483,298,167169,1,0,0:0:0:0:
242,298,167346,2,0,L|137:298,1,100,2|0,0:0|0:0,0:0:0:0:
302,298,167699,2,0,L|402:298,1,100,10|0,0:0|0:0,0:0:0:0:
141,298,168052,6,0,P|146:233|259:171,1,200,2|10,0:0|0:0,0:0:0:0:
414,170,168581,2,0,L|300:170,1,100,0|2,0:0|0:0,0:0:0:0:
153,170,168934,2,0,L|41:170,2,100,0|10|0,0:0|0:0|0:0,0:0:0:0:
433,170,169463,6,0,L|296:170,1,100,14|0,0:0|0:0,0:0:0:0:
172,170,169816,2,0,L|172:278,1,100,10|0,0:0|0:0,0:0:0:0:
332,270,170169,1,2,0:0:0:0:
91,270,170346,2,0,L|91:377,1,100,0|10,0:0|0:0,0:0:0:0:
191,370,170699,1,0,0:0:0:0:
450,370,170875,6,0,L|229:370,1,200,2|10,0:0|0:0,0:0:0:0:
411,370,171405,2,0,L|411:248,1,100,0|2,0:0|0:0,0:0:0:0:
171,270,171757,2,0,L|65:270,2,100,0|10|2,0:0|0:0|0:0,0:0:0:0:
433,270,172287,6,0,P|493:221|403:148,1,200,2|10,0:0|0:0,0:0:0:0:
269,141,172816,2,0,L|162:141,1,100,0|2,0:0|0:0,0:0:0:0:
329,141,173169,2,0,L|464:141,2,100,0|10|0,0:0|0:0|0:0,0:0:0:0:
66,141,173699,6,0,L|70:249,1,100,2|2,0:0|0:0,0:0:0:0:
169,240,173963,1,2,0:0:0:0:
265,241,174052,2,0,L|385:241,1,100,10|0,0:0|0:0,0:0:0:0:
124,241,174405,2,0,L|124:116,1,100,2|0,0:0|0:0,0:0:0:0:
384,141,174757,2,0,L|497:141,1,100,10|0,0:0|0:0,0:0:0:0:
202,141,175110,6,0,L|87:141,1,100,6|2,0:0|0:0,0:0:0:0:
253,141,175463,2,0,L|384:141,1,100,0|2,0:0|0:0,0:0:0:0:
202,141,175816,1,0,0:0:0:0:
352,141,175993,2,0,L|352:248,1,100,8|0,0:0|0:0,0:0:0:0:
201,241,176346,1,0,0:0:0:0:
440,241,176522,6,0,L|440:127,1,100,2|2,0:0|0:0,0:0:0:0:
339,141,176875,1,0,0:0:0:0:
188,141,177052,2,0,L|402:141,1,200,2|8,0:0|0:0,0:0:0:0:
237,141,177581,1,0,0:0:0:0:
386,141,177757,1,2,0:0:0:0:
145,141,177934,6,0,L|35:141,1,100,2|0,0:0|0:0,0:0:0:0:
285,141,178287,2,0,P|285:214|169:268,1,200,12|2,0:0|0:0,0:0:0:0:
334,271,178816,1,0,0:0:0:0:
93,271,178993,6,0,P|85:199|221:156,1,200,12|2,0:0|0:0,0:0:0:0:
33,139,179522,1,2,0:0:0:0:
273,139,179699,1,14,0:0:0:0:
329,153,179875,2,0,P|328:88|206:28,1,200,2|2,0:0|0:0,0:0:0:0:
70,24,180405,2,0,L|70:130,1,100,10|2,0:0|0:0,0:0:0:0:
349,124,180757,6,0,L|479:124,1,100,14|0,0:0|0:0,0:0:0:0:
298,124,181110,2,0,L|181:124,1,100,10|0,0:0|0:0,0:0:0:0:
438,124,181463,2,0,L|446:236,1,100,6|0,0:0|0:0,0:0:0:0:
294,223,181816,1,10,0:0:0:0:
445,223,181993,1,0,0:0:0:0:
187,124,182169,6,0,L|187:231,1,100,6|0,0:0|0:0,0:0:0:0:
337,224,182522,2,0,L|337:327,1,100,10|0,0:0|0:0,0:0:0:0:
96,324,182875,2,0,L|215:324,1,100,6|0,0:0|0:0,0:0:0:0:
346,324,183228,2,0,L|346:202,1,100,10|0,0:0|0:0,0:0:0:0:
85,224,183581,6,0,P|85:157|221:108,1,200,6|10,0:0|0:0,0:0:0:0:
340,96,184110,2,0,L|340:206,1,100,0|2,0:0|0:0,0:0:0:0:
500,196,184463,2,0,L|500:298,1,100,0|10,0:0|0:0,0:0:0:0:
399,296,184816,1,0,0:0:0:0:
138,296,184993,6,0,L|138:192,1,100,2|6,0:0|0:0,0:0:0:0:
238,196,185257,1,2,0:0:0:0:
339,196,185346,2,0,L|455:196,1,100,10|0,0:0|0:0,0:0:0:0:
380,196,185610,1,0,0:0:0:0:
219,196,185699,2,0,L|114:196,1,100,6|0,0:0|0:0,0:0:0:0:
178,196,185963,1,0,0:0:0:0:
339,196,186052,2,0,L|427:196,1,50,14|0,0:0|0:0,0:0:0:0:
228,196,186228,2,0,L|178:196,1,50,0|0,0:0|0:0,0:0:0:0:
359,196,186405,6,0,P|419:146|351:70,1,200,6|0,0:0|0:0,0:0:0:0:
193,69,186934,1,0,0:0:0:0:
352,69,187110,2,0,L|470:69,2,100,2|2|8,0:0|0:0|0:0,0:0:0:0:
94,112,187816,6,0,P|31:161|112:230,1,200,2|0,0:0|0:0,0:0:0:0:
248,233,188346,1,2,0:0:0:0:
99,233,188522,2,0,L|99:134,1,100,2|0,0:0|0:0,0:0:0:0:
250,133,188875,1,10,0:0:0:0:
100,133,189052,1,0,0:0:0:0:
339,133,189228,6,0,P|425:135|471:236,1,200,2|0,0:0|0:0,0:0:0:0:
211,227,189934,2,0,L|425:227,1,200,2|10,0:0|0:0,0:0:0:0:
151,227,190640,6,0,P|56:155|111:68,1,200,2|0,0:0|0:0,0:0:0:0:
229,41,191169,2,0,L|352:41,1,100,2|0,0:0|0:0,0:0:0:0:
178,41,191522,2,0,L|78:41,1,100,10|10,0:0|0:0,0:0:0:0:
229,41,191875,2,0,L|463:41,1,200,2|0,0:0|0:0,0:0:0:0:
369,41,192316,1,0,0:0:0:0:
188,41,192405,6,0,L|61:41,2,100,6|0|2,0:0|0:0|0:0,0:0:0:0:
339,41,192934,2,0,L|339:143,1,100,0|10,0:0|0:0,0:0:0:0:
189,141,193287,1,0,0:0:0:0:
429,141,193463,6,0,P|425:204|306:264,1,200,2|10,0:0|0:0,0:0:0:0:
155,265,193993,2,0,L|155:166,1,100,0|2,0:0|0:0,0:0:0:0:
316,166,194346,2,0,L|420:166,2,100,0|10|2,0:0|0:0|0:0,0:0:0:0:
56,166,194875,6,0,L|199:166,1,100,2|0,0:0|0:0,0:0:0:0:
307,166,195228,2,0,L|436:166,1,100,10|0,0:0|0:0,0:0:0:0:
167,166,195581,2,0,L|46:166,3,100,2|0|10|0,0:0|0:0|0:0|0:0,0:0:0:0:
348,166,196287,6,0,L|348:272,1,100,6|2,0:0|0:0,0:0:0:0:
247,266,196552,1,2,0:0:0:0:
147,266,196640,2,0,L|147:153,1,100,10|0,0:0|0:0,0:0:0:0:
387,166,196993,2,0,L|387:61,1,100,6|10,0:0|0:0,0:0:0:0:
146,66,197346,2,0,L|28:66,1,100,14|0,0:0|0:0,0:0:0:0:
256,192,197699,12,0,198757,0:0:0:0:
256,192,199110,12,0,199816,0:0:0:0:
155,335,199993,5,0,0:0:0:0:
55,335,200169,2,0,L|55:220,1,100,10|0,1:0|0:0,0:0:0:0:
335,235,200522,6,0,P|415:236|472:129,1,200,14|0,0:0|0:0,0:0:0:0:
212,142,201228,2,0,L|212:249,1,100,0|0,0:0|0:0,0:0:0:0:
472,242,201757,6,0,L|268:242,1,200,0|0,0:0|0:0,0:0:0:0:
423,242,202287,2,0,L|423:142,1,100,0|0,0:0|0:0,0:0:0:0:
272,142,202640,2,0,P|178:143|136:244,1,200,0|8,0:0|0:0,0:0:0:0:
284,228,203169,1,2,0:0:0:0:
133,228,203346,5,2,0:0:0:0:
393,228,203699,2,0,P|391:166|270:100,1,200,0|0,0:0|0:0,0:0:0:0:
434,97,204228,1,0,0:0:0:0:
173,97,204581,6,0,P|101:98|45:223,1,200,0|0,0:0|0:0,0:0:0:0:
190,198,205110,2,0,L|190:308,1,100,0|0,0:0|0:0,0:0:0:0:
340,298,205463,2,0,L|340:198,1,100,0|8,0:0|0:0,0:0:0:0:
189,198,205816,2,0,L|50:198,1,100,0|2,0:0|0:0,0:0:0:0:
329,198,206169,6,0,P|390:155|323:75,1,200,6|0,0:0|0:0,0:0:0:0:
66,74,206875,2,0,L|66:178,1,100,0|0,0:0|0:0,0:0:0:0:
216,174,207228,1,0,0:0:0:0:
65,174,207405,1,2,0:0:0:0:
304,174,207581,6,0,L|304:288,1,100,6|0,0:0|0:0,0:0:0:0:
153,274,207934,1,0,0:0:0:0:
302,274,208110,2,0,P|406:260|438:170,1,200,0|0,0:0|0:0,0:0:0:0:
287,180,208640,1,10,0:0:0:0:
436,180,208816,1,2,0:0:0:0:
155,180,208993,6,0,L|155:285,1,100,6|0,0:0|0:0,0:0:0:0:
305,280,209346,2,0,L|436:280,1,100,10|0,0:0|0:0,0:0:0:0:
164,280,209699,2,0,L|57:280,1,100,6|0,0:0|0:0,0:0:0:0:
305,280,210052,2,0,L|431:281,1,100,10|0,0:0|0:0,0:0:0:0:
164,280,210405,6,0,L|164:166,1,100,2|14,0:0|0:0,0:0:0:0:
263,180,210669,1,2,0:0:0:0:
362,180,210757,2,0,L|395:78,1,100,10|0,0:0|0:0,0:0:0:0:
331,80,211022,1,0,0:0:0:0:
171,80,211110,2,0,L|106:80,1,50,14|0,0:0|0:0,0:0:0:0:
171,80,211287,2,0,L|221:80,1,50,0|0,0:0|0:0,0:0:0:0:
380,80,211463,2,0,L|456:80,1,50,14|0,0:0|0:0,0:0:0:0:
271,80,211640,2,0,L|221:80,1,50,0|0,0:0|0:0,0:0:0:0:
400,80,211816,6,0,P|465:147|391:195,1,200,14|10,0:0|0:0,0:0:0:0:
236,196,212346,1,0,0:0:0:0:
395,196,212522,2,0,L|506:195,2,100,2|0|10,0:0|0:0|0:0,0:0:0:0:
132,196,213052,6,0,L|350:196,1,200,0|0,0:0|0:0,0:0:0:0:
171,196,213581,1,10,0:0:0:0:
330,196,213757,1,0,0:0:0:0:
89,196,213934,2,0,L|89:304,1,100,2|0,0:0|0:0,0:0:0:0:
249,296,214287,1,10,0:0:0:0:
89,296,214463,1,2,0:0:0:0:
329,296,214640,6,0,L|395:194,1,100,2|0,0:0|0:0,0:0:0:0:
232,212,214993,2,0,L|125:212,1,100,10|0,0:0|0:0,0:0:0:0:
366,296,215346,2,0,L|493:296,2,100,2|0|10,0:0|0:0|0:0,0:0:0:0:
105,196,215875,6,0,P|40:137|126:80,1,200,0|0,0:0|0:0,0:0:0:0:
267,74,216405,1,10,0:0:0:0:
107,74,216581,1,0,0:0:0:0:
346,74,216757,2,0,L|346:179,1,100,2|0,0:0|0:0,0:0:0:0:
185,174,217110,1,10,0:0:0:0:
425,174,217287,6,0,P|486:222|417:298,1,200,0|0,0:0|0:0,0:0:0:0:
360,298,217728,1,0,0:0:0:0:
200,298,217816,2,0,L|88:298,1,100,14|0,0:0|0:0,0:0:0:0:
340,298,218169,2,0,P|407:297|466:212,1,150,14|14,0:0|0:0,0:0:0:0:
130,240,218699,6,0,P|132:175|254:121,1,200,14|0,0:0|0:0,0:0:0:0:
400,117,219228,2,0,L|275:117,1,100,10|0,0:0|0:0,0:0:0:0:
139,117,219581,2,0,L|139:233,1,100,2|0,0:0|0:0,0:0:0:0:
299,217,219934,1,10,0:0:0:0:
139,217,220110,1,2,0:0:0:0:
399,217,220287,6,0,L|508:217,3,100,6|0|10|0,0:0|0:0|0:0|0:0,0:0:0:0:
238,217,220993,2,0,L|138:217,3,100,6|0|10|2,0:0|0:0|0:0|0:0,0:0:0:0:
398,217,221699,6,0,L|398:105,1,100,6|0,0:0|0:0,0:0:0:0:
237,117,222052,1,10,0:0:0:0:
396,117,222228,1,0,0:0:0:0:
155,117,222405,1,2,0:0:0:0:
89,145,222493,1,0,0:0:0:0:
88,216,222581,1,0,0:0:0:0:
152,246,222669,1,0,0:0:0:0:
311,246,222757,2,0,L|397:246,1,50,10|0,0:0|0:0,0:0:0:0:
202,246,222934,2,0,L|152:246,1,50,0|0,0:0|0:0,0:0:0:0:
331,246,223110,6,0,L|331:139,1,100,0|6,0:0|0:0,0:0:0:0:
90,146,223463,1,6,0:0:0:0:
249,146,223640,1,0,0:0:0:0:
88,146,223816,2,0,L|88:46,1,100,0|6,0:0|0:0,0:0:0:0:
327,46,224169,2,0,L|327:159,1,100,6|0,0:0|0:0,0:0:0:0:
86,146,224522,6,0,L|265:48,2,200,6|6|6,0:0|0:0|0:0,0:0:0:0:
366,146,225581,2,0,L|417:37,1,100
116,46,225934,6,0,L|11:46,1,100,6|0,0:0|0:0,0:0:0:0:
166,46,226287,2,0,L|306:46,1,100,10|0,0:0|0:0,0:0:0:0:
116,46,226640,2,0,L|116:155,1,100,2|0,0:0|0:0,0:0:0:0:
266,146,226993,1,10,0:0:0:0:
116,146,227169,1,0,0:0:0:0:
356,146,227346,6,0,P|433:148|488:255,1,200,2|10,0:0|0:0,0:0:0:0:
388,246,227875,1,0,0:0:0:0:
147,246,228052,2,0,P|148:170|266:116,1,200,2|10,0:0|0:0,0:0:0:0:
396,112,228581,2,0,L|396:40,1,50,0|0,0:0|0:0,0:0:0:0:
236,62,228757,6,0,L|128:62,1,100,2|0,0:0|0:0,0:0:0:0:
286,62,229110,2,0,L|286:169,1,100,10|0,0:0|0:0,0:0:0:0:
436,162,229463,2,0,L|436:269,1,100,2|0,0:0|0:0,0:0:0:0:
285,262,229816,1,10,0:0:0:0:
435,262,229993,1,0,0:0:0:0:
195,262,230169,6,0,P|127:213|209:162,1,200,2|10,0:0|0:0,0:0:0:0:
347,156,230699,2,0,L|347:266,1,100,0|2,0:0|0:0,0:0:0:0:
106,256,231052,2,0,L|0:256,2,100,0|10|0,0:0|0:0|0:0,0:0:0:0:
386,256,231581,6,0,L|255:256,1,100,6|0,0:0|0:0,0:0:0:0:
135,256,231934,2,0,L|135:155,1,100,10|0,0:0|0:0,0:0:0:0:
285,156,232287,2,0,L|401:156,1,100,2|0,0:0|0:0,0:0:0:0:
234,156,232640,2,0,L|135:156,1,100,10|0,0:0|0:0,0:0:0:0:
374,156,232993,6,0,L|374:53,1,100,2|0,0:0|0:0,0:0:0:0:
223,56,233346,2,0,L|94:56,2,100,10|0|2,0:0|0:0|0:0,0:0:0:0:
463,56,233875,2,0,L|463:172,1,100,0|10,0:0|0:0,0:0:0:0:
362,156,234228,1,0,0:0:0:0:
101,156,234405,6,0,L|226:156,1,100,2|0,0:0|0:0,0:0:0:0:
350,156,234757,2,0,L|483:156,1,100,10|0,0:0|0:0,0:0:0:0:
209,156,235110,2,0,L|210:286,1,100,2|0,0:0|0:0,0:0:0:0:
450,255,235463,2,0,L|450:137,1,100,10|0,0:0|0:0,0:0:0:0:
189,155,235816,6,0,L|79:155,1,100,10|0,0:0|0:0,0:0:0:0:
149,155,236081,1,0,0:0:0:0:
308,155,236169,2,0,L|418:155,1,100,10|0,0:0|0:0,0:0:0:0:
348,155,236434,1,0,0:0:0:0:
188,155,236522,2,0,L|81:155,1,100,10|0,0:0|0:0,0:0:0:0:
149,155,236787,1,0,0:0:0:0:
308,155,236875,1,10,0:0:0:0:
372,185,236963,1,0,0:0:0:0:
371,256,237052,1,0,0:0:0:0:
305,284,237140,1,0,0:0:0:0:
123,284,237228,6,0,L|19:284,1,100,14|0,0:0|0:0,0:0:0:0:
173,284,237581,2,0,L|301:284,1,100,10|0,0:0|0:0,0:0:0:0:
423,284,237934,2,0,L|423:172,1,100,2|0,0:0|0:0,0:0:0:0:
322,184,238287,1,10,0:0:0:0:
82,184,238463,6,0,L|296:184,1,200,0|0,0:0|0:0,0:0:0:0:
130,184,238993,2,0,L|10:184,1,100,10|0,0:0|0:0,0:0:0:0:
270,184,239346,2,0,P|370:184|408:85,1,200,2|10,0:0|0:0,0:0:0:0:
260,103,239875,2,0,L|186:103,1,50,0|0,0:0|0:0,0:0:0:0:
371,103,240052,6,0,L|486:103,1,100,2|0,0:0|0:0,0:0:0:0:
320,103,240405,2,0,L|192:103,1,100,10|0,0:0|0:0,0:0:0:0:
369,103,240757,2,0,L|369:217,1,100,2|0,0:0|0:0,0:0:0:0:
218,203,241110,1,10,0:0:0:0:
368,203,241287,1,0,0:0:0:0:
128,203,241463,6,0,P|63:262|157:317,1,200,2|10,0:0|0:0,0:0:0:0:
278,326,241993,1,0,0:0:0:0:
128,326,242169,1,2,0:0:0:0:
368,326,242346,2,0,L|499:326,2,100,0|10|0,0:0|0:0|0:0,0:0:0:0:
127,326,242875,6,0,L|127:215,1,100,2|2,0:0|0:0,0:0:0:0:
407,226,243228,2,0,L|407:121,1,100,14|0,0:0|0:0,0:0:0:0:
256,126,243581,2,0,L|139:126,1,100,2|2,0:0|0:0,0:0:0:0:
416,126,243934,2,0,L|416:229,1,100,14|0,0:0|0:0,0:0:0:0:
175,226,244287,6,0,L|70:226,1,100,2|2,0:0|0:0,0:0:0:0:
335,226,244640,2,0,L|456:226,1,100,14|0,0:0|0:0,0:0:0:0:
274,226,244993,2,0,L|400:226,1,100,2|2,0:0|0:0,0:0:0:0:
113,226,245346,2,0,L|113:107,1,100,14|0,0:0|0:0,0:0:0:0:
393,126,245699,6,0,L|465:126,1,50,14|0,0:0|0:0,0:0:0:0:
393,126,245875,2,0,L|343:126,1,50,2|0,0:0|0:0,0:0:0:0:
181,126,246052,1,14,0:0:0:0:
115,154,246140,1,0,0:0:0:0:
114,225,246228,1,2,0:0:0:0:
178,255,246316,1,0,0:0:0:0:
339,255,246405,5,14,0:0:0:0:
403,225,246493,1,0,0:0:0:0:
402,154,246581,1,2,0:0:0:0:
336,126,246669,1,0,0:0:0:0:
176,126,246757,2,0,L|107:126,1,50,14|0,0:0|0:0,0:0:0:0:
287,126,246934,2,0,L|337:126,1,50,2|0,0:0|0:0,0:0:0:0:
157,126,247110,6,0,P|114:192|137:224,1,100,2|2,0:0|0:0,0:0:0:0:
219,202,247375,1,2,0:0:0:0:
318,202,247463,2,0,L|318:313,1,100,10|2,0:0|0:0,0:0:0:0:
77,302,247816,2,0,L|77:185,1,100,2|10,0:0|0:0,0:0:0:0:
317,202,248169,2,0,L|463:202,1,100,10|10,0:0|0:0,0:0:0:0:
52,192,248875,5,6,0:0:0:0:
256,192,249228,12,0,251346,0:0:0:0:
