osu file format v14

[General]
AudioFilename: audio.mp3
AudioLeadIn: 0
PreviewTime: 200398
Countdown: 0
SampleSet: Soft
StackLeniency: 0.7
Mode: 0
LetterboxInBreaks: 0
WidescreenStoryboard: 1

[Editor]
Bookmarks: 138369
DistanceSpacing: 1
BeatDivisor: 4
GridSize: 32
TimelineZoom: 1.6

[Metadata]
Title:Say! Fanfare!
TitleUnicode:Say!ファンファーレ!
Artist:Shirakami Fubuki
ArtistUnicode:白上フブキ
Creator:-Aqua
Version:Shizuqua's Hard
Source:
Tags:フブキCh。白上フブキ Fubuki Channel FBK ホロライブ hololive hororaibu idol Virtual YouTuber VTuber Neko Cat Kitsune Fox Original Song Full Version Japanese Pop J-pop Jpop Ohakon desu yo Muse Dash Video Game Rhythm カバー newton- Shizuku- Kazato Asa Shikibe Mayu frozz -Keqing dig delight direct drive dj d4dj groovy mix
BeatmapID:2866166
BeatmapSetID:1153340

[Difficulty]
HPDrainRate:5
CircleSize:3.8
OverallDifficulty:6.6
ApproachRate:8
SliderMultiplier:1.5
SliderTickRate:1

[Events]
//Background and Video events
0,0,"fbk.png",0,0
Video,0,"video.mp4"
//Break Periods
2,91275,95443
//Storyboard Layer 0 (Background)
//Storyboard Layer 1 (Fail)
//Storyboard Layer 2 (Pass)
//Storyboard Layer 3 (Foreground)
//Storyboard Layer 4 (Overlay)
//Storyboard Sound Samples

[TimingPoints]
1429,352.941176470588,4,2,1,70,1,0
1429,-100,4,2,1,70,0,0
2487,-100,4,2,1,70,0,0
3899,-100,4,2,2,70,0,0
4252,-100,4,2,1,70,0,0
5311,-100,4,2,2,70,0,0
5487,-100,4,2,1,70,0,0
5752,-100,4,2,1,5,0,0
5840,-100,4,2,1,70,0,0
6634,-100,4,2,1,5,0,0
6723,-100,4,2,1,70,0,0
6987,-100,4,2,1,5,0,0
7076,-100,4,2,1,75,0,1
7164,-100,4,2,1,75,0,0
10164,-100,4,2,1,5,0,0
10252,-100,4,2,1,75,0,0
12281,-100,4,2,1,5,0,0
12370,-100,4,2,1,75,0,0
14399,-100,4,2,1,5,0,0
14487,-100,4,2,1,75,0,0
15811,-100,4,2,1,5,0,0
15899,-100,4,2,1,75,0,0
16958,-100,4,2,1,65,0,0
18370,-125,4,2,1,60,0,0
21899,-117.647058823529,4,2,1,60,0,0
22605,-125,4,2,1,60,0,0
23576,-125,4,2,1,5,0,0
23664,-125,4,2,1,60,0,0
24017,-100,4,2,1,65,0,0
27458,-100,4,2,1,5,0,0
27546,-100,4,2,1,65,0,0
29664,-111.111111111111,4,2,1,50,0,0
36017,352.941176470588,4,2,1,65,1,0
36017,-100,4,2,1,65,0,0
36811,-100,4,2,1,5,0,0
36899,-100,4,2,1,65,0,0
37517,-100,4,2,1,5,0,0
37605,-100,4,2,1,65,0,0
40340,-100,4,2,1,5,0,0
40428,-100,4,2,1,65,0,0
41664,-125,4,2,1,60,0,0
42105,-125,4,2,1,5,0,0
42193,-125,4,2,1,60,0,0
42634,-125,4,2,1,5,0,0
42722,-125,4,2,1,60,0,0
42811,-125,4,2,1,5,0,0
42899,-125,4,2,1,60,0,0
43516,-125,4,2,1,5,0,0
43605,-125,4,2,1,60,0,0
44046,-125,4,2,1,5,0,0
44134,-125,4,2,1,60,0,0
44222,-125,4,2,1,5,0,0
44311,-125,4,2,1,60,0,0
45811,-125,4,2,1,5,0,0
45899,-125,4,2,1,60,0,0
47664,-83.3333333333333,4,2,1,70,0,0
48193,-100,4,2,1,70,0,0
50399,-100,4,2,1,5,0,0
50487,-100,4,2,1,70,0,0
50752,-100,4,2,1,5,0,0
50840,-100,4,2,1,70,0,0
51458,-100,4,2,1,5,0,0
51546,-100,4,2,1,70,0,0
52958,-100,4,2,1,55,0,0
54369,-100,4,2,1,85,0,1
54634,-100,4,2,1,5,0,1
54722,-76.9230769230769,4,2,1,85,0,1
55252,-100,4,2,1,85,0,1
55869,-100,4,2,1,5,0,1
55958,-100,4,2,1,85,0,1
56752,-100,4,2,1,5,0,1
56840,-100,4,2,1,85,0,1
57811,-100,4,2,1,5,0,1
57899,-100,4,2,1,85,0,1
58605,-100,4,2,1,85,0,1
60634,-100,4,2,1,5,0,1
60722,-100,4,2,1,85,0,1
61516,-100,4,2,1,5,0,1
61605,-100,4,2,1,85,0,1
65575,-100,4,2,1,85,0,0
65664,-100,4,2,1,85,0,1
66016,-76.9230769230769,4,2,1,85,0,1
66546,-100,4,2,1,85,0,1
67164,-100,4,2,1,5,0,1
67252,-100,4,2,1,85,0,1
68046,-100,4,2,1,5,0,1
68134,-100,4,2,1,85,0,1
69634,-100,4,2,1,5,0,1
69722,-100,4,2,1,85,0,1
71664,-76.9230769230769,4,2,1,85,0,1
71928,-76.9230769230769,4,2,1,5,0,1
72016,-100,4,2,1,85,0,1
72811,-100,4,2,1,5,0,1
72899,-100,4,2,1,85,0,1
73781,-100,4,2,1,85,0,1
76958,-100,4,2,1,70,0,0
77222,-100,4,2,1,5,0,0
77311,-100,4,2,1,70,0,1
77399,-100,4,2,1,5,0,0
77487,-100,4,2,1,70,0,0
77928,-100,4,2,1,5,0,0
78016,-100,4,2,1,70,0,1
78105,-100,4,2,1,5,0,0
78193,-100,4,2,1,70,0,0
79428,-100,4,2,1,70,0,1
79693,-100,4,2,1,5,0,0
79781,-100,4,2,1,75,0,1
79869,-100,4,2,1,75,0,0
87811,-100,4,2,1,5,0,0
87899,-100,4,2,1,75,0,0
88516,-100,4,2,1,5,0,0
88605,-100,4,2,1,75,0,0
89664,-100,4,2,1,65,0,0
91075,-100,4,2,1,60,0,0
96722,-100,4,2,1,65,0,0
102369,-111.111111111111,4,2,1,50,0,0
108722,352.941176470588,4,2,1,65,1,0
108722,-100,4,2,1,65,0,0
114369,-125,4,2,1,60,0,0
120369,-83.3333333333333,4,2,1,70,0,0
120722,-100,4,2,1,70,0,0
123104,-100,4,2,1,5,0,0
123192,-100,4,2,1,70,0,0
124163,-100,4,2,1,5,0,0
124251,-100,4,2,1,70,0,0
125663,-100,4,2,1,55,0,0
127074,-100,4,2,1,85,0,1
127339,-100,4,2,1,5,0,1
127427,-76.9230769230769,4,2,1,85,0,1
127957,-100,4,2,1,85,0,1
138280,-100,4,2,1,85,0,0
138369,-100,4,2,1,85,0,1
138633,-100,4,2,1,5,0,1
138721,-76.9230769230769,4,2,1,85,0,1
139251,-100,4,2,1,85,0,1
144369,-76.9230769230769,4,2,1,85,0,1
144721,-100,4,2,1,85,0,1
149663,-100,4,2,1,70,0,0
150016,-100,4,2,1,70,0,1
150104,-100,4,2,1,70,0,0
150721,-100,4,2,1,70,0,1
150810,-100,4,2,1,70,0,0
151339,-100,4,2,1,5,0,0
151427,-100,4,2,1,70,0,0
151692,-100,4,2,1,5,0,0
151780,-100,4,2,1,70,0,0
152045,-100,4,2,1,5,0,0
152133,-100,4,2,1,70,0,1
152398,-100,4,2,1,70,0,0
152486,-100,4,2,1,75,0,1
152574,-100,4,2,1,75,0,0
153104,-100,4,2,1,5,0,0
153192,-100,4,2,1,75,0,0
163780,-100,4,2,1,70,0,0
175074,-100,4,2,1,65,0,0
183545,-100,4,2,1,75,0,0
186369,-125,4,2,1,60,0,0
186810,-125,4,2,1,5,0,0
186898,-125,4,2,1,60,0,0
187339,-125,4,2,1,5,0,0
187427,-125,4,2,1,60,0,0
187516,-125,4,2,1,5,0,0
187604,-125,4,2,1,60,0,0
188221,-125,4,2,1,5,0,0
188310,-125,4,2,1,60,0,0
188751,-125,4,2,1,5,0,0
188839,-125,4,2,1,60,0,0
188927,-125,4,2,1,5,0,0
189016,-125,4,2,1,60,0,0
190516,-125,4,2,1,5,0,0
190604,-125,4,2,1,60,0,0
192369,-83.3333333333333,4,2,1,70,0,0
192721,-100,4,2,1,70,0,0
195104,-100,4,2,1,5,0,0
195192,-100,4,2,1,70,0,0
195457,-100,4,2,1,5,0,0
195545,-100,4,2,1,70,0,0
196163,-100,4,2,1,5,0,0
196251,-100,4,2,1,70,0,0
197663,-100,4,2,1,55,0,0
199074,-100,4,2,1,65,0,0
200045,-100,4,2,1,5,0,0
200133,-100,4,2,1,65,0,0
200486,-111.111111111111,4,2,1,60,0,1
200751,-111.111111111111,4,2,1,5,0,1
200839,-111.111111111111,4,2,1,60,0,0
203927,-111.111111111111,4,2,1,5,0,0
204016,-111.111111111111,4,2,1,60,0,0
206398,-111.111111111111,4,2,1,5,0,0
206486,-111.111111111111,4,2,1,60,0,0
211780,-76.9230769230769,4,2,1,85,0,1
212045,-76.9230769230769,4,2,1,5,0,1
212133,-76.9230769230769,4,2,1,85,0,1
212663,-100,4,2,1,85,0,1
213280,-100,4,2,1,5,0,1
213369,-100,4,2,1,85,0,1
214163,-100,4,2,1,5,0,1
214251,-100,4,2,1,85,0,1
217427,-100,4,2,1,85,0,0
217780,-76.9230769230769,4,2,1,85,0,1
217869,-100,4,2,1,85,0,0
218133,-100,4,2,1,85,0,0
218663,-100,4,2,1,85,0,1
219898,-100,4,2,1,85,0,1
223074,-100,4,2,1,70,0,0
223339,-100,4,2,1,5,0,0
223427,-100,4,2,1,70,0,1
223516,-100,4,2,1,70,0,0
224045,-100,4,2,1,5,0,0
224133,-100,4,2,1,70,0,1
224221,-100,4,2,1,5,0,0
224310,-100,4,2,1,70,0,0
225545,-100,4,2,1,70,0,1
225810,-100,4,2,1,5,0,0
225898,-100,4,2,1,75,0,1
225986,-100,4,2,1,75,0,0
228986,-100,4,2,1,5,0,0
229074,-100,4,2,1,75,0,0
231104,-100,4,2,1,5,0,0
231192,-100,4,2,1,75,0,0
233574,-100,4,2,1,5,0,0
233663,-100,4,2,1,75,0,0
233927,-100,4,2,1,5,0,0
234016,-100,4,2,1,75,0,0
234633,-100,4,2,1,5,0,0
234721,-100,4,2,1,75,0,0
235339,-100,4,2,1,5,0,0
235427,-100,4,2,1,75,0,0
237192,-100,4,2,1,75,0,1
237280,-100,4,2,1,75,0,0
237457,-100,4,2,1,5,0,0
237545,-100,4,2,1,75,0,0
242398,-100,4,2,1,5,0,0
242486,-100,4,2,1,75,0,0
247074,-100,4,2,1,65,0,0
247869,-100,4,2,1,5,0,0
247957,-100,4,2,1,65,0,0
248045,-100,4,2,1,5,0,0
248133,-100,4,2,1,65,0,0
248221,-100,4,2,1,5,0,0
248310,-100,4,2,1,65,0,0
248398,-100,4,2,1,5,0,0
248486,-100,4,2,1,65,0,0
248839,-100,4,2,1,85,0,0
251310,-100,4,2,1,5,0,0

[Colours]
Combo1 : 158,158,158
Combo2 : 168,211,255
Combo3 : 211,211,211
Combo4 : 62,158,255

[HitObjects]
457,86,1429,6,0,P|416:94|390:151,1,75,6|2,1:2|1:2,0:0:0:0:
414,228,1781,1,10,1:2:0:0:
308,190,1958,2,0,B|243:202|243:202|239:211|239:211|139:232,1,150,2|0,0:2|0:0,0:0:0:0:
200,64,2664,5,2,0:0:0:0:
200,64,2840,1,2,0:0:0:0:
104,80,3017,2,0,P|38:73|6:146,1,150,2|2,0:0|0:0,0:0:0:0:
88,276,3723,5,2,0:0:0:0:
176,300,3899,2,0,L|165:221,1,75,8|2,0:0|0:0,0:0:0:0:
264,184,4252,6,0,P|282:148|277:109,1,75,6|2,1:2|1:2,0:0:0:0:
288,29,4605,1,10,0:0:0:0:
217,69,4781,2,0,P|289:67|354:0,1,150,2|0,0:0|0:0,0:0:0:0:
424,136,5487,6,0,B|509:157|509:157|487:191|481:226,1,150,6|2,1:2|1:2,0:0:0:0:
482,315,6017,2,0,B|491:359|491:359|463:318,1,75,10|0,0:2|0:0,0:0:0:0:
384,272,6370,6,0,B|318:283|353:314|285:325,1,112.5,2|0,1:2|0:0,0:0:0:0:
256,304,6723,2,0,L|272:210,1,75,0|0,3:2|0:0,0:0:0:0:
343,158,7076,1,4,1:2:0:0:
343,158,7428,6,0,P|274:142|232:73,1,150,8|0,0:0|0:0,0:0:0:0:
161,29,7958,2,0,B|128:36|128:36|126:40|126:40|75:51,1,75,2|8,0:0|0:0,0:0:0:0:
62,118,8311,1,2,0:0:0:0:
0,58,8487,6,0,P|33:120|33:205,1,150,2|8,1:2|0:0,0:0:0:0:
68,272,9017,1,2,0:0:0:0:
31,350,9193,2,0,B|93:367|131:326|131:326|185:356,1,150,2|10,1:2|0:0,0:0:0:0:
251,291,9723,5,2,0:0:0:0:
251,291,9811,1,2,0:0:0:0:
251,291,9899,2,0,B|239:228|239:228|235:226|235:226|222:149,1,112.5,2|0,1:2|0:0,0:0:0:0:
226,173,10252,1,10,0:0:0:0:
152,120,10428,2,0,P|232:120|296:80,1,150,2|0,0:0|0:0,0:0:0:0:
387,105,10958,2,0,B|405:67|405:67|385:11,1,75,10|0,0:0|0:0,0:0:0:0:
494,104,11311,6,0,B|464:160|464:160|507:251,2,150,2|8|0,1:2|0:0|1:0,0:0:0:0:
392,240,12193,1,2,3:2:0:0:
392,240,12370,2,0,B|355:233|355:233|354:228|354:228|287:217,1,75,10|0,3:2|0:0,0:0:0:0:
256,320,12723,1,6,1:2:0:0:
256,320,13076,6,0,P|193:320|182:222,1,150,10|0,0:0|1:0,0:0:0:0:
240,192,13605,1,2,0:0:0:0:
166,247,13781,2,0,L|65:229,1,75,8|2,0:0|0:0,0:0:0:0:
11,133,14134,6,0,B|55:91|55:91|128:113,1,112.5,0|0,1:0|0:0,0:0:0:0:
114,118,14487,2,0,L|188:108,1,75,10|0,0:0|0:0,0:0:0:0:
290,139,14840,2,0,P|308:95|293:47,1,75,2|0,1:2|0:0,0:0:0:0:
224,198,15193,2,0,P|206:242|221:290,1,75,8|0,0:2|0:0,0:0:0:0:
168,365,15546,6,0,L|290:348,1,112.5,2|0,1:2|0:0,0:0:0:0:
290,345,15899,2,0,P|313:363|368:358,1,75,8|0,0:0|0:0,0:0:0:0:
452,299,16252,2,0,P|444:261|441:202,1,75,2|0,1:2|0:0,0:0:0:0:
334,172,16605,2,0,P|342:210|345:269,1,75,8|0,0:0|0:0,0:0:0:0:
245,224,16958,6,0,P|205:236|161:240,1,75,2|2,1:2|1:2,0:0:0:0:
172,239,17223,1,2,1:2:0:0:
172,239,17311,1,8,0:0:0:0:
112,314,17487,2,0,P|121:343|127:381,2,37.5,2|2|2,1:2|1:2|1:2,0:0:0:0:
29,265,17840,1,2,1:2:0:0:
48,176,18017,2,0,L|65:82,1,75,2|2,0:0|0:0,0:0:0:0:
61,102,18281,1,2,0:0:0:0:
61,102,18370,1,6,1:2:0:0:
212,171,18723,6,0,B|295:158|243:132|330:119,1,120,2|2,1:2|1:2,0:0:0:0:
419,93,19252,2,0,P|446:144|441:164,1,60,0|2,0:0|1:2,0:0:0:0:
408,210,19605,1,0,0:0:0:0:
490,272,19781,2,0,L|478:343,1,60,2|0,1:2|0:0,0:0:0:0:
399,376,20134,2,0,L|387:305,1,60,2|0,1:2|0:0,0:0:0:0:
303,264,20487,2,0,P|257:273|215:210,1,120,2|2,1:2|1:2,0:0:0:0:
263,144,21017,1,0,1:0:0:0:
160,80,21193,6,0,L|30:100,1,120,2|2,1:2|1:2,0:0:0:0:
41,98,21899,2,0,B|80:84|80:84|117:97|117:97|160:80,1,127.50000243187,2|2,1:2|1:2,0:0:0:0:
234,43,22428,1,0,0:0:0:0:
284,108,22605,2,0,P|290:142|275:177,1,60,2|0,1:2|0:0,0:0:0:0:
186,226,22958,2,0,P|180:192|195:157,1,60,2|0,1:2|0:0,0:0:0:0:
276,180,23311,1,2,1:2:0:0:
368,152,23487,1,2,3:2:0:0:
368,152,23664,2,0,L|450:139,1,60,2|0,3:2|0:0,0:0:0:0:
504,128,24017,1,4,1:2:0:0:
512,248,24370,6,0,B|459:235|439:275|459:286|435:327|374:315,1,150,10|2,0:0|1:2,0:0:0:0:
344,384,24899,1,0,0:0:0:0:
272,344,25076,2,0,P|279:293|289:235,1,75,10|0,0:0|0:0,0:0:0:0:
359,195,25428,2,0,P|370:153|339:99,1,75,2|0,1:2|0:0,0:0:0:0:
280,88,25781,1,10,0:0:0:0:
260,7,25958,1,0,0:0:0:0:
337,24,26134,2,0,P|260:59|174:58,1,150,2|10,1:2|0:0,0:0:0:0:
120,16,26664,1,0,1:0:0:0:
26,97,26840,6,0,B|59:110|59:110|70:155,1,75,2|0,1:2|0:0,0:0:0:0:
48,232,27193,2,0,L|173:215,1,112.5,10|0,0:2|0:0,0:0:0:0:
172,222,27546,1,2,1:2:0:0:
192,136,27723,1,0,0:0:0:0:
280,160,27899,2,0,L|374:143,1,75,10|0,0:0|0:0,0:0:0:0:
456,176,28252,6,0,P|473:142|458:84,1,75,2|0,1:2|0:0,0:0:0:0:
368,152,28605,2,0,P|351:186|366:244,1,75,10|0,0:0|0:0,0:0:0:0:
424,288,28958,1,2,1:2:0:0:
368,360,29134,1,2,0:0:0:0:
368,360,29223,1,2,0:0:0:0:
368,360,29311,2,0,L|290:351,1,75,10|0,0:0|0:0,0:0:0:0:
208,376,29664,6,0,B|223:337|207:310|190:323|166:283|194:238,1,134.999995880127,6|2,0:0|0:0,0:0:0:0:
116,207,30252,1,0,0:0:0:0:
120,200,30370,2,0,L|270:179,1,134.999995880127,2|2,0:0|0:0,0:0:0:0:
440,208,31076,2,0,P|495:182|471:104,1,134.999995880127,2|2,0:0|0:0,0:0:0:0:
374,17,31664,1,0,0:0:0:0:
373,26,31781,2,0,L|363:127,1,89.999997253418,2|2,0:0|0:0,0:0:0:0:
379,133,32134,6,0,B|346:118|292:132|343:149|277:167|248:154,1,134.999995880127,2|2,0:0|1:2,0:0:0:0:
158,126,32723,2,0,L|180:269,1,134.999995880127,0|0,0:0|0:0,0:0:0:0:
192,272,33193,2,0,P|189:341|106:346,1,134.999995880127,2|0,0:0|0:0,0:0:0:0:
51,296,33781,1,0,0:0:0:0:
59,295,33899,2,0,L|215:267,1,134.999995880127,2|2,0:0|0:0,0:0:0:0:
328,320,34487,1,0,0:0:0:0:
337,312,34605,2,0,P|358:257|342:202,1,89.999997253418,2|0,0:0|0:0,0:0:0:0:
338,213,34958,1,2,0:0:0:0:
440,160,35311,6,0,B|494:97|435:18|328:31|378:86|392:90,1,202.499993820191,2|2,0:0|0:0,0:0:0:0:
388,88,35928,1,2,0:0:0:0:
388,88,36017,1,6,1:2:0:0:
328,152,36193,6,0,L|241:141,1,75,0|8,0:0|0:0,0:0:0:0:
194,80,36546,2,0,B|203:152|203:152|200:157|200:157|214:240,1,150,2|0,0:0|0:0,0:0:0:0:
284,277,37075,1,8,0:0:0:0:
250,356,37252,6,0,P|199:348|153:345,1,75,2|0,0:0|1:0,0:0:0:0:
101,299,37605,2,0,P|53:319|10:334,2,75,0|8|0,0:0|0:0|0:0,0:0:0:0:
138,215,38134,2,0,P|215:228|244:242,1,75,0|0,1:2|0:0,0:0:0:0:
284,277,38487,1,8,0:0:0:0:
284,277,38664,1,0,0:0:0:0:
338,204,38840,6,0,P|412:216|448:294,1,150,2|8,1:2|0:0,0:0:0:0:
486,355,39369,1,0,0:0:0:0:
486,355,39546,2,0,L|510:176,1,150,0|8,1:0|0:0,0:0:0:0:
448,136,40075,2,0,P|439:99|423:39,1,75,0|0,0:0|1:0,0:0:0:0:
339,129,40428,6,0,B|254:110|300:71|207:53,1,150,2|2,0:0|0:0,0:0:0:0:
172,144,40958,2,0,B|183:183|197:235,1,75,2|2,1:2|0:0,0:0:0:0:
272,264,41311,1,10,0:0:0:0:
261,350,41487,1,2,1:2:0:0:
336,312,41664,6,0,B|296:304|256:321|256:321|240:336|240:336|216:360|152:344,1,180,6|0,1:2|0:0,0:0:0:0:
167,347,42369,1,0,1:0:0:0:
79,374,42546,1,2,0:0:0:0:
79,374,42722,2,0,L|68:304,1,60,2|0,0:0|0:0,0:0:0:0:
8,238,43075,2,0,P|46:159|136:169,1,180,2|0,1:2|1:0,0:0:0:0:
182,224,43781,1,0,0:0:0:0:
182,224,44134,2,0,L|246:213,1,60,2|0,0:0|1:0,0:0:0:0:
321,246,44487,6,0,B|337:270|337:270|386:278|428:249,1,120,2|0,1:2|0:0,0:0:0:0:
456,96,45193,2,0,B|440:72|440:72|391:64|349:93,1,120,2|2,1:2|0:2,0:0:0:0:
352,90,45722,1,0,0:0:0:0:
304,27,45899,2,0,L|283:161,1,120,2|0,1:2|0:0,0:0:0:0:
236,213,46428,2,0,P|250:242|250:287,1,60,2|0,1:2|0:0,0:0:0:0:
342,325,46781,2,0,P|345:295|358:268,1,60,0|10,1:0|1:2,0:0:0:0:
248,280,47134,2,0,B|184:280|208:320|136:320,1,120,0|0,0:0|0:0,0:0:0:0:
74,357,47664,6,0,B|104:378|104:378|91:323|91:323|46:296|61:214,1,179.999994506836,6|0,1:2|1:0,0:0:0:0:
0,176,48193,1,0,0:0:0:0:
0,176,48369,2,0,P|42:164|69:129,1,75,8|0,0:0|0:0,0:0:0:0:
20,67,48722,6,0,B|109:78|56:120|168:136,1,150,2|8,1:2|0:0,0:0:0:0:
235,75,49252,2,0,P|248:120|262:176,1,75,2|0,0:0|1:0,0:0:0:0:
179,222,49605,1,2,0:0:0:0:
179,222,49781,2,0,P|169:185|158:149,1,75,8|0,0:0|1:0,0:0:0:0:
272,152,50134,6,0,L|395:129,1,112.5,2|0,1:2|0:0,0:0:0:0:
400,120,50487,2,0,P|444:127|480:171,1,75,8|0,0:0|0:0,0:0:0:0:
448,232,50840,2,0,L|463:313,1,75,0|0,1:0|1:0,0:0:0:0:
384,376,51193,2,0,P|348:337|277:347,1,112.5,8|0,0:0|0:0,0:0:0:0:
281,350,51546,5,6,1:2:0:0:
238,269,51722,1,0,1:0:0:0:
238,269,51811,1,0,1:0:0:0:
238,269,51899,2,0,P|245:226|254:170,1,75,8|0,0:0|1:0,0:0:0:0:
336,160,52252,2,0,P|329:117|320:61,1,75,6|2,1:2|0:2,0:0:0:0:
248,48,52605,1,8,0:0:0:0:
248,48,52781,1,0,1:0:0:0:
176,104,52958,6,0,P|126:97|109:91,2,50,2|2|2,1:2|0:0|0:0,0:0:0:0:
107,87,53311,2,0,P|82:88|57:93,2,50,2|2|2,3:2|0:0|0:0,0:0:0:0:
43,77,53664,5,2,1:2:0:0:
0,160,53840,1,0,3:0:0:0:
56,232,54016,2,0,P|97:242|147:262,1,75,0|2,3:0|0:0,0:0:0:0:
127,253,54281,1,2,0:0:0:0:
127,253,54369,1,6,1:2:0:0:
248,48,54722,6,0,B|283:35|283:35|332:53|332:53|336:89|372:121|426:127,1,194.999991073609,8|2,0:0|1:2,0:0:0:0:
487,63,55252,2,0,B|497:47|512:40|512:40|482:35|460:53,1,75,0|8,0:0|0:0,0:0:0:0:
424,112,55605,6,0,L|451:282,1,150,2|2,0:0|0:0,0:0:0:0:
503,345,56134,1,10,0:0:0:0:
423,373,56311,1,2,0:0:0:0:
369,304,56487,2,0,P|296:323|250:255,1,150,2|10,1:2|0:0,0:0:0:0:
290,198,57016,1,0,1:0:0:0:
190,149,57193,1,2,1:2:0:0:
190,149,57546,6,0,B|204:131|204:131|196:103|168:74,1,75,10|0,0:0|0:0,0:0:0:0:
200,0,57899,1,0,1:0:0:0:
200,0,58075,2,0,L|94:22,1,75,2|8,0:0|0:0,0:0:0:0:
39,38,58428,1,0,0:0:0:0:
73,120,58605,6,0,L|58:212,1,75,2|2,1:2|0:0,0:0:0:0:
24,272,58958,2,0,L|116:287,1,75,10|2,0:2|0:0,0:0:0:0:
176,321,59311,2,0,L|191:229,1,75,2|2,1:2|0:0,0:0:0:0:
150,156,59664,2,0,L|225:169,1,75,10|2,0:2|0:0,0:0:0:0:
281,79,60016,1,0,0:0:0:0:
371,106,60193,5,0,1:0:0:0:
371,106,60281,1,0,1:0:0:0:
371,106,60369,2,0,B|426:92|467:72|467:72|457:100|455:125,1,150,6|2,1:2|1:2,0:0:0:0:
472,218,60899,2,0,B|484:258|484:258|519:226,1,75,0|8,0:0|0:0,0:0:0:0:
402,301,61252,6,0,B|326:292|351:358|271:377,1,150,2|2,0:0|0:0,0:0:0:0:
197,313,61781,1,8,0:0:0:0:
197,313,61958,2,0,L|212:213,1,75,0|0,0:0|1:0,0:0:0:0:
301,210,62311,1,0,0:0:0:0:
294,109,62487,2,0,B|266:82|266:82|205:91,1,75,8|0,0:0|1:2,0:0:0:0:
125,103,62840,1,2,1:2:0:0:
125,103,63193,6,0,B|144:74|144:74|131:22,1,75,10|0,0:0|0:0,0:0:0:0:
38,100,63546,1,0,1:0:0:0:
38,100,63722,2,0,L|57:205,1,75,2|8,0:0|0:0,0:0:0:0:
136,240,64075,2,0,L|155:135,1,75,2|0,0:0|0:0,0:0:0:0:
248,200,64428,5,10,0:0:0:0:
248,200,64516,1,8,0:0:0:0:
248,200,64605,2,0,B|283:191|283:191|288:187|288:187|330:178,1,75,0|8,1:0|0:0,0:0:0:0:
459,254,64958,2,0,P|477:212|462:165,1,75,10|10,0:0|0:0,0:0:0:0:
418,58,65311,2,0,P|400:100|415:147,1,75,10|10,0:0|0:0,0:0:0:0:
404,127,65575,1,10,0:0:0:0:
404,127,65664,1,6,1:2:0:0:
504,336,66016,6,0,B|448:360|410:371|410:371|364:348|327:313,1,194.999991073609,8|2,0:0|1:2,0:0:0:0:
248,328,66546,2,0,B|225:299|225:299|246:229,1,75,0|8,0:0|0:0,0:0:0:0:
312,208,66899,6,0,B|352:168|352:168|359:118|328:46,1,150,2|2,0:0|0:0,0:0:0:0:
252,35,67428,1,10,0:0:0:0:
252,35,67605,1,2,0:0:0:0:
176,97,67781,2,0,P|128:88|95:62,1,75,2|0,1:2|0:0,0:0:0:0:
39,108,68134,1,10,0:0:0:0:
41,30,68311,6,0,P|79:120|89:201,1,150,0|0,1:0|0:0,0:0:0:0:
28,249,68840,1,10,0:2:0:0:
28,249,69016,1,0,0:0:0:0:
77,320,69193,1,2,1:2:0:0:
167,299,69369,2,0,P|166:255|177:208,1,75,2|8,0:0|0:0,0:0:0:0:
183,132,69722,5,0,0:0:0:0:
183,132,69899,2,0,P|219:125|253:110,1,75,2|2,1:2|0:2,0:0:0:0:
332,67,70252,2,0,B|352:34|352:34|337:-15,1,75,10|2,0:2|0:0,0:0:0:0:
422,97,70605,2,0,L|496:82,2,75,2|2|10,1:2|0:0|0:2,0:0:0:0:
405,181,71134,1,2,0:0:0:0:
190,347,71487,5,0,1:0:0:0:
190,347,71575,1,0,1:0:0:0:
190,347,71664,2,0,B|172:320|129:317|129:317|75:349|47:291,1,146.249993305207,6|0,1:2|0:0,0:0:0:0:
51,304,72016,2,0,L|62:229,1,75,4|0,1:2|0:0,0:0:0:0:
65,216,72281,1,12,0:2:0:0:
224,256,72546,6,0,L|396:233,1,150,4|2,1:2|0:0,0:0:0:0:
445,278,73075,1,8,0:0:0:0:
507,212,73252,1,2,0:0:0:0:
443,146,73428,2,0,P|452:91|478:54,1,75,2|2,1:2|0:0,0:0:0:0:
460,74,73693,1,2,0:0:0:0:
460,74,73781,1,8,0:0:0:0:
397,7,73958,1,2,1:2:0:0:
305,83,74134,6,0,L|199:68,1,75,6|0,1:2|1:0,0:0:0:0:
179,192,74487,1,10,0:0:0:0:
179,192,74840,6,0,L|285:177,1,75,6|0,1:2|1:0,0:0:0:0:
305,301,75193,1,10,0:0:0:0:
245,357,75369,2,0,P|194:349|151:337,1,75,2|6,0:0|1:2,0:0:0:0:
108,283,75722,5,0,1:0:0:0:
27,348,75899,2,0,B|-1:252|41:285|12:196,2,150,8|2|8,0:2|1:2|0:0,0:0:0:0:
108,283,76781,5,0,1:0:0:0:
108,283,76869,1,0,1:0:0:0:
108,283,76958,1,0,1:0:0:0:
201,315,77134,2,0,L|274:301,1,75,2|2,3:0|3:0,0:0:0:0:
346,384,77487,5,0,0:0:0:0:
346,384,77664,1,0,0:0:0:0:
400,304,77840,1,2,3:0:0:0:
484,346,78016,2,0,P|512:306|506:265,1,75,2|0,3:0|0:0,0:0:0:0:
504,200,78369,6,0,B|534:111|479:140|504:35,2,150,6|2|2,1:2|1:2|1:2,0:0:0:0:
352,160,79428,6,0,B|304:163|304:163|288:181|288:181|228:198,1,112.5,2|0,1:2|0:0,0:0:0:0:
238,186,79781,1,6,1:2:0:0:
238,186,80134,6,0,B|265:149|265:149|274:97|248:37,1,150,8|0,0:0|1:2,0:0:0:0:
146,113,80664,1,2,0:0:0:0:
146,113,80840,2,0,B|107:107|107:107|103:104|103:104|67:99,1,75,8|2,0:0|0:0,0:0:0:0:
11,189,81193,6,0,P|5:257|83:267,1,150,2|8,1:2|0:0,0:0:0:0:
72,273,81722,1,2,0:0:0:0:
88,368,81899,2,0,B|172:346|127:308|223:287,1,150,2|10,1:2|0:0,0:0:0:0:
297,322,82428,1,2,0:0:0:0:
297,322,82516,1,2,0:0:0:0:
297,322,82605,2,0,L|307:246,1,75,2|0,1:2|0:0,0:0:0:0:
239,193,82958,6,0,B|192:177|192:177|160:144|170:68,1,150,10|2,0:0|1:2,0:0:0:0:
232,20,83487,1,0,0:0:0:0:
168,82,83664,2,0,P|124:73|75:59,1,75,10|0,0:0|0:0,0:0:0:0:
9,197,84016,6,0,B|59:174|59:174|100:197|100:197|127:272|210:268,1,225,2|2,1:2|0:0,0:0:0:0:
190,267,84899,1,2,3:2:0:0:
244,198,85075,2,0,P|237:156|229:108,1,75,10|0,3:2|0:0,0:0:0:0:
312,48,85428,1,6,1:2:0:0:
312,48,85781,6,0,B|383:32|383:32|445:66|390:124,1,150,10|0,0:0|1:0,0:0:0:0:
496,128,86311,1,2,0:0:0:0:
432,192,86487,2,0,P|440:240|448:296,1,75,8|2,0:0|0:0,0:0:0:0:
449,382,86840,6,0,P|421:350|375:368,1,75,0|2,1:0|0:0,0:0:0:0:
315,303,87193,2,0,B|237:328|237:328|212:291,1,112.5,10|0,0:0|0:0,0:0:0:0:
212,291,87546,2,0,P|217:250|226:193,1,75,2|0,1:2|0:0,0:0:0:0:
320,160,87899,2,0,P|315:119|306:62,1,75,8|0,0:2|0:0,0:0:0:0:
237,41,88252,6,0,B|171:56|171:56|129:25,1,112.5,2|0,1:2|0:0,0:0:0:0:
126,24,88605,2,0,P|103:57|102:95,1,75,8|0,0:0|0:0,0:0:0:0:
41,163,88958,2,0,L|0:153,2,37.5,2|0|0,1:2|1:0|1:0,0:0:0:0:
88,238,89311,2,0,L|78:279,2,37.5,8|8|8,0:0|0:0|0:0,0:0:0:0:
177,208,89664,5,2,1:2:0:0:
257,260,89840,1,2,1:2:0:0:
257,260,89928,1,2,1:2:0:0:
257,260,90016,2,0,P|266:215|279:155,1,75,10|2,0:0|1:2,0:0:0:0:
213,127,90369,2,0,P|208:104|202:74,3,37.5,2|2|2|2,1:2|0:0|1:2|0:0,0:0:0:0:
204,80,90722,1,2,0:0:0:0:
352,32,91075,5,6,1:2:0:0:
338,66,96193,5,2,3:2:0:0:
385,142,96369,2,0,P|376:180|372:224,1,75,2|0,3:2|0:0,0:0:0:0:
419,291,96722,1,4,1:2:0:0:
419,291,97075,6,0,B|333:313|375:342|283:370,1,150,10|2,0:0|1:2,0:0:0:0:
205,318,97605,1,2,0:0:0:0:
205,318,97693,1,2,0:0:0:0:
205,318,97781,2,0,P|214:266|218:209,1,75,10|0,0:0|0:0,0:0:0:0:
304,211,98134,6,0,P|323:172|312:119,1,75,2|0,1:2|0:0,0:0:0:0:
264,84,98487,2,0,B|227:92|227:92|178:63,1,75,10|0,0:0|0:0,0:0:0:0:
117,42,98840,2,0,B|41:68|86:124|-4:157,1,150,2|10,1:2|0:0,0:0:0:0:
2,237,99369,1,0,1:0:0:0:
17,147,99546,6,0,P|80:163|102:200,1,75,2|0,1:2|0:0,0:0:0:0:
168,233,99899,2,0,P|239:213|267:133,1,150,10|2,0:0|1:2,0:0:0:0:
224,72,100428,1,0,0:0:0:0:
320,32,100605,2,0,P|360:43|426:61,1,75,10|0,0:0|0:0,0:0:0:0:
507,104,100958,6,0,B|519:86|519:86|509:56|492:25,1,75,2|0,1:2|0:0,0:0:0:0:
416,149,101311,2,0,B|404:167|404:167|414:197|431:228,1,75,10|0,0:0|0:0,0:0:0:0:
496,280,101664,2,0,L|488:329,3,37.5,2|2|2|2,1:2|1:2|1:2|1:2,0:0:0:0:
504,336,102016,2,0,L|448:344,3,37.5,10|2|2|2,0:0|0:0|0:0|0:0,0:0:0:0:
448,344,102369,1,6,0:0:0:0:
328,368,102605,5,2,0:0:0:0:
322,357,102722,2,0,L|337:253,1,89.999997253418,2|0,0:0|0:0,0:0:0:0:
419,231,103075,2,0,B|374:240|340:219|371:204|329:177|277:190,1,134.999995880127,2|2,0:0|0:0,0:0:0:0:
223,80,103664,1,0,0:0:0:0:
212,81,103781,2,0,L|118:90,1,89.999997253418,2|0,0:0|0:0,0:0:0:0:
54,43,104134,2,0,P|18:75|29:139,1,89.999997253418,2|0,0:0|0:0,0:0:0:0:
73,173,104487,2,0,L|56:278,1,89.999997253418,2|2,0:0|0:0,0:0:0:0:
57,277,104840,1,2,0:0:0:0:
154,345,105075,5,0,0:0:0:0:
157,335,105193,2,0,B|168:323|168:323|208:329|250:362,1,89.999997253418,2|0,1:2|0:0,0:0:0:0:
299,302,105546,2,0,B|291:255|291:255|288:253|288:253|279:175,1,89.999997253418,2|0,0:0|0:0,0:0:0:0:
214,172,105899,2,0,B|234:146|230:108|230:108|248:136|304:134,1,134.999995880127,2|0,0:0|0:0,0:0:0:0:
504,272,106605,2,0,B|486:314|486:314|442:337|393:339,1,134.999995880127,2|2,0:0|0:0,0:0:0:0:
387,213,107193,1,0,0:0:0:0:
388,201,107311,2,0,L|404:78,1,89.999997253418,2|0,0:0|0:0,0:0:0:0:
501,73,107664,2,0,B|441:109|362:75|398:22|305:-2|240:56,1,269.999991760254,2|2,0:0|0:0,0:0:0:0:
232,144,108546,5,2,0:0:0:0:
232,144,108634,1,2,0:0:0:0:
232,144,108722,2,0,L|244:235,1,75,6|0,1:2|0:0,0:0:0:0:
263,317,109074,1,8,0:0:0:0:
312,252,109251,2,0,P|219:265|163:307,1,150,2|0,0:0|0:0,0:0:0:0:
135,368,109780,1,8,0:0:0:0:
173,295,109957,6,0,P|80:282|24:240,1,150,2|0,0:0|0:0,0:0:0:0:
5,164,110486,1,8,0:0:0:0:
5,164,110663,1,0,0:0:0:0:
60,93,110839,2,0,P|102:109|155:122,1,75,0|2,1:2|0:0,0:0:0:0:
205,168,111192,2,0,P|247:152|300:139,1,75,8|0,0:0|0:0,0:0:0:0:
338,80,111545,6,0,P|418:112|402:192,1,150,2|8,1:2|0:0,0:0:0:0:
420,166,112074,1,0,0:0:0:0:
512,185,112251,2,0,B|416:200|481:241|362:264,1,150,0|8,1:0|0:0,0:0:0:0:
308,343,112780,2,0,B|339:367|339:367|330:300,1,75,0|0,0:0|1:0,0:0:0:0:
246,260,113133,6,0,B|263:170|297:216|314:105,1,150,2|2,0:0|0:0,0:0:0:0:
242,62,113663,2,0,P|190:72|141:83,1,75,2|2,1:2|0:0,0:0:0:0:
100,25,114016,1,10,0:0:0:0:
100,25,114192,1,2,1:2:0:0:
12,100,114369,6,0,B|2:124|2:124|18:157|18:157|60:172|60:172|83:221|83:221|69:264,1,180,6|0,1:2|0:0,0:0:0:0:
77,238,115074,1,0,1:0:0:0:
43,328,115251,1,2,0:0:0:0:
43,328,115427,2,0,P|87:349|115:362,1,60,2|0,0:0|0:0,0:0:0:0:
177,315,115780,6,0,B|202:300|202:300|245:316|245:316|269:371|340:366,1,180,2|0,1:2|1:0,0:0:0:0:
376,304,116486,2,0,P|364:259|356:218,1,60,0|2,0:0|0:0,0:0:0:0:
280,200,116839,1,2,0:0:0:0:
280,200,117016,1,0,1:0:0:0:
309,101,117192,6,0,P|400:122|438:130,1,120,2|0,1:2|0:0,0:0:0:0:
244,23,117898,2,0,B|193:30|193:30|174:53|174:53|120:64,1,120,2|2,1:2|0:2,0:0:0:0:
136,60,118427,1,0,0:0:0:0:
79,0,118604,2,0,L|61:131,1,120,2|0,1:2|0:0,0:0:0:0:
101,188,119133,2,0,B|114:219|89:248|89:248|80:212|45:200,1,120,2|0,1:2|1:0,0:0:0:0:
56,205,119663,1,10,1:2:0:0:
192,240,119839,1,0,0:0:0:0:
192,240,120369,6,0,B|209:258|209:258|245:251|245:251|293:198|250:123,1,179.999994506836,6|0,1:2|1:0,0:0:0:0:
304,64,120898,1,0,0:0:0:0:
304,64,121074,2,0,P|368:80|392:88,1,75,8|0,0:0|0:0,0:0:0:0:
479,118,121427,6,0,B|450:108|450:108|415:123|415:123|415:161|359:202,1,150,2|8,1:2|0:0,0:0:0:0:
436,261,121957,2,0,P|442:303|428:346,1,75,2|0,0:0|1:0,0:0:0:0:
337,371,122310,1,0,0:0:0:0:
337,371,122486,2,0,P|331:329|345:286,1,75,8|0,0:0|1:0,0:0:0:0:
236,266,122839,6,0,B|188:275|188:275|186:280|186:280|117:295,1,112.5,2|0,1:2|0:0,0:0:0:0:
119,297,123192,2,0,P|102:257|114:213,1,75,8|0,0:0|0:0,0:0:0:0:
136,150,123545,2,0,L|48:134,1,75,0|0,1:0|1:0,0:0:0:0:
14,54,123898,2,0,B|23:35|23:35|63:9|121:23,1,112.5,8|0,0:0|0:0,0:0:0:0:
128,49,124251,5,6,1:2:0:0:
216,0,124427,1,0,1:0:0:0:
216,0,124516,1,0,1:0:0:0:
216,0,124604,2,0,L|229:89,1,75,8|0,0:0|1:0,0:0:0:0:
328,144,124957,2,0,B|344:112|344:112|335:70,1,75,6|0,1:2|1:0,0:0:0:0:
335,73,125221,1,0,1:0:0:0:
335,73,125310,1,8,0:0:0:0:
230,90,125486,2,0,L|179:81,2,37.5,0|2|2,1:0|0:0|1:2,0:0:0:0:
281,235,126016,6,0,B|320:229|310:244|356:237,1,75,10|0,3:2|0:0,0:0:0:0:
453,157,126369,2,0,L|461:104,2,50,2|2|2,1:2|1:2|1:2,0:0:0:0:
507,226,126721,2,0,P|527:287|485:334,1,100,10|0,0:0|0:0,0:0:0:0:
454,370,127074,1,6,1:2:0:0:
454,370,127427,6,0,B|396:372|378:331|378:331|372:319|372:319|333:284|270:306,1,194.999991073609,8|2,0:0|1:2,0:0:0:0:
216,248,127957,2,0,B|230:224|230:224|239:149,1,75,0|8,0:0|0:0,0:0:0:0:
312,128,128310,6,0,B|336:57|256:0|184:56,1,150,2|2,0:0|0:0,0:0:0:0:
130,0,128839,1,10,0:0:0:0:
65,48,129016,1,2,0:0:0:0:
99,128,129192,2,0,L|78:277,1,150,2|10,1:2|0:0,0:0:0:0:
118,353,129721,1,0,1:0:0:0:
197,326,129898,1,2,1:2:0:0:
197,326,130251,6,0,B|212:293|212:293|198:244,1,75,10|0,0:0|0:0,0:0:0:0:
248,184,130604,1,0,1:0:0:0:
248,184,130780,2,0,B|285:188|285:188|293:195|293:195|343:202,1,75,2|8,0:0|0:0,0:0:0:0:
400,240,131133,1,0,0:0:0:0:
442,156,131310,6,0,P|430:117|429:69,1,75,2|2,1:2|0:0,0:0:0:0:
360,29,131663,2,0,P|321:41|273:42,1,75,10|2,0:2|0:0,0:0:0:0:
233,111,132016,2,0,P|245:150|246:198,1,75,2|2,1:2|0:0,0:0:0:0:
179,238,132369,2,0,P|140:226|92:225,1,75,10|2,0:2|0:0,0:0:0:0:
48,288,132722,1,0,0:0:0:0:
16,192,132898,5,0,1:0:0:0:
16,192,132986,1,0,1:0:0:0:
16,192,133074,2,0,B|-16:146|28:90|28:90|72:121,1,150,6|2,1:2|1:2,0:0:0:0:
141,62,133604,2,0,B|152:31|122:14|122:14|130:50,1,75,0|8,0:0|0:0,0:0:0:0:
75,120,133957,6,0,L|248:88,1,150,2|2,0:0|0:0,0:0:0:0:
278,25,134486,1,8,0:0:0:0:
278,25,134663,2,0,B|300:38|300:38|317:120,1,75,0|0,0:0|1:0,0:0:0:0:
273,166,135016,1,0,0:0:0:0:
273,166,135192,2,0,P|310:169|344:184,1,75,8|0,0:0|1:0,0:0:0:0:
419,135,135545,1,2,1:2:0:0:
476,274,135898,6,0,P|413:260|367:340,1,150,10|0,0:0|1:0,0:0:0:0:
273,355,136427,2,0,B|239:372|239:372|247:314,1,75,2|8,0:0|0:0,0:0:0:0:
281,262,136780,2,0,L|268:181,1,75,2|0,0:0|1:0,0:0:0:0:
339,107,137133,1,10,0:0:0:0:
339,107,137221,1,8,0:0:0:0:
339,107,137310,2,0,P|343:70|314:30,1,75,0|8,1:0|0:0,0:0:0:0:
239,8,137663,2,0,B|207:17|207:17|203:22|203:22|149:35,1,75,10|10,0:0|0:0,0:0:0:0:
64,112,138016,2,0,B|96:121|96:121|100:126|100:126|154:139,1,75,10|10,0:0|0:0,0:0:0:0:
134,134,138280,1,8,0:0:0:0:
134,134,138369,5,6,1:2:0:0:
186,294,138721,6,0,B|244:292|244:292|268:328|303:355|303:355|370:358,1,194.999991073609,8|2,0:0|1:2,0:0:0:0:
453,330,139251,2,0,B|467:306|467:306|476:231,1,75,0|8,0:0|0:0,0:0:0:0:
449,170,139604,6,0,B|415:102|318:119|307:209,1,150,2|2,0:0|0:0,0:0:0:0:
248,219,140133,1,10,0:0:0:0:
169,168,140310,1,2,0:0:0:0:
91,228,140486,2,0,L|70:79,1,150,2|10,1:2|0:0,0:0:0:0:
128,10,141015,1,0,1:0:0:0:
203,67,141192,1,2,1:2:0:0:
203,67,141545,6,0,B|236:52|236:52|285:66,1,75,10|0,0:2|0:0,0:0:0:0:
330,143,141898,1,2,1:2:0:0:
330,143,142074,2,0,B|367:147|367:147|375:154|375:154|425:161,1,75,2|8,0:0|0:0,0:0:0:0:
462,96,142427,1,0,0:0:0:0:
512,168,142604,6,0,P|500:207|499:255,1,75,2|2,1:2|0:0,0:0:0:0:
429,286,142957,2,0,P|441:325|442:373,1,75,10|2,0:2|0:0,0:0:0:0:
355,227,143310,2,0,P|317:224|282:212,1,75,2|2,1:2|0:0,0:0:0:0:
227,295,143663,2,0,P|188:283|140:282,1,75,10|2,0:2|0:0,0:0:0:0:
22,146,144192,5,0,1:0:0:0:
22,146,144280,1,0,1:0:0:0:
22,146,144369,2,0,B|0:67|0:67|63:26,1,146.249993305207,6|0,1:2|0:0,0:0:0:0:
74,19,144721,2,0,P|126:36|146:38,1,75,4|0,1:2|0:0,0:0:0:0:
142,72,144986,1,12,0:2:0:0:
190,209,145251,6,0,L|363:177,1,150,4|2,1:2|0:0,0:0:0:0:
392,94,145780,1,8,0:0:0:0:
392,94,145957,1,2,0:0:0:0:
479,110,146134,2,0,B|501:123|501:123|511:171,1,75,2|2,1:2|0:0,0:0:0:0:
503,192,146398,1,2,0:0:0:0:
503,192,146486,1,8,0:0:0:0:
443,270,146663,1,2,0:0:0:0:
501,351,146839,6,0,P|458:362|427:374,1,75,6|0,1:2|1:0,0:0:0:0:
343,317,147192,2,0,P|280:303|234:383,1,150,10|6,0:0|1:2,0:0:0:0:
151,305,147721,1,0,1:0:0:0:
151,305,147898,1,10,0:0:0:0:
41,360,148074,6,0,L|28:279,1,75,2|6,0:0|1:2,0:0:0:0:
138,221,148427,1,0,1:0:0:0:
138,221,148515,1,0,1:0:0:0:
138,221,148604,2,0,P|142:184|113:144,1,75,8|0,0:2|1:0,0:0:0:0:
36,111,148957,5,2,1:2:0:0:
36,111,149045,1,2,1:2:0:0:
36,111,149133,2,0,B|27:79|27:79|22:75|22:75|9:21,1,75,2|8,1:2|0:0,0:0:0:0:
13,40,149486,1,0,0:0:0:0:
147,45,149663,5,0,0:0:0:0:
147,45,149840,2,0,P|184:35|219:21,1,75,2|2,3:0|3:0,0:0:0:0:
275,113,150192,1,0,0:0:0:0:
275,113,150369,1,0,0:0:0:0:
205,228,150545,6,0,P|218:262|228:299,1,75,2|2,3:0|3:0,0:0:0:0:
228,299,150898,1,0,0:0:0:0:
311,343,151074,2,0,B|413:334|356:391|485:378,2,150,6|2|2,1:2|1:2|1:2,0:0:0:0:
228,299,151957,1,0,0:0:0:0:
159,363,152133,2,0,P|122:353|67:344,1,75,14|2,0:2|0:0,0:0:0:0:
23,227,152486,6,0,P|5:192|89:123,1,150,2|8,1:2|0:0,0:0:0:0:
137,179,153016,1,0,0:0:0:0:
209,132,153192,2,0,P|273:154|309:162,1,75,0|0,1:0|0:0,0:0:0:0:
280,155,153545,1,8,0:0:0:0:
327,263,153721,6,0,B|383:231|383:231|484:290,1,150,2|2,0:0|0:0,0:0:0:0:
502,197,154251,1,8,0:0:0:0:
445,122,154427,1,2,0:0:0:0:
445,122,154516,1,2,0:0:0:0:
445,122,154604,2,0,P|470:59|476:41,1,75,2|2,1:2|0:0,0:0:0:0:
386,0,154957,2,0,P|373:35|358:69,1,75,8|2,0:0|0:2,0:0:0:0:
278,116,155310,5,2,1:2:0:0:
278,116,155486,1,0,0:0:0:0:
170,36,155663,2,0,B|88:48|127:102|38:120,1,150,10|2,0:0|1:2,0:0:0:0:
49,117,156192,1,2,0:0:0:0:
147,219,156369,1,10,0:0:0:0:
198,151,156545,1,0,0:0:0:0:
285,177,156721,6,0,P|325:162|359:143,1,75,2|0,1:2|0:0,0:0:0:0:
437,204,157074,2,0,P|452:244|471:278,1,75,10|0,0:0|0:0,0:0:0:0:
406,353,157427,2,0,P|366:368|332:387,1,75,2|0,1:2|0:0,0:0:0:0:
252,346,157780,1,10,0:0:0:0:
252,346,157957,1,0,0:0:0:0:
104,367,158133,6,0,P|62:378|9:287,1,150,6|8,1:2|0:0,0:0:0:0:
4,303,158663,1,0,0:0:0:0:
77,241,158839,2,0,B|92:208|92:208|83:148,1,75,6|0,1:2|0:0,0:0:0:0:
1,104,159192,2,0,P|17:61|28:21,1,75,8|0,0:0|0:0,0:0:0:0:
106,2,159545,5,6,1:2:0:0:
106,2,159721,1,2,0:0:0:0:
165,73,159898,1,8,0:0:0:0:
291,6,160074,2,0,B|368:32|325:72|414:98,1,150,2|0,0:0|0:0,0:0:0:0:
468,187,160604,2,0,L|516:166|516:166,3,37.5,8|2|2|2,0:0|0:0|0:0|0:0,0:0:0:0:
437,235,160957,6,0,P|389:193|303:227,1,150,6|8,1:2|0:0,0:0:0:0:
312,214,161486,1,2,0:0:0:0:
216,187,161663,2,0,P|199:136|190:89,1,75,2|0,1:2|0:0,0:0:0:0:
130,238,162016,2,0,P|147:289|156:336,1,75,10|2,0:2|0:0,0:0:0:0:
287,372,162369,6,0,P|345:350|384:342,1,75,2|6,1:2|1:2,0:0:0:0:
371,315,162633,1,2,1:2:0:0:
371,315,162721,2,0,B|408:306|408:306|452:328,1,75,10|0,0:0|1:0,0:0:0:0:
494,249,163074,1,8,0:0:0:0:
494,249,163251,1,0,1:0:0:0:
412,190,163427,2,0,L|370:200,3,37.5,8|8|8|8,0:0|0:0|0:0|0:0,0:0:0:0:
444,155,163780,6,0,P|432:115|419:68,1,75,6|2,1:2|0:0,0:0:0:0:
334,0,164133,2,0,P|322:40|309:87,1,75,10|0,0:0|0:0,0:0:0:0:
220,121,164486,2,0,P|182:106|144:95,1,75,2|0,1:2|0:0,0:0:0:0:
82,24,164839,1,8,0:0:0:0:
82,24,165016,1,0,0:0:0:0:
48,136,165192,6,0,B|-1:186|-1:186|42:270,1,150,2|8,1:2|0:0,0:0:0:0:
115,219,165721,2,0,B|213:221|164:275|275:269,1,150,2|2,0:0|0:0,0:0:0:0:
303,203,166251,1,8,0:0:0:0:
303,203,166427,1,2,0:0:0:0:
385,269,166604,6,0,P|372:308|366:352,1,75,2|0,1:2|0:0,0:0:0:0:
271,384,166957,2,0,P|232:371|188:365,1,75,8|0,0:2|0:0,0:0:0:0:
144,281,167310,2,0,P|100:301|64:313,2,75,0|2|8,1:2|0:0|0:0,0:0:0:0:
144,281,167839,1,0,0:0:0:0:
204,159,168016,6,0,P|241:178|358:207,1,150,2|8,1:2|0:0,0:0:0:0:
434,274,168545,2,0,P|479:238|474:139,1,150,2|2,0:0|0:0,0:0:0:0:
481,150,169074,1,8,0:0:0:0:
416,84,169251,1,2,0:0:0:0:
512,28,169427,6,0,P|476:15|442:0,1,75,6|0,1:2|0:0,0:0:0:0:
332,105,169780,2,0,B|244:118|294:167|181:183,1,150,8|2,0:2|1:2,0:0:0:0:
135,107,170310,1,0,0:0:0:0:
135,107,170486,2,0,P|148:48|152:22,1,75,8|0,0:2|0:0,0:0:0:0:
35,132,170839,6,0,B|-24:175|-24:175|6:250,1,150,2|8,1:2|0:0,0:0:0:0:
84,301,171369,2,0,B|135:322|135:322|153:359|153:359|207:372,1,150,0|2,0:0|0:0,0:0:0:0:
270,305,171898,2,0,P|253:242|246:206,1,75,10|2,0:0|0:2,0:0:0:0:
159,194,172251,6,0,P|113:156|154:68,1,150,2|8,1:2|0:0,0:0:0:0:
209,15,172780,2,0,B|278:34|253:75|342:95,1,150,0|0,0:0|0:0,0:0:0:0:
333,93,173310,1,8,0:0:0:0:
458,26,173486,6,0,P|476:115|496:183,1,150,2|2,0:0|1:2,0:0:0:0:
480,190,173927,1,2,1:2:0:0:
480,190,174016,2,0,P|437:206|393:225,1,75,10|8,1:2|0:2,0:0:0:0:
343,308,174369,2,0,P|378:320|412:335,2,75,10|8|10,0:2|0:2|0:2,0:0:0:0:
343,308,174898,1,10,0:2:0:0:
247,231,175074,6,0,P|218:257|165:257,1,75,6|0,1:2|1:0,0:0:0:0:
183,262,175427,1,10,0:2:0:0:
104,338,175604,2,0,P|28:306|8:213,1,150,0|0,1:0|0:0,0:0:0:0:
74,186,176133,1,2,0:0:0:0:
0,37,176486,6,0,P|52:48|93:54,1,75,2|2,1:2|1:2,0:0:0:0:
73,51,176839,1,10,0:0:0:0:
155,123,177016,2,0,P|196:111|306:67,1,150,2|2,1:2|0:0,0:0:0:0:
346,4,177545,2,0,P|397:30|417:34,1,75,8|0,0:0|1:0,0:0:0:0:
470,107,177898,5,2,1:2:0:0:
470,107,178074,1,0,1:0:0:0:
413,221,178251,2,0,B|362:242|362:242|345:279|345:279|287:304,1,150,14|0,1:2|1:0,0:0:0:0:
295,300,178780,1,0,1:0:0:0:
227,228,178957,2,0,P|236:178|241:136,1,75,14|0,1:2|0:0,0:0:0:0:
330,108,179310,6,0,P|321:58|316:16,1,75,2|0,1:2|1:0,0:0:0:0:
287,19,179574,1,0,1:0:0:0:
287,19,179663,1,14,0:0:0:0:
165,76,179839,6,0,P|81:68|0:48,1,150,0|10,1:2|0:2,0:0:0:0:
0,189,180369,2,0,P|64:167|93:161,1,75,8|0,0:0|1:0,0:0:0:0:
106,189,180633,1,0,1:2:0:0:
106,189,180721,1,6,1:2:0:0:
152,299,180898,5,0,0:0:0:0:
152,299,181074,2,0,P|189:304|225:314,1,75,8|0,0:0|0:0,0:0:0:0:
305,246,181427,2,0,P|295:209|289:172,2,75,6|0|8,1:2|0:0|0:0,0:0:0:0:
401,343,181957,1,0,0:0:0:0:
401,343,182133,6,0,P|455:319|453:219,1,150,6|10,1:2|0:2,0:0:0:0:
394,176,182663,1,2,0:0:0:0:
477,115,182839,2,0,P|484:78|498:43,1,75,6|0,1:2|0:0,0:0:0:0:
403,0,183192,2,0,P|358:16|324:22,1,75,8|0,0:0|1:0,0:0:0:0:
282,134,183545,6,0,B|196:158|253:204|155:222,1,150,6|8,1:2|0:0,0:0:0:0:
293,228,184074,2,0,B|379:252|322:298|420:316,1,150,2|2,0:2|0:0,0:0:0:0:
302,357,184604,2,0,P|260:369|211:387,1,75,8|0,0:0|0:0,0:0:0:0:
101,304,184957,6,0,B|111:260|117:196,1,75,0|12,1:2|0:0,0:0:0:0:
147,206,185221,1,8,0:0:0:0:
147,206,185310,1,0,1:0:0:0:
44,151,185486,1,0,1:0:0:0:
44,151,185663,2,0,B|32:117|32:117|50:62,1,75,4|2,1:2|3:2,0:0:0:0:
125,15,186016,2,0,B|169:25|233:31,1,75,2|0,3:2|1:0,0:0:0:0:
241,125,186369,6,0,B|303:159|303:159|313:200|313:200|388:236,1,180,6|0,1:2|0:0,0:0:0:0:
450,179,187074,1,0,1:0:0:0:
506,264,187251,1,2,0:0:0:0:
506,264,187427,2,0,L|495:334,1,60,2|0,0:0|0:0,0:0:0:0:
411,384,187780,6,0,P|321:357|212:338,1,180,2|0,1:2|1:0,0:0:0:0:
173,248,188486,1,0,0:0:0:0:
173,248,188839,2,0,L|237:237,1,60,2|0,0:0|1:0,0:0:0:0:
288,166,189192,6,0,B|312:150|312:150|320:101|291:59,1,120,2|0,1:2|0:0,0:0:0:0:
206,16,189898,2,0,B|190:-8|190:-8|141:-16|99:13,1,120,2|2,1:2|0:2,0:0:0:0:
43,88,190427,1,0,0:0:0:0:
96,163,190604,6,0,L|75:297,1,120,2|0,1:2|0:0,0:0:0:0:
134,356,191133,2,0,P|163:342|208:342,1,60,2|0,1:2|0:0,0:0:0:0:
242,259,191486,2,0,P|272:262|299:275,1,60,0|10,1:0|1:2,0:0:0:0:
364,345,191839,2,0,B|428:345|404:385|476:385,1,120,0|0,0:0|0:0,0:0:0:0:
434,313,192369,6,0,B|388:253|388:253|445:145,1,179.999994506836,6|0,1:2|1:0,0:0:0:0:
408,67,192898,1,0,0:0:0:0:
408,67,193074,2,0,P|366:55|339:20,1,75,8|0,0:0|0:0,0:0:0:0:
296,135,193427,6,0,B|207:146|260:188|148:204,1,150,2|8,1:2|0:0,0:0:0:0:
72,147,193957,2,0,P|27:160|-29:174,1,75,2|0,0:0|1:0,0:0:0:0:
41,268,194310,1,0,0:0:0:0:
41,268,194486,2,0,P|78:278|114:289,1,75,8|0,0:0|1:0,0:0:0:0:
208,378,194839,6,0,P|242:337|228:267,1,112.5,2|0,1:2|0:0,0:0:0:0:
206,248,195192,2,0,P|213:204|257:168,1,75,8|0,0:0|0:0,0:0:0:0:
302,112,195545,2,0,L|383:127,1,75,0|0,1:0|1:0,0:0:0:0:
450,200,195898,2,0,P|489:164|479:93,1,112.5,8|0,0:0|0:0,0:0:0:0:
477,86,196251,5,6,1:2:0:0:
419,12,196427,1,0,1:0:0:0:
419,12,196516,1,0,1:0:0:0:
419,12,196604,2,0,P|376:5|320:-4,1,75,8|0,0:0|1:0,0:0:0:0:
305,98,196957,2,0,P|267:103|230:110,1,75,6|0,1:2|0:0,0:0:0:0:
156,47,197310,1,8,0:0:0:0:
156,47,197486,1,0,1:0:0:0:
74,104,197663,6,0,P|67:154|61:171,2,50,2|2|2,3:2|0:0|0:0,0:0:0:0:
86,177,198016,2,0,P|87:202|92:227,2,50,2|2|2,3:2|0:0|0:0,0:0:0:0:
58,248,198369,5,2,3:2:0:0:
134,309,198545,1,0,3:0:0:0:
216,249,198721,2,0,P|226:208|246:158,1,75,0|0,3:0|0:0,0:0:0:0:
324,137,199074,6,0,P|374:144|391:150,2,50,2|0|2,1:2|0:0|0:0,0:0:0:0:
406,118,199427,2,0,P|431:119|456:124,2,50,2|0|2,0:2|0:0|0:0,0:0:0:0:
488,158,199780,2,0,P|487:194|465:225,1,75,2|2,0:0|3:2,0:0:0:0:
508,322,200133,1,2,3:2:0:0:
508,322,200486,6,0,B|444:329|481:351|389:364,1,101.249996910095,6|0,1:2|0:0,0:0:0:0:
392,332,200839,1,2,0:0:0:0:
287,192,201192,1,0,0:0:0:0:
287,192,201369,2,0,P|244:209|214:214,1,67.4999979400635,0|0,0:0|0:0,0:0:0:0:
164,303,201721,6,0,P|120:280|26:250,1,134.999995880127,0|0,0:0|0:0,0:0:0:0:
0,165,202251,2,0,P|12:119|15:86,1,67.4999979400635,0|0,0:0|0:0,0:0:0:0:
123,25,202604,2,0,B|199:42|163:76|253:96,1,134.999995880127,2|0,0:0|3:0,0:0:0:0:
271,174,203133,1,0,1:0:0:0:
271,174,203310,5,0,1:0:0:0:
131,242,203663,2,0,P|149:330|157:389,1,134.999995880127,0|0,0:0|0:0,0:0:0:0:
251,384,204192,2,0,P|301:369|324:365,1,67.4999979400635,0|0,0:0|0:0,0:0:0:0:
362,271,204545,1,0,0:0:0:0:
473,355,204721,6,0,P|496:331|504:298,1,67.4999979400635,2|2,0:0|0:0,0:0:0:0:
443,223,205074,2,0,P|435:190|411:166,1,67.4999979400635,2|2,0:0|0:0,0:0:0:0:
322,176,205427,2,0,P|298:152|265:144,1,67.4999979400635,2|2,0:0|0:0,0:0:0:0:
190,206,205780,2,0,P|157:213|133:237,1,67.4999979400635,2|2,0:0|1:2,0:0:0:0:
74,362,206133,6,0,P|67:318|1:263,1,134.999995880127,6|2,1:2|0:0,0:0:0:0:
0,262,206663,1,0,0:0:0:0:
67,185,206839,2,0,P|76:140|83:106,1,67.4999979400635,0|0,0:0|0:0,0:0:0:0:
2,56,207192,1,0,0:0:0:0:
2,56,207369,1,0,1:0:0:0:
138,15,207545,5,6,1:2:0:0:
138,15,207721,2,0,P|188:34|227:47,1,67.4999979400635,0|0,0:0|3:0,0:0:0:0:
246,140,208074,2,0,P|283:92|361:108,1,134.999995880127,0|0,0:0|0:0,0:0:0:0:
351,99,208604,1,0,3:0:0:0:
416,24,208780,1,0,1:0:0:0:
490,144,208957,6,0,P|482:185|476:220,1,67.4999979400635,6|0,1:2|1:0,0:0:0:0:
392,248,209310,1,0,1:0:0:0:
392,248,209486,1,0,1:0:0:0:
310,176,209663,1,6,1:2:0:0:
221,221,209839,2,0,P|170:198|151:192,1,67.4999979400635,0|0,1:0|1:2,0:0:0:0:
49,114,210192,6,0,B|1:153|1:153|37:240,1,134.999995880127,0|8,1:0|0:0,0:0:0:0:
62,222,210633,1,8,0:0:0:0:
62,222,210721,1,2,1:2:0:0:
10,321,210898,1,2,0:0:0:0:
96,384,211074,2,0,P|138:362|173:356,1,67.4999979400635,8|2,0:0|1:2,0:0:0:0:
207,264,211427,2,0,P|249:286|284:292,1,67.4999979400635,2|2,0:2|0:0,0:0:0:0:
373,384,211780,5,6,1:2:0:0:
373,384,212133,2,0,B|397:328|408:290|408:290|385:244|350:207,1,194.999991073609,8|2,0:2|1:2,0:0:0:0:
265,183,212663,2,0,B|242:154|242:154|263:84,1,75,0|8,0:0|0:0,0:0:0:0:
332,15,213016,6,0,B|376:2|406:17|406:17|436:65|495:35,1,150,2|2,0:0|0:0,0:0:0:0:
512,143,213544,1,10,0:0:0:0:
512,143,213721,1,2,0:0:0:0:
436,206,213897,2,0,P|453:247|464:286,1,75,2|0,1:2|0:0,0:0:0:0:
461,276,214250,1,10,0:0:0:0:
512,354,214427,6,0,P|451:313|381:333,1,150,0|0,1:0|0:0,0:0:0:0:
310,260,214956,1,10,0:0:0:0:
310,260,215132,1,0,0:0:0:0:
228,304,215309,1,0,1:0:0:0:
164,230,215486,2,0,P|121:219|78:196,1,75,2|8,0:0|0:0,0:0:0:0:
0,117,215839,5,0,0:0:0:0:
0,117,216016,2,0,P|57:94|85:77,1,75,2|2,1:2|0:0,0:0:0:0:
126,15,216369,2,0,P|159:32|194:44,1,75,10|2,0:2|0:0,0:0:0:0:
282,37,216721,2,0,P|293:72|309:106,1,75,2|2,1:2|0:0,0:0:0:0:
403,124,217074,2,0,P|385:157|373:192,1,75,10|2,0:2|0:0,0:0:0:0:
229,316,217603,5,2,1:2:0:0:
229,316,217691,1,2,1:2:0:0:
229,316,217780,2,0,B|176:295|176:295|160:261|160:261|97:230,1,146.249993305207,6|0,1:2|0:0,0:0:0:0:
98,213,218133,2,0,L|109:138,1,75,4|0,1:2|0:0,0:0:0:0:
130,121,218397,1,12,0:2:0:0:
7,48,218663,6,0,P|48:3|148:19,1,150,2|2,0:0|0:0,0:0:0:0:
208,79,219191,1,8,0:0:0:0:
287,32,219368,1,2,0:0:0:0:
361,85,219544,2,0,P|370:140|396:177,1,75,2|2,1:2|0:0,0:0:0:0:
366,184,219809,1,2,0:0:0:0:
366,184,219897,1,8,0:0:0:0:
292,250,220074,1,2,1:2:0:0:
172,188,220250,6,0,L|66:173,1,75,6|0,1:2|1:0,0:0:0:0:
9,247,220603,1,10,0:0:0:0:
9,247,220780,1,2,0:0:0:0:
77,358,220956,6,0,L|183:343,1,75,6|0,1:2|1:0,0:0:0:0:
200,253,221309,2,0,P|236:261|273:266,1,75,10|2,0:0|0:0,0:0:0:0:
323,348,221663,1,6,1:2:0:0:
323,348,221838,5,0,1:0:0:0:
416,328,222016,2,0,P|447:279|435:240,1,75,8|0,0:2|1:0,0:0:0:0:
378,202,222369,1,2,1:2:0:0:
378,202,222457,1,2,1:2:0:0:
378,202,222545,2,0,P|352:175|348:138,1,75,2|8,1:2|0:0,0:0:0:0:
419,75,222897,1,0,0:0:0:0:
419,75,223074,1,0,0:0:0:0:
286,14,223251,5,2,3:0:0:0:
286,14,223427,2,0,L|213:28,1,75,2|0,3:0|0:0,0:0:0:0:
163,121,223780,1,0,0:0:0:0:
244,176,223956,1,2,3:0:0:0:
197,263,224133,2,0,L|211:336,1,75,2|0,3:0|0:0,0:0:0:0:
338,310,224486,6,0,B|390:324|390:324|414:355|414:355|472:366,2,150,6|2|2,1:2|1:2|1:2,0:0:0:0:
244,176,225545,6,0,B|176:180|209:214|141:220,1,112.5,2|0,1:2|0:2,0:0:0:0:
126,254,225898,1,4,1:2:0:0:
126,254,226251,6,0,P|71:209|103:111,1,150,8|0,0:0|0:0,0:0:0:0:
129,38,226781,1,2,0:0:0:0:
129,38,226957,2,0,B|168:32|168:32|172:29|172:29|208:24,1,75,8|2,0:0|0:0,0:0:0:0:
264,92,227310,6,0,P|332:86|342:164,1,150,2|8,1:2|0:0,0:0:0:0:
438,154,227839,1,2,0:0:0:0:
438,154,228016,2,0,B|354:176|399:214|303:235,1,150,2|10,1:2|0:0,0:0:0:0:
269,324,228545,1,2,0:0:0:0:
269,324,228633,1,2,0:0:0:0:
269,324,228722,2,0,L|193:314,1,75,2|0,1:2|0:0,0:0:0:0:
84,381,229075,6,0,B|37:365|37:365|5:332|15:256,1,150,10|2,0:0|1:2,0:0:0:0:
85,202,229604,1,0,0:0:0:0:
85,202,229781,2,0,P|76:158|62:109,1,75,10|0,0:0|0:0,0:0:0:0:
146,46,230133,6,0,B|206:25|206:25|300:62,1,150,2|8,1:2|0:0,0:0:0:0:
286,56,230663,1,2,0:0:0:0:
441,166,231016,1,2,3:2:0:0:
398,249,231192,2,0,P|356:256|308:264,1,75,10|0,3:2|1:0,0:0:0:0:
215,182,231545,5,6,1:2:0:0:
215,182,231898,2,0,B|144:166|144:166|82:200|137:258,1,150,10|0,0:0|1:0,0:0:0:0:
201,291,232428,1,2,0:0:0:0:
201,291,232604,2,0,P|209:339|217:395,1,75,8|2,0:0|0:0,0:0:0:0:
310,383,232957,6,0,P|358:375|414:367,1,75,0|2,1:0|0:0,0:0:0:0:
453,308,233310,2,0,B|476:261|476:261|441:205,1,112.5,10|0,0:0|0:0,0:0:0:0:
399,203,233663,1,2,1:2:0:0:
442,113,233839,1,2,0:0:0:0:
363,40,234016,2,0,P|325:34|288:30,1,75,10|0,3:2|1:0,0:0:0:0:
210,137,234369,6,0,B|144:152|144:152|102:121,1,112.5,2|0,1:2|0:0,0:0:0:0:
69,140,234722,2,0,P|38:165|27:202,1,75,8|0,0:0|0:0,0:0:0:0:
89,264,235074,2,0,P|109:336|120:384,1,112.5,2|0,1:2|0:0,0:0:0:0:
157,384,235427,2,0,P|220:368|258:364,1,75,8|0,0:0|0:0,0:0:0:0:
304,309,235780,6,0,B|314:274|314:274|286:218,1,75,2|2,1:2|0:0,0:0:0:0:
199,209,236133,2,0,B|189:174|189:174|217:118,1,75,10|2,0:2|0:0,0:0:0:0:
283,66,236486,2,0,P|345:81|373:85,1,75,2|2,1:2|0:0,0:0:0:0:
430,163,236839,2,0,P|492:148|520:144,1,75,10|2,0:2|0:0,0:0:0:0:
396,259,237192,6,0,P|334:244|306:240,1,75,6|0,1:2|0:0,0:0:0:0:
219,158,237545,2,0,B|140:168|172:215|92:231,1,150,10|0,0:0|1:0,0:0:0:0:
22,293,238074,2,0,P|36:355|42:391,1,75,2|8,0:0|0:0,0:0:0:0:
121,341,238427,6,0,P|191:329|238:384,1,150,2|2,0:0|0:0,0:0:0:0:
238,384,238957,1,10,0:0:0:0:
326,322,239133,2,0,P|396:333|443:278,1,150,2|2,0:0|0:0,0:0:0:0:
483,191,239663,2,0,P|460:147|448:111,1,75,10|2,0:0|0:0,0:0:0:0:
361,89,240016,5,0,1:0:0:0:
361,89,240192,1,2,0:0:0:0:
267,190,240369,2,0,P|200:175|112:162,1,150,10|2,0:0|1:2,0:0:0:0:
119,162,240898,1,0,0:0:0:0:
37,224,241074,2,0,P|1:200|-7:154,1,75,10|0,0:0|0:0,0:0:0:0:
14,58,241427,6,0,P|84:38|164:5,1,150,2|10,1:2|0:0,0:0:0:0:
204,92,241957,2,0,P|254:107|294:115,1,75,2|0,0:0|1:0,0:0:0:0:
393,33,242310,1,2,3:2:0:0:
393,33,242486,2,0,P|428:80|429:111,1,75,10|0,3:2|1:0,0:0:0:0:
512,159,242839,6,0,P|477:206|476:237,1,75,2|0,1:2|1:0,0:0:0:0:
512,321,243192,1,14,0:0:0:0:
512,321,243369,1,2,0:0:0:0:
413,323,243545,2,0,B|333:334|365:381|258:387,1,150,2|14,1:2|0:0,0:0:0:0:
279,384,244074,1,2,0:2:0:0:
189,280,244251,6,0,P|194:234|198:199,2,75,2|2|14,1:2|0:0|0:0,0:0:0:0:
115,343,244780,2,0,P|73:358|16:265,1,150,2|2,0:0|0:0,0:0:0:0:
74,213,245310,2,0,P|93:167|65:118,1,75,14|2,0:0|0:0,0:0:0:0:
16,96,245663,6,0,L|1:48,2,37.5,6|0|0,1:2|1:0|1:0,0:0:0:0:
110,38,246016,2,8,L|125:-10,2,37.5,14|0|0,1:2|1:0|1:0,0:0:0:0:
176,112,246369,2,0,P|236:135|263:155,1,75,6|0,1:2|1:0,0:0:0:0:
327,31,246721,2,0,P|359:13|395:2,1,75,14|0,0:2|1:0,0:0:0:0:
395,1,247074,5,2,1:2:0:0:
475,70,247251,2,0,L|517:56,2,37.5,2|2|10,1:2|1:2|0:0,0:0:0:0:
409,145,247604,1,2,1:2:0:0:
409,145,247692,1,2,1:2:0:0:
409,145,247780,2,0,P|423:190|432:224,1,75,2|2,1:2|1:2,0:0:0:0:
512,271,248133,1,2,1:2:0:0:
512,271,248310,1,2,1:2:0:0:
336,372,248839,5,6,1:2:0:0:
256,192,248927,12,0,251310,0:0:0:0:
