osu file format v14

[General]
AudioFilename: audio.mp3
AudioLeadIn: 0
PreviewTime: 15767
Countdown: 0
SampleSet: Soft
StackLeniency: 0.7
Mode: 0
LetterboxInBreaks: 0
WidescreenStoryboard: 0

[Editor]
DistanceSpacing: 1
BeatDivisor: 4
GridSize: 32
TimelineZoom: 1

[Metadata]
Title:Ievan Polkka x Fubuki (Hamburgaga Remix)
TitleUnicode:Ievan Polkka x Fubuki (Hamburgaga Remix)
Artist:Shirakami Fubuki
ArtistUnicode:白上フブキ
Creator:-Aqua
Version:Normal
Source:
Tags:フブキCh。白上フブキ Fubuki Channel hololive Virtual Youtuber VTuber Finnish Pop Cover Ieva's Polkka ロイツマ Loituma Roitsuma Remix ytpmv 音MAD Amateurre
BeatmapID:2263838
BeatmapSetID:1082270

[Difficulty]
HPDrainRate:4
CircleSize:3.5
OverallDifficulty:4
ApproachRate:5
SliderMultiplier:1.2
SliderTickRate:1

[Events]
//Background and Video events
Video,-55,"Ievan_Polkka_x_Fubuki-1daMpenuJ7o.mp4"
0,0,"fubukifubukifubuki.jpg",0,0
//Break Periods
//Storyboard Layer 0 (Background)
//Storyboard Layer 1 (Fail)
//Storyboard Layer 2 (Pass)
//Storyboard Layer 3 (Foreground)
//Storyboard Layer 4 (Overlay)
//Storyboard Sound Samples

[TimingPoints]
17,500,4,2,1,50,1,0
17,-100,4,2,1,50,0,0
8017,-100,4,2,1,60,0,0
16017,-100,4,2,1,75,0,1
31017,-100,4,2,1,75,0,0
32017,-100,4,2,1,75,0,1
47017,-100,4,2,1,60,0,0
48017,-100,4,2,1,40,0,0
56017,-100,4,2,1,60,0,0
63517,-100,4,2,1,20,0,0

[Colours]
Combo1 : 181,255,218
Combo2 : 223,223,223
Combo3 : 162,224,255

[HitObjects]
52,338,17,6,0,L|174:317,1,120,2|2,0:0|0:0,0:0:0:0:
242,221,1017,2,0,L|364:242,1,120,2|2,0:0|0:0,0:0:0:0:
429,346,2017,1,2,0:0:0:0:
429,346,2517,1,2,0:0:0:0:
508,256,3017,2,0,P|524:214|498:140,1,120,2|2,0:0|0:0,0:0:0:0:
381,129,4017,6,0,L|258:159,1,120,2|2,0:0|0:0,0:0:0:0:
183,245,5017,2,0,B|140:233|140:233|127:215|127:215|63:196,1,120,2|2,0:0|0:0,0:0:0:0:
49,87,6017,1,2,0:0:0:0:
49,87,6517,1,2,0:0:0:0:
143,13,7017,2,0,L|202:-1,1,60,2|0,0:0|0:0,0:0:0:0:
275,94,7767,1,2,0:0:0:0:
292,151,8017,6,0,B|335:163|335:163|348:181|348:181|412:200,1,120,2|10,1:2|3:2,0:0:0:0:
496,126,9017,2,0,P|503:74|449:10,1,120,2|10,1:2|0:0,0:0:0:0:
409,3,9767,1,2,0:0:0:0:
350,15,10017,2,0,L|233:41,1,120,2|10,1:2|3:2,0:0:0:0:
161,137,11017,2,0,L|44:111,1,120,2|10,1:2|3:2,0:0:0:0:
25,167,11767,1,2,0:0:0:0:
6,224,12017,6,0,B|-2:285|-2:285|32:341,1,120,2|10,1:2|3:2,0:0:0:0:
142,369,13017,2,0,B|211:349|200:392|273:374,1,120,2|10,1:2|0:0,0:0:0:0:
307,341,13767,1,2,0:0:0:0:
337,289,14017,2,0,L|307:171,1,120,2|10,1:2|0:0,0:0:0:0:
262,141,14767,1,0,0:0:0:0:
262,141,15017,1,2,0:0:0:0:
299,26,15517,1,0,0:2:0:0:
397,95,16017,6,0,L|465:80,1,60,0|0,1:2|0:0,0:0:0:0:
499,122,16517,1,10,0:0:0:0:
454,233,17017,2,0,L|513:249,2,60,2|2|10,1:2|3:2|0:0,0:0:0:0:
417,281,17767,1,0,0:0:0:0:
388,333,18017,2,0,B|343:342|343:342|328:354|328:354|257:368,1,120,0|10,1:2|0:0,0:0:0:0:
182,286,19017,2,0,B|115:287|140:246|67:238,1,120,2|10,1:2|0:0,0:0:0:0:
34,283,19767,1,0,0:0:0:0:
0,325,20017,6,0,L|15:386,2,60,0|0|10,1:2|0:0|0:0,0:0:0:0:
75,239,21017,2,0,L|99:108,1,120,0|10,1:0|0:0,0:0:0:0:
69,67,21767,1,2,0:2:0:0:
112,25,22017,2,0,L|175:37,1,60,2|2,1:2|3:2,0:0:0:0:
200,93,22517,2,0,L|258:81,1,60,10|2,0:0|3:2,0:0:0:0:
304,42,23017,2,0,P|333:97|320:163,1,120,2|10,1:2|0:0,0:0:0:0:
210,185,24017,6,0,L|228:243,1,60,0|0,1:0|0:0,0:0:0:0:
204,297,24517,1,8,0:0:0:0:
289,381,25017,2,0,B|330:366|330:366|358:373|358:373|411:355,1,120,0|10,1:0|0:0,0:0:0:0:
423,300,25767,1,0,3:0:0:0:
446,244,26017,2,0,L|507:263,2,60,2|2|10,1:2|3:2|0:0,0:0:0:0:
413,193,26767,1,2,3:2:0:0:
383,140,27017,2,0,L|267:168,1,120,0|10,1:0|0:0,0:0:0:0:
226,281,28017,6,0,L|165:266,1,60,0|0,1:0|0:0,0:0:0:0:
132,217,28517,1,10,0:0:0:0:
66,317,29017,2,0,L|85:376,2,60,0|0|10,1:0|0:0|0:0,0:0:0:0:
34,266,29767,1,0,0:0:0:0:
2,215,30017,2,0,P|-8:182|45:108,1,120,2|10,1:2|0:0,0:0:0:0:
88,90,30767,1,0,0:0:0:0:
138,123,31017,1,2,0:0:0:0:
371,68,32017,6,0,L|360:139,1,60,0|0,1:0|0:0,0:0:0:0:
311,159,32517,1,10,0:0:0:0:
220,238,33017,2,0,L|149:249,2,60,2|2|10,1:2|3:2|0:0,0:0:0:0:
245,292,33767,1,0,0:0:0:0:
269,346,34017,2,0,B|337:334|318:370|397:368,1,120,0|10,1:0|0:0,0:0:0:0:
478,292,35017,2,0,B|491:255|491:255|467:170,1,120,2|10,1:2|0:0,0:0:0:0:
413,153,35767,1,0,0:0:0:0:
362,121,36017,6,0,L|374:52,2,60,0|0|10,1:0|0:0|0:0,0:0:0:0:
330,237,37017,2,0,P|277:271|206:258,1,120,0|10,1:2|0:0,0:0:0:0:
193,213,37767,1,2,0:2:0:0:
171,157,38017,2,0,L|111:171,1,60,2|2,1:2|3:2,0:0:0:0:
81,222,38517,2,0,L|22:208,1,60,10|2,0:0|3:2,0:0:0:0:
0,152,39017,2,0,P|-5:108|45:51,1,120,2|10,1:2|0:0,0:0:0:0:
154,14,40017,6,0,L|222:43,1,60,0|0,1:0|0:0,0:0:0:0:
219,96,40517,1,10,0:0:0:0:
276,201,41017,2,0,L|404:159,1,120,0|10,1:0|0:0,0:0:0:0:
405,105,41767,1,0,3:0:0:0:
418,53,42017,2,0,L|388:-9,2,60,2|2|10,1:2|3:2|0:0,0:0:0:0:
477,58,42767,1,2,3:2:0:0:
508,108,43017,2,0,B|528:153|528:153|510:228,1,120,0|10,1:0|0:0,0:0:0:0:
393,244,44017,6,0,L|410:311,1,60,0|0,1:0|0:0,0:0:0:0:
463,320,44517,1,10,0:0:0:0:
359,380,45017,2,0,B|328:368|328:368|294:372|294:372|226:350,1,120,0|10,1:0|0:0,0:0:0:0:
216,301,45767,1,0,3:0:0:0:
195,244,46017,2,0,L|214:188,2,60,2|2|10,1:2|3:2|0:0,0:0:0:0:
138,263,46767,1,2,3:2:0:0:
117,319,47017,2,0,B|48:318|69:353|4:353,1,120,2|0,0:0|0:0,0:0:0:0:
3,233,48017,6,0,B|0:178|0:178|45:128,1,120,2|2,0:0|0:0,0:0:0:0:
145,67,49017,2,0,P|186:106|263:106,1,120,2|2,0:0|0:0,0:0:0:0:
338,34,50017,1,2,0:0:0:0:
384,144,50517,2,0,L|368:262,1,120,2|2,0:0|0:0,0:0:0:0:
408,378,51517,1,2,0:0:0:0:
497,298,52017,6,0,L|512:179,1,120,2|2,0:0|0:0,0:0:0:0:
395,206,53017,2,0,L|379:87,1,120,2|0,0:0|0:0,0:0:0:0:
283,13,54017,1,2,0:0:0:0:
225,118,54517,1,2,0:0:0:0:
109,84,55017,2,0,B|66:94|66:94|45:114|45:114|-10:121,1,120,2|2,0:0|0:0,0:0:0:0:
48,229,56017,6,0,B|108:233|108:233,1,60,0|0,1:0|0:0,0:0:0:0:
136,285,56517,1,8,0:0:0:0:
200,184,57017,2,0,B|204:124,2,60,0|0|8,1:0|0:0|3:2,0:0:0:0:
253,291,58017,2,0,P|295:302|368:262,1,120,0|8,1:2|0:0,0:0:0:0:
380,213,58767,1,0,0:0:0:0:
404,162,59017,2,0,P|446:151|519:191,1,120,0|8,1:0|0:0,0:0:0:0:
505,302,60017,6,0,L|484:362,1,60,0|0,1:0|0:0,0:0:0:0:
427,375,60517,1,8,0:0:0:0:
342,289,61017,2,0,L|321:229,2,60,0|0|8,1:0|0:0|0:0,0:0:0:0:
250,367,62017,2,0,B|187:365|204:321|139:324,1,120,0|8,1:0|0:0,0:0:0:0:
99,366,62767,1,0,0:0:0:0:
40,354,63017,2,0,P|23:298|51:246,1,120,0|0,1:0|0:0,0:0:0:0:
