osu file format v14

[General]
AudioFilename: audio.mp3
AudioLeadIn: 0
PreviewTime: 15767
Countdown: 0
SampleSet: Soft
StackLeniency: 0.7
Mode: 0
LetterboxInBreaks: 0
WidescreenStoryboard: 0

[Editor]
DistanceSpacing: 1.4
BeatDivisor: 4
GridSize: 32
TimelineZoom: 1.8

[Metadata]
Title:Ievan Polkka x Fubuki (Hamburgaga Remix)
TitleUnicode:Ievan Polkka x Fubuki (Hamburgaga Remix)
Artist:Shirakami Fubuki
ArtistUnicode:白上フブキ
Creator:-Aqua
Version:Hard
Source:
Tags:フブキCh。白上フブキ Fubuki Channel hololive Virtual Youtuber VTuber Finnish Pop Cover Ieva's Polkka ロイツマ Loituma Roitsuma Remix ytpmv 音MAD Amateurre
BeatmapID:2263837
BeatmapSetID:1082270

[Difficulty]
HPDrainRate:5
CircleSize:3.8
OverallDifficulty:6
ApproachRate:7
SliderMultiplier:1.4
SliderTickRate:1

[Events]
//Background and Video events
Video,-55,"Ievan_Polkka_x_Fubuki-1daMpenuJ7o.mp4"
0,0,"fubukifubukifubuki.jpg",0,0
//Break Periods
//Storyboard Layer 0 (Background)
//Storyboard Layer 1 (Fail)
//Storyboard Layer 2 (Pass)
//Storyboard Layer 3 (Foreground)
//Storyboard Layer 4 (Overlay)
//Storyboard Sound Samples

[TimingPoints]
17,500,4,2,1,50,1,0
17,-125,4,2,1,50,0,0
8017,-111.111111111111,4,2,1,60,0,0
16017,-100,4,2,1,75,0,1
31017,-100,4,2,1,75,0,0
32017,-100,4,2,1,75,0,1
47017,-100,4,2,1,60,0,0
48017,-125,4,2,1,40,0,0
56017,-111.111111111111,4,2,1,60,0,0
63517,-111.111111111111,4,2,1,20,0,0

[Colours]
Combo1 : 181,255,218
Combo2 : 223,223,223
Combo3 : 162,224,255

[HitObjects]
105,210,17,6,0,P|70:238|72:318,1,112,2|2,0:0|0:0,0:0:0:0:
121,354,767,1,0,0:0:0:0:
194,327,1017,2,0,B|235:311|235:311|255:313|255:313|302:293,1,112,2|2,0:0|0:0,0:0:0:0:
365,336,1767,1,2,0:0:0:0:
440,313,2017,6,0,L|467:201,1,112,2|2,0:0|0:0,0:0:0:0:
413,146,2767,1,0,0:0:0:0:
344,184,3017,2,0,B|274:192|308:226|245:236,1,112,2|2,0:0|0:0,0:0:0:0:
179,199,3767,1,2,0:0:0:0:
109,235,4017,6,0,B|84:200|84:200|96:128,1,112,2|2,0:0|0:0,0:0:0:0:
155,81,4767,1,0,0:0:0:0:
221,123,5017,2,0,B|267:116|267:116|289:124|289:124|349:111,1,112,2|2,0:0|0:0,0:0:0:0:
391,66,5767,1,2,0:0:0:0:
455,108,6017,6,0,B|468:144|468:144|435:226,1,112,2|2,0:0|0:0,0:0:0:0:
387,269,6767,1,0,0:0:0:0:
329,223,7017,1,2,0:0:0:0:
329,223,7267,2,0,P|304:193|231:192,1,112,0|2,0:0|0:0,0:0:0:0:
182,289,8017,6,0,L|109:307,1,62.9999980773926,2|0,1:2|0:0,0:0:0:0:
42,264,8517,2,0,B|24:224|24:224|48:142,1,125.999996154785,10|2,3:2|1:2,0:0:0:0:
114,87,9267,1,0,0:0:0:0:
171,153,9517,2,0,L|151:224,1,62.9999980773926,10|2,0:0|0:0,0:0:0:0:
250,121,10017,6,0,L|230:49,1,62.9999980773926,2|0,1:2|0:0,0:0:0:0:
324,154,10517,2,0,P|369:171|445:136,1,125.999996154785,10|2,3:2|1:2,0:0:0:0:
473,62,11267,1,0,0:0:0:0:
401,9,11517,2,0,L|339:27,1,62.9999980773926,10|2,3:2|0:0,0:0:0:0:
272,83,12017,6,0,L|211:65,1,62.9999980773926,2|0,1:2|0:0,0:0:0:0:
134,22,12517,2,0,P|102:41|85:125,1,125.999996154785,10|2,3:2|1:2,0:0:0:0:
125,201,13267,1,0,0:0:0:0:
62,263,13517,2,0,L|0:247,1,62.9999980773926,10|2,0:0|0:0,0:0:0:0:
100,342,14017,6,0,L|176:323,1,62.9999980773926,2|0,1:2|0:0,0:0:0:0:
241,362,14517,1,10,0:0:0:0:
314,312,14767,1,0,0:0:0:0:
314,312,15017,2,0,B|384:304|369:349|438:353,1,125.999996154785,2|0,0:0|0:2,0:0:0:0:
499,125,16017,6,0,L|429:147,1,70,0|0,1:2|0:0,0:0:0:0:
364,217,16517,2,0,P|313:206|276:170,1,105,10|0,0:0|0:0,0:0:0:0:
252,127,17017,2,0,L|263:94,2,35,2|0|2,1:2|3:0|3:2,0:0:0:0:
206,213,17517,2,0,P|160:238|121:237,1,70,10|0,0:0|0:0,0:0:0:0:
100,216,17892,1,0,3:0:0:0:
65,180,18017,6,0,L|85:113,1,70,0|0,1:2|0:0,0:0:0:0:
156,11,18517,2,0,L|176:78,1,70,10|0,0:0|0:0,0:0:0:0:
263,121,19017,1,2,1:2:0:0:
263,121,19267,1,2,3:2:0:0:
352,80,19517,2,0,P|354:41|336:7,1,70,10|0,0:0|0:0,0:0:0:0:
452,132,20017,6,0,P|454:171|436:205,1,70,0|0,1:2|0:0,0:0:0:0:
373,269,20517,2,0,B|340:254|340:254|312:256|312:256|274:235,1,105,10|0,0:0|0:0,0:0:0:0:
246,197,21017,1,0,1:0:0:0:
158,241,21267,1,0,0:0:0:0:
126,278,21392,2,0,P|126:312|152:353,1,70,2|0,3:2|3:0,0:0:0:0:
185,366,21767,1,2,0:2:0:0:
273,324,22017,6,0,L|364:352,1,70,2|2,1:2|3:2,0:0:0:0:
427,301,22517,2,0,P|423:263|406:234,1,70,10|2,0:0|3:2,0:0:0:0:
328,178,23017,2,0,L|258:207,2,70,2|0|10,1:2|0:0|0:0,0:0:0:0:
385,98,23767,1,0,3:0:0:0:
385,98,23892,1,0,3:0:0:0:
385,98,24017,6,0,B|390:60|390:60|371:26,1,70,0|0,1:0|0:0,0:0:0:0:
280,4,24517,2,0,B|264:31|264:31|269:69,1,70,8|0,0:0|0:0,0:0:0:0:
202,141,25017,2,0,L|125:123,1,70,0|0,1:0|0:0,0:0:0:0:
102,87,25392,1,0,3:0:0:0:
102,87,25517,1,10,0:0:0:0:
33,157,25767,2,0,L|51:202,1,35,0|0,3:0|3:0,0:0:0:0:
83,220,26017,6,0,L|66:295,1,70,2|2,1:2|3:2,0:0:0:0:
123,368,26517,2,0,P|163:348|203:348,1,70,10|2,0:0|3:2,0:0:0:0:
270,292,27017,2,0,L|336:325,2,70,0|0|10,1:0|0:0|0:0,0:0:0:0:
208,214,27767,1,0,0:0:0:0:
274,142,28017,6,0,L|261:64,1,70,0|0,1:0|0:0,0:0:0:0:
371,0,28517,2,0,L|360:68,1,70,10|0,0:0|0:0,0:0:0:0:
434,132,29017,1,0,1:0:0:0:
434,132,29267,1,0,0:0:0:0:
493,209,29517,2,0,B|492:248|492:248|481:278,1,70,10|0,0:0|0:0,0:0:0:0:
405,339,30017,6,0,L|415:381,2,35,2|0|2,1:2|3:0|3:2,0:0:0:0:
319,291,30517,2,0,L|233:324,1,70,10|0,0:0|0:0,0:0:0:0:
176,376,31017,2,0,L|71:328,1,105,2|0,0:0|0:0,0:0:0:0:
26,93,32017,6,0,P|56:67|103:73,1,70,0|0,1:0|0:0,0:0:0:0:
156,133,32517,2,0,P|195:161|252:157,1,105,10|0,0:0|0:0,0:0:0:0:
288,127,33017,2,0,L|274:88,2,35,2|0|2,1:2|3:0|3:2,0:0:0:0:
346,205,33517,2,0,L|329:272,1,70,10|0,0:0|0:0,0:0:0:0:
289,303,33892,1,0,3:0:0:0:
309,347,34017,6,0,P|339:373|386:367,1,70,0|0,1:0|0:0,0:0:0:0:
455,330,34517,2,0,L|439:258,1,70,10|0,0:0|0:0,0:0:0:0:
382,188,35017,1,2,1:2:0:0:
382,188,35267,1,2,3:2:0:0:
447,114,35517,2,0,L|520:144,1,70,10|0,0:0|0:0,0:0:0:0:
365,26,36017,6,0,P|335:29|294:59,1,70,0|0,1:0|0:0,0:0:0:0:
241,127,36517,2,0,P|211:124|170:94,1,70,10|0,0:0|0:0,0:0:0:0:
160,62,36892,1,0,0:0:0:0:
160,62,37017,1,0,1:2:0:0:
67,30,37267,1,0,0:0:0:0:
47,75,37392,2,0,L|68:155,1,70,2|0,3:2|3:0,0:0:0:0:
102,173,37767,1,2,0:2:0:0:
142,262,38017,6,0,L|117:340,1,70,2|2,1:2|3:2,0:0:0:0:
206,375,38517,2,0,P|248:353|288:354,1,70,10|2,0:0|3:2,0:0:0:0:
340,282,39017,2,0,L|418:307,2,70,2|0|10,1:2|0:0|0:0,0:0:0:0:
292,207,39767,1,0,3:0:0:0:
292,207,39892,1,0,3:0:0:0:
292,207,40017,6,0,L|214:232,1,70,0|0,1:0|0:0,0:0:0:0:
154,295,40517,2,0,B|119:292|119:292|87:273,1,70,10|0,0:0|0:0,0:0:0:0:
46,185,41017,2,0,L|66:110,1,70,0|0,1:0|0:0,0:0:0:0:
112,102,41392,1,0,3:0:0:0:
112,102,41517,1,10,0:0:0:0:
172,24,41767,2,0,L|180:57,1,35,0|0,3:0|3:0,0:0:0:0:
224,78,42017,6,0,P|258:80|287:62,1,70,2|2,1:2|3:2,0:0:0:0:
332,149,42517,2,0,P|366:146|395:164,1,70,10|2,0:0|3:2,0:0:0:0:
439,76,43017,2,0,L|420:8,2,70,0|0|10,1:0|0:0|0:0,0:0:0:0:
511,141,43767,1,0,0:0:0:0:
508,238,44017,6,0,B|506:277|506:277|482:311,1,70,0|0,1:0|0:0,0:0:0:0:
411,363,44517,2,0,B|393:337|393:337|391:298,1,70,10|0,0:0|0:0,0:0:0:0:
316,234,45017,1,0,1:0:0:0:
316,234,45267,1,0,0:0:0:0:
235,289,45517,2,0,L|160:266,1,70,10|0,0:0|3:0,0:0:0:0:
107,345,46017,6,0,L|121:390,2,35,2|0|2,1:2|3:0|3:2,0:0:0:0:
32,280,46517,2,0,P|29:240|50:200,1,70,10|2,0:0|3:2,0:0:0:0:
116,150,47017,2,0,B|171:154|158:191|224:200,1,105,2|0,0:0|0:0,0:0:0:0:
368,308,48017,6,0,L|420:287,1,56,2|0,0:0|0:0,0:0:0:0:
460,220,48517,2,0,L|512:241,2,56,2|0|2,0:0|0:0|0:0,0:0:0:0:
373,89,49517,2,0,L|321:110,1,56,2|0,0:0|0:0,0:0:0:0:
306,187,50017,2,0,B|245:192|267:232|194:244,1,112,2|2,0:0|0:0,0:0:0:0:
139,207,50767,2,0,L|120:143,1,56,2|2,0:0|0:0,0:0:0:0:
2,52,51517,6,0,L|17:-1,2,56,2|2|2,0:0|0:0|0:0,0:0:0:0:
123,153,52517,2,0,L|138:206,1,56,2|0,0:0|0:0,0:0:0:0:
109,279,53017,2,0,P|146:253|213:251,1,112,2|0,0:0|0:0,0:0:0:0:
252,317,53767,2,0,L|308:338,1,56,2|2,0:0|0:0,0:0:0:0:
426,238,54517,2,0,L|482:217,2,56,2|2|2,0:0|0:0|0:0,0:0:0:0:
304,336,55517,2,0,L|248:315,1,56,2|0,0:0|0:0,0:0:0:0:
186,257,56017,6,0,L|113:284,1,62.9999980773926,0|0,1:0|0:0,0:0:0:0:
61,338,56517,2,0,B|86:264|86:264|64:211,1,125.999996154785,8|0,0:0|1:0,0:0:0:0:
15,148,57267,1,0,0:0:0:0:
81,89,57517,2,0,L|150:115,1,62.9999980773926,8|0,3:2|0:0,0:0:0:0:
185,186,58017,6,0,L|243:163,1,62.9999980773926,0|0,1:2|0:0,0:0:0:0:
281,83,58517,2,0,B|329:96|329:96|349:115|349:115|403:132,1,125.999996154785,8|0,0:0|1:0,0:0:0:0:
468,79,59267,1,0,0:0:0:0:
511,155,59517,2,0,L|491:218,1,62.9999980773926,8|0,0:0|3:0,0:0:0:0:
409,246,60017,6,0,L|429:309,1,62.9999980773926,0|0,1:0|0:0,0:0:0:0:
494,364,60517,2,0,P|450:340|389:391,1,125.999996154785,8|0,0:0|1:0,0:0:0:0:
332,312,61267,1,0,0:0:0:0:
250,346,61517,2,0,L|189:321,1,62.9999980773926,8|0,0:0|0:0,0:0:0:0:
122,267,62017,6,0,L|63:290,2,62.9999980773926,0|0|8,1:0|0:0|0:0,0:0:0:0:
166,190,62767,1,0,0:0:0:0:
219,120,63017,2,0,B|297:98|275:149|346:135,1,125.999996154785,0|0,1:0|0:0,0:0:0:0:
