osu file format v14

[General]
AudioFilename: audio.mp3
AudioLeadIn: 0
PreviewTime: 15767
Countdown: 0
SampleSet: Soft
StackLeniency: 0.7
Mode: 0
LetterboxInBreaks: 0
WidescreenStoryboard: 1

[Editor]
DistanceSpacing: 1.1
BeatDivisor: 4
GridSize: 32
TimelineZoom: 1.6

[Metadata]
Title:Ievan Polkka x Fubuki (Hamburgaga Remix)
TitleUnicode:Ievan Polkka x Fubuki (Hamburgaga Remix)
Artist:Shirakami Fubuki
ArtistUnicode:白上フブキ
Creator:-Aqua
Version:Amateurre's Kon Insane
Source:
Tags:フブキCh。白上フブキ Fubuki Channel hololive Virtual Youtuber VTuber Finnish Pop Cover Ieva's Polkka ロイツマ Loituma Roitsuma Remix ytpmv 音MAD Amateurre
BeatmapID:2263834
BeatmapSetID:1082270

[Difficulty]
HPDrainRate:5
CircleSize:4
OverallDifficulty:7.5
ApproachRate:8.2
SliderMultiplier:1.6
SliderTickRate:1

[Events]
//Background and Video events
Video,-55,"Ievan_Polkka_x_Fubuki-1daMpenuJ7o.mp4"
0,0,"fubukifubukifubuki.jpg",0,0
//Break Periods
//Storyboard Layer 0 (Background)
//Storyboard Layer 1 (Fail)
//Storyboard Layer 2 (Pass)
//Storyboard Layer 3 (Foreground)
//Storyboard Layer 4 (Overlay)
//Storyboard Sound Samples

[TimingPoints]
17,500,4,2,1,50,1,0
17,-133.333333333333,4,2,1,50,0,0
7642,-133.333333333333,4,2,1,5,0,0
7767,-133.333333333333,4,2,1,50,0,0
8017,-90.9090909090909,4,2,1,60,0,0
15392,-90.9090909090909,4,2,1,5,0,0
15517,-90.9090909090909,4,2,1,60,0,0
16017,-90.9090909090909,4,2,1,75,0,1
31017,-80,4,2,1,75,0,0
32017,-90.9090909090909,4,2,1,75,0,1
47017,-80,4,2,1,60,0,0
48017,-117.647058823529,4,2,1,40,0,0
56017,-90.9090909090909,4,2,1,60,0,0

[Colours]
Combo1 : 181,255,218
Combo2 : 223,223,223
Combo3 : 162,224,255

[HitObjects]
73,251,17,6,0,P|90:308|90:337,1,60.0000022888184,2|0,0:0|0:0,0:0:0:0:
207,200,517,2,0,P|190:257|190:286,1,60.0000022888184,2|0,0:0|0:0,0:0:0:0:
113,111,1017,2,0,P|130:168|130:197,1,60.0000022888184,2|0,0:0|0:0,0:0:0:0:
73,251,1517,1,2,0:0:0:0:
129,168,1767,1,2,0:0:0:0:
249,263,2017,6,0,L|190:257,1,60.0000022888184,2|0,0:0|0:0,0:0:0:0:
349,277,2517,2,0,L|313:325,1,60.0000022888184,2|0,0:0|0:0,0:0:0:0:
410,197,3017,2,0,L|434:251,1,60.0000022888184,2|0,0:0|0:0,0:0:0:0:
356,121,3517,1,2,0:0:0:0:
310,208,3767,2,0,L|305:256,1,30.0000011444092,2|0,0:0|0:0,0:0:0:0:
451,113,4017,6,0,L|460:40,1,60.0000022888184,2|0,0:0|0:0,0:0:0:0:
410,197,4517,2,0,L|417:256,1,60.0000022888184,2|0,0:0|0:0,0:0:0:0:
356,121,5017,2,0,L|365:48,1,60.0000022888184,2|0,0:0|0:0,0:0:0:0:
310,208,5517,1,2,0:0:0:0:
251,107,5767,1,2,0:0:0:0:
174,212,6017,6,0,P|214:231|236:265,1,60.0000022888184,2|0,0:0|0:0,0:0:0:0:
107,142,6517,2,0,P|143:116|183:114,1,60.0000022888184,2|0,0:0|0:0,0:0:0:0:
174,211,7017,1,2,0:0:0:0:
30,196,7267,2,0,P|16:148|29:82,1,90.0000034332277,0|0,0:0|0:0,0:0:0:0:
34,85,7767,1,2,0:0:0:0:
174,211,8017,6,0,L|165:305,1,88.000002685547,2|0,1:2|0:0,0:0:0:0:
258,366,8392,1,0,3:0:0:0:
258,366,8517,2,0,B|289:375|289:375|359:348,1,88.000002685547,10|0,3:2|0:0,0:0:0:0:
310,206,9017,2,0,P|278:268|286:317,1,88.000002685547,2|0,1:2|0:0,0:0:0:0:
477,350,9517,1,10,0:0:0:0:
365,275,9767,1,2,0:0:0:0:
473,148,10017,6,0,L|461:252,1,88.000002685547,2|0,1:2|0:0,0:0:0:0:
374,359,10392,1,0,3:0:0:0:
373,359,10517,2,0,P|329:351|296:323,1,88.000002685547,10|0,3:2|0:0,0:0:0:0:
220,213,11017,2,0,L|208:317,1,88.000002685547,2|0,1:2|0:0,0:0:0:0:
303,198,11517,1,10,3:2:0:0:
154,140,11767,2,0,L|146:213,1,44.0000013427735,2|0,0:0|0:0,0:0:0:0:
126,311,12017,6,0,B|157:320|157:320|227:293,1,88.000002685547,2|0,1:2|0:0,0:0:0:0:
303,198,12392,1,0,3:0:0:0:
303,198,12517,2,0,L|291:94,1,88.000002685547,10|0,3:2|0:0,0:0:0:0:
164,52,13017,2,0,L|152:156,1,88.000002685547,2|0,1:2|0:0,0:0:0:0:
277,36,13517,1,10,0:0:0:0:
221,204,13767,1,2,0:0:0:0:
69,137,14017,6,0,P|118:128|166:147,1,88.000002685547,2|0,1:2|0:0,0:0:0:0:
303,198,14517,1,10,0:0:0:0:
158,258,14767,1,0,0:0:0:0:
302,114,15017,2,0,B|377:112|344:172|464:155,1,132.00000402832,2|0,0:0|0:0,0:0:0:0:
487,106,15517,5,2,0:1:0:0:
401,332,15892,1,0,0:0:0:0:
401,332,16017,5,0,1:2:0:0:
307,241,16267,2,0,L|303:198,1,44.0000013427735,0|0,0:0|0:0,0:0:0:0:
226,348,16517,2,0,P|177:328|157:288,1,88.000002685547,10|0,0:0|0:0,0:0:0:0:
223,184,16892,5,0,0:0:0:0:
223,184,17017,2,0,L|175:176,1,44.0000013427735,2|0,1:2|3:0,0:0:0:0:
42,222,17267,2,0,L|90:214,1,44.0000013427735,2|0,3:2|3:0,0:0:0:0:
234,270,17517,1,10,0:0:0:0:
85,130,17767,1,0,0:0:0:0:
85,130,17892,1,0,3:0:0:0:
85,130,18017,6,0,B|74:173|74:173|89:225,1,88.000002685547,0|0,1:2|0:0,0:0:0:0:
232,354,18517,2,0,B|244:312|244:312|233:269,1,88.000002685547,10|0,0:0|0:0,0:0:0:0:
86,214,19017,1,2,1:2:0:0:
272,191,19267,1,2,3:2:0:0:
156,299,19517,1,10,0:0:0:0:
331,344,19767,1,0,0:0:0:0:
331,344,19892,1,0,0:0:0:0:
331,344,20017,6,0,P|379:329|442:328,1,88.000002685547,0|0,1:2|0:0,0:0:0:0:
272,191,20517,2,0,P|228:186|186:172,1,88.000002685547,10|0,0:0|0:0,0:0:0:0:
108,102,20892,1,0,0:0:0:0:
108,102,21017,6,0,P|111:143|92:209,1,88.000002685547,0|0,1:0|0:0,0:0:0:0:
23,226,21392,6,0,P|57:202|123:186,1,88.000002685547,2|0,3:2|3:0,0:0:0:0:
186,172,21767,1,2,0:2:0:0:
186,172,21892,1,0,0:0:0:0:
186,172,22017,6,0,L|173:239,1,44.0000013427735,2|0,1:2|3:0,0:0:0:0:
249,71,22267,2,0,L|236:4,1,44.0000013427735,2|0,3:2|3:0,0:0:0:0:
272,191,22517,2,0,L|259:258,1,44.0000013427735,10|0,0:0|3:0,0:0:0:0:
333,62,22767,1,2,3:2:0:0:
366,207,23017,2,0,P|408:216|452:213,1,88.000002685547,2|0,1:2|0:0,0:0:0:0:
302,317,23517,2,0,P|258:313|215:323,1,88.000002685547,10|0,0:0|3:0,0:0:0:0:
194,338,23892,1,0,3:0:0:0:
194,338,24017,6,0,L|177:226,1,88.000002685547,0|0,1:0|0:0,0:0:0:0:
239,80,24517,2,0,P|291:70|345:80,1,88.000002685547,8|0,0:0|0:0,0:0:0:0:
149,177,25017,2,0,P|105:180|62:170,1,88.000002685547,0|0,1:0|0:0,0:0:0:0:
286,237,25517,1,10,0:0:0:0:
108,347,25767,1,0,3:0:0:0:
108,347,25892,1,0,3:0:0:0:
108,347,26017,6,0,L|95:278,1,44.0000013427735,2|0,1:2|0:0,0:0:0:0:
149,177,26267,2,0,L|218:164,1,44.0000013427735,2|0,3:2|0:0,0:0:0:0:
43,251,26517,2,0,L|-26:238,1,44.0000013427735,10|0,0:0|0:0,0:0:0:0:
194,321,26767,1,2,3:2:0:0:
194,321,26892,1,0,0:0:0:0:
194,321,27017,2,0,L|319:335,1,88.000002685547,0|0,1:0|0:0,0:0:0:0:
450,221,27517,2,0,P|401:252|390:294,1,88.000002685547,10|0,0:0|0:0,0:0:0:0:
391,294,27892,1,0,3:0:0:0:
391,294,28017,6,0,P|387:242|350:186,1,88.000002685547,0|0,1:0|0:0,0:0:0:0:
270,23,28517,2,0,P|252:63|250:106,1,88.000002685547,10|0,0:0|0:0,0:0:0:0:
462,93,29017,2,0,L|374:83,1,88.000002685547,0|0,1:0|0:0,0:0:0:0:
180,163,29517,1,10,0:0:0:0:
371,210,29767,1,0,0:0:0:0:
371,210,29892,1,0,0:0:0:0:
371,210,30017,6,0,L|361:140,1,44.0000013427735,2|0,1:2|3:0,0:0:0:0:
298,38,30267,2,0,L|288:108,1,44.0000013427735,2|0,3:2|3:0,0:0:0:0:
236,224,30517,1,10,0:0:0:0:
236,224,30642,1,2,0:0:0:0:
236,224,30767,1,2,0:0:0:0:
113,45,31017,6,0,B|101:97|101:97|119:151,1,100,2|0,0:0|0:0,0:0:0:0:
187,85,31392,1,0,0:0:0:0:
83,325,31892,1,0,0:0:0:0:
83,325,32017,5,0,1:0:0:0:
185,246,32267,2,0,L|228:242,1,44.0000013427735,0|0,0:0|0:0,0:0:0:0:
353,343,32517,2,0,L|245:332,1,88.000002685547,10|0,0:0|0:0,0:0:0:0:
335,236,32892,5,0,0:0:0:0:
335,236,33017,2,0,L|343:188,1,44.0000013427735,2|0,1:2|3:0,0:0:0:0:
219,123,33267,2,0,L|227:171,1,44.0000013427735,2|0,3:2|3:0,0:0:0:0:
265,334,33517,1,10,0:0:0:0:
307,116,33767,1,0,0:0:0:0:
307,116,33892,1,0,3:0:0:0:
307,116,34017,6,0,B|350:105|350:105|402:120,1,88.000002685547,0|0,1:0|0:0,0:0:0:0:
266,239,34517,2,0,B|224:251|224:251|181:240,1,88.000002685547,10|0,0:0|0:0,0:0:0:0:
68,97,35017,1,2,1:2:0:0:
226,166,35267,1,2,3:2:0:0:
70,251,35517,1,10,0:0:0:0:
158,77,35767,1,0,0:0:0:0:
158,77,35892,1,0,0:0:0:0:
158,77,36017,6,0,P|143:125|142:188,1,88.000002685547,0|0,1:0|0:0,0:0:0:0:
284,324,36517,2,0,P|279:280|265:238,1,88.000002685547,10|0,0:0|0:0,0:0:0:0:
226,166,36892,1,0,0:0:0:0:
226,166,37017,6,0,P|266:157|321:175,1,88.000002685547,0|0,1:2|0:0,0:0:0:0:
382,213,37392,6,0,P|342:200|304:157,1,88.000002685547,2|0,3:2|3:0,0:0:0:0:
391,84,37767,1,2,0:2:0:0:
391,84,37892,1,0,0:0:0:0:
391,84,38017,6,0,L|378:151,1,44.0000013427735,2|0,1:2|3:0,0:0:0:0:
498,188,38267,2,0,L|485:121,1,44.0000013427735,2|0,3:2|3:0,0:0:0:0:
382,213,38517,2,0,L|369:280,1,44.0000013427735,10|0,0:0|3:0,0:0:0:0:
502,285,38767,1,2,3:2:0:0:
382,213,39017,2,0,P|340:204|296:207,1,88.000002685547,2|0,1:2|0:0,0:0:0:0:
204,305,39517,2,0,L|190:217,1,88.000002685547,10|0,0:0|3:0,0:0:0:0:
153,141,39892,1,0,3:0:0:0:
153,141,40017,6,0,B|199:129|199:129|239:148,1,88.000002685547,0|0,1:0|0:0,0:0:0:0:
114,260,40517,2,0,B|77:277|77:277|31:265,1,88.000002685547,10|0,0:0|0:0,0:0:0:0:
275,212,41017,2,0,L|288:299,1,88.000002685547,0|0,1:0|0:0,0:0:0:0:
290,60,41517,1,10,0:0:0:0:
149,177,41767,1,0,3:0:0:0:
149,177,41892,1,0,3:0:0:0:
149,177,42017,6,0,L|136:108,1,44.0000013427735,2|0,1:2|0:0,0:0:0:0:
231,220,42267,2,0,L|300:207,1,44.0000013427735,2|0,3:2|0:0,0:0:0:0:
114,260,42517,2,0,L|45:247,1,44.0000013427735,10|0,0:0|0:0,0:0:0:0:
237,127,42767,1,2,3:2:0:0:
237,127,42892,1,0,0:0:0:0:
237,127,43017,6,0,L|362:141,1,88.000002685547,0|0,1:0|0:0,0:0:0:0:
468,61,43517,2,0,P|419:92|408:134,1,88.000002685547,10|0,0:0|0:0,0:0:0:0:
408,154,43892,1,0,3:0:0:0:
408,154,44017,6,0,L|420:268,1,88.000002685547,0|0,1:0|0:0,0:0:0:0:
284,357,44517,2,0,L|296:243,1,88.000002685547,10|0,0:0|0:0,0:0:0:0:
487,142,45017,2,0,L|499:256,1,88.000002685547,0|0,1:0|0:0,0:0:0:0:
326,139,45517,1,10,0:0:0:0:
383,285,45767,1,0,3:0:0:0:
383,285,45892,1,0,0:0:0:0:
383,285,46017,6,0,L|453:275,1,44.0000013427735,2|0,1:2|3:0,0:0:0:0:
326,139,46267,2,0,L|256:129,1,44.0000013427735,2|0,3:2|3:0,0:0:0:0:
214,266,46517,1,10,0:0:0:0:
214,266,46642,1,0,3:0:0:0:
214,266,46767,1,2,3:2:0:0:
117,83,47017,6,0,B|169:71|169:71|223:89,1,100,2|0,0:0|0:0,0:0:0:0:
167,158,47392,1,0,0:0:0:0:
401,53,47892,1,0,0:0:0:0:
401,53,48017,5,2,0:0:0:0:
365,138,48267,1,0,0:0:0:0:
441,186,48517,2,0,L|429:282,1,68.0000012969971,2|0,0:0|0:0,0:0:0:0:
373,314,48892,1,2,0:0:0:0:
373,314,49017,2,0,L|375:371,3,34.0000006484985,2|2|2|2,0:0|0:0|0:0|0:0,0:0:0:0:
322,236,49517,1,2,0:0:0:0:
259,312,49767,1,0,0:0:0:0:
259,312,49892,1,2,0:0:0:0:
259,312,50017,6,0,L|180:325,1,68.0000012969971,2|0,0:0|0:0,0:0:0:0:
141,226,50517,2,0,L|220:239,1,68.0000012969971,2|2,0:0|0:0,0:0:0:0:
61,312,51017,2,0,P|56:267|43:227,2,68.0000012969971,2|0|2,0:0|0:0|0:0,0:0:0:0:
83,173,51767,1,2,0:0:0:0:
141,226,52017,6,0,L|220:239,1,68.0000012969971,2|0,0:0|0:0,0:0:0:0:
301,274,52517,2,0,P|286:238|292:196,1,68.0000012969971,2|0,0:0|0:0,0:0:0:0:
300,178,52892,1,2,0:0:0:0:
300,178,53017,1,2,0:0:0:0:
369,232,53267,1,2,0:0:0:0:
368,231,53392,2,0,L|371:197,1,34.0000006484985,2|0,0:0|0:0,0:0:0:0:
381,114,53642,1,0,0:0:0:0:
381,114,53767,1,2,0:0:0:0:
381,114,53892,1,2,0:0:0:0:
381,114,54017,6,0,L|385:58,3,34.0000006484985,2|2|2|2,0:0|0:0|0:0|0:0,0:0:0:0:
291,178,54517,2,0,L|291:234,1,34.0000006484985,2|2,0:0|0:0,0:0:0:0:
370,197,54767,1,2,0:0:0:0:
293,98,55017,1,2,0:0:0:0:
208,134,55267,1,0,0:0:0:0:
291,178,55517,1,2,0:0:0:0:
217,52,55767,1,0,0:0:0:0:
217,52,55892,1,2,0:0:0:0:
217,52,56017,6,0,L|113:64,1,88.000002685547,0|0,1:0|0:0,0:0:0:0:
49,2,56392,1,0,0:0:0:0:
49,2,56517,2,0,B|55:27|55:27|37:106,1,88.000002685547,8|0,0:0|0:0,0:0:0:0:
101,220,57017,2,0,B|95:195|95:195|113:116,1,88.000002685547,0|0,1:0|0:0,0:0:0:0:
4,165,57517,1,8,3:2:0:0:
177,193,57767,1,0,0:0:0:0:
177,193,57892,1,0,0:0:0:0:
177,193,58017,6,0,L|238:199,1,44.0000013427735,0|0,1:2|0:0,0:0:0:0:
101,220,58267,2,0,L|40:226,1,44.0000013427735,0|0,0:0|0:0,0:0:0:0:
171,271,58517,2,0,L|232:277,1,44.0000013427735,8|0,0:0|0:0,0:0:0:0:
96,299,58767,2,0,L|35:305,1,44.0000013427735,0|0,0:0|0:0,0:0:0:0:
162,351,59017,2,0,L|272:371,1,88.000002685547,0|0,1:0|0:0,0:0:0:0:
344,356,59392,1,0,0:0:0:0:
344,356,59517,2,0,P|314:318|310:271,1,88.000002685547,8|0,0:0|3:0,0:0:0:0:
400,200,59892,1,0,3:0:0:0:
400,200,60017,6,0,L|389:296,1,88.000002685547,0|0,1:0|0:0,0:0:0:0:
308,279,60392,1,0,0:0:0:0:
308,279,60517,2,0,L|297:183,1,88.000002685547,8|0,0:0|0:0,0:0:0:0:
387,108,61017,1,0,1:0:0:0:
297,191,61267,1,0,0:0:0:0:
258,104,61517,1,8,0:0:0:0:
390,200,61767,1,0,0:0:0:0:
390,200,61892,1,0,0:0:0:0:
390,200,62017,6,0,P|419:202|455:191,1,44.0000013427735,0|0,1:0|0:0,0:0:0:0:
301,103,62267,2,0,P|279:100|257:103,1,44.0000013427735,0|0,0:0|0:0,0:0:0:0:
212,218,62517,1,8,0:0:0:0:
212,218,62642,1,0,0:0:0:0:
212,218,62767,2,0,L|207:267,1,44.0000013427735,0|0,0:0|0:0,0:0:0:0:
154,131,63017,6,0,L|147:32,1,88.000002685547,0|0,1:0|0:0,0:0:0:0:
143,17,63392,1,0,0:0:0:0:
