osu file format v14

[General]
AudioFilename: audio.mp3
AudioLeadIn: 0
PreviewTime: 10116
Countdown: 0
SampleSet: Soft
StackLeniency: 0.7
Mode: 0
LetterboxInBreaks: 0
WidescreenStoryboard: 1

[Editor]
DistanceSpacing: 1.5
BeatDivisor: 4
GridSize: 32
TimelineZoom: 2.799999

[Metadata]
Title:Asa ga Kite (T-POCKET Remix)
TitleUnicode:朝が来て (T-POCKET Remix)
Artist:Shirakami Fubuki
ArtistUnicode:白上フブキ
Creator:-Aqua
Version:Amateurre's Nekoyanke?!
Source:
Tags:フブキCh。白上フブキ Fubuki Channel FBK Ending Stream ホロライブ hololive hororaibu cover カバー idol Virtual YouTuber VTuber Neko Cat Kitsune Fox Japanese Rock Amateurre
BeatmapID:2399903
BeatmapSetID:1144757

[Difficulty]
HPDrainRate:6
CircleSize:4
OverallDifficulty:8.8
ApproachRate:9.4
SliderMultiplier:1.4
SliderTickRate:1

[Events]
//Background and Video events
0,0,"fubuki ed.png",0,0
//Break Periods
//Storyboard Layer 0 (Background)
//Storyboard Layer 1 (Fail)
//Storyboard Layer 2 (Pass)
//Storyboard Layer 3 (Foreground)
//Storyboard Layer 4 (Overlay)
//Storyboard Sound Samples

[TimingPoints]
2139,270.270270270271,4,2,1,60,1,0
2139,-111.111111111111,4,2,1,60,0,0
9976,-111.111111111111,4,2,1,5,0,0
10111,-111.111111111111,4,2,1,60,0,0
10787,-76.9230769230769,4,2,1,75,0,1
18625,-111.111111111111,4,2,1,75,0,1
19436,-133.333333333333,4,2,1,55,0,0
21598,-125,4,2,1,55,0,0
28084,-76.9230769230769,4,2,1,75,0,1
32409,-76.9230769230769,4,2,1,60,0,0
36733,-83.3333333333333,4,2,1,60,0,0
41057,-100,4,2,1,5,0,0

[Colours]
Combo1 : 77,197,255
Combo2 : 192,192,192
Combo3 : 142,242,253
Combo4 : 255,149,149

[HitObjects]
187,91,2139,6,0,L|250:100,1,62.9999980773926,2|0,1:2|0:0,0:0:0:0:
100,75,2409,2,0,P|154:72|189:7,2,125.999996154785,8|0|0,0:0|0:0|0:0,0:0:0:0:
12,46,3084,1,8,0:0:0:0:
12,46,3152,1,8,0:0:0:0:
12,46,3220,6,0,L|38:177,1,125.999996154785,14|0,0:0|0:0,0:0:0:0:
43,292,3625,2,0,P|75:243|158:243,1,125.999996154785,8|0,3:0|0:0,0:0:0:0:
200,349,4030,1,4,3:0:0:0:
123,312,4166,1,0,1:0:0:0:
252,224,4301,6,0,L|263:304,1,62.9999980773926,10|0,0:0|0:0,0:0:0:0:
338,182,4571,2,0,L|354:308,1,125.999996154785,8|0,0:0|0:0,0:0:0:0:
431,359,4976,1,0,1:0:0:0:
501,288,5111,2,0,L|424:277,1,62.9999980773926,8|0,0:0|0:0,0:0:0:0:
281,121,5382,6,0,P|332:103|355:111,1,62.9999980773926,2|0,0:0|0:0,0:0:0:0:
252,224,5652,2,0,P|220:223|194:207,1,62.9999980773926,10|0,0:0|1:0,0:0:0:0:
151,128,5855,1,8,0:0:0:0:
151,128,5922,1,10,0:0:0:0:
58,217,6057,1,0,1:0:0:0:
45,45,6193,2,0,L|66:150,1,94.499997116089,12|0,0:0|0:0,0:0:0:0:
58,217,6463,6,0,P|99:212|125:193,1,62.9999980773926,6|0,1:2|0:0,0:0:0:0:
220,90,6733,1,0,1:0:0:0:
294,212,6868,1,2,1:2:0:0:
294,212,6936,1,2,1:2:0:0:
294,212,7003,2,0,L|303:133,1,62.9999980773926,0|8,1:0|0:0,0:0:0:0:
406,42,7274,2,0,L|413:104,1,62.9999980773926,0|2,1:0|0:0,0:0:0:0:
446,266,7544,5,8,0:0:0:0:
365,241,7679,1,0,1:0:0:0:
382,206,7746,1,0,1:0:0:0:
414,184,7814,1,0,1:0:0:0:
453,180,7881,1,0,1:0:0:0:
488,196,7949,1,8,0:0:0:0:
378,321,8084,1,0,1:0:0:0:
508,277,8220,1,8,0:0:0:0:
508,277,8287,1,8,0:0:0:0:
508,277,8355,2,0,L|430:263,1,62.9999980773926,0|8,1:0|0:0,0:0:0:0:
301,149,8625,6,0,B|255:133|206:160|226:187|174:208|121:185,1,188.999994232178,6|0,0:0|0:0,0:0:0:0:
98,111,9166,2,0,P|183:129|194:232,1,167.999994873047
187,249,9616,5,0,0:0:0:0:
167,303,9706,6,0,P|242:284|329:289,1,157.499995193482
349,308,10111,5,0,1:0:0:0:
419,162,10247,1,8,0:0:0:0:
287,187,10382,1,0,1:0:0:0:
287,187,10449,1,0,1:0:0:0:
287,187,10517,2,0,P|318:198|364:206,1,62.9999980773926,0|0,1:0|0:0,0:0:0:0:
504,151,10787,6,0,L|512:60,1,90.9999958343508,6|0,0:0|0:0,0:0:0:0:
347,204,11057,2,0,L|338:294,1,90.9999958343508,8|0,0:0|1:0,0:0:0:0:
479,230,11328,1,0,0:0:0:0:
349,124,11463,1,0,1:0:0:0:
428,0,11598,2,0,L|442:127,1,90.9999958343508,8|0,0:0|0:0,0:0:0:0:
347,204,11868,6,0,P|301:205|261:186,1,90.9999958343508,2|0,1:2|0:0,0:0:0:0:
60,97,12139,2,0,P|100:77|145:79,1,90.9999958343508,8|2,0:0|1:2,0:0:0:0:
135,265,12409,2,0,L|120:169,1,90.9999958343508
256,16,12679,2,0,L|241:105,1,90.9999958343508,10|0,0:0|0:0,0:0:0:0:
50,300,12949,5,2,1:2:0:0:
120,175,13084,1,0,0:0:0:0:
223,286,13220,2,0,L|121:261,1,90.9999958343508,8|0,0:0|1:0,0:0:0:0:
261,186,13490,1,0,0:0:0:0:
349,320,13625,1,0,1:0:0:0:
492,259,13760,1,8,0:0:0:0:
377,101,13895,5,6,0:0:0:0:
377,101,13963,1,2,0:0:0:0:
377,101,14030,2,0,L|388:223,1,90.9999958343508,2|0,0:0|1:0,0:0:0:0:
483,349,14301,2,0,L|494:227,1,90.9999958343508,8|0,0:0|0:0,0:0:0:0:
482,121,14571,2,0,P|448:180|359:179,1,136.499993751526,0|0,1:0|0:0,0:0:0:0:
298,143,14841,2,0,P|265:130|204:139,1,90.9999958343508,12|0,0:0|0:0,0:0:0:0:
59,233,15111,6,0,L|33:128,1,90.9999958343508,6|0,0:0|0:0,0:0:0:0:
163,67,15382,2,0,P|209:117|203:162,1,90.9999958343508,8|2,0:0|1:2,0:0:0:0:
139,293,15652,2,0,P|159:228|201:210,1,90.9999958343508,0|0,0:0|1:0,0:0:0:0:
347,201,15922,2,0,P|280:215|244:188,1,90.9999958343508,10|0,0:0|1:0,0:0:0:0:
37,144,16193,6,0,L|146:137,1,90.9999958343508,2|0,0:0|0:0,0:0:0:0:
217,285,16463,2,0,L|326:292,1,90.9999958343508,10|0,0:0|0:0,0:0:0:0:
481,142,16733,1,0,0:0:0:0:
347,201,16868,1,0,1:0:0:0:
452,322,17003,2,0,L|441:200,1,90.9999958343508,8|0,0:0|1:0,0:0:0:0:
422,73,17274,6,0,P|381:106|336:108,1,90.9999958343508,2|0,0:0|0:0,0:0:0:0:
192,10,17544,2,0,P|236:16|269:46,1,90.9999958343508,8|0,0:0|0:0,0:0:0:0:
234,237,17814,1,0,0:0:0:0:
51,158,17949,1,0,1:0:0:0:
200,89,18084,1,8,0:0:0:0:
144,291,18220,1,6,0:0:0:0:
144,291,18287,1,2,0:0:0:0:
144,291,18355,6,0,L|136:171,1,90.9999958343508,2|0,0:0|1:0,0:0:0:0:
118,26,18625,1,10,0:0:0:0:
43,245,18760,1,8,0:0:0:0:
43,245,18828,1,8,0:0:0:0:
43,245,18895,1,10,1:2:0:0:
232,214,19030,1,8,0:0:0:0:
197,11,19166,1,10,0:2:0:0:
8,42,19301,1,8,0:0:0:0:
232,214,19436,6,0,L|353:205,1,105.000004005432,6|0,0:0|1:0,0:0:0:0:
438,170,19841,1,0,1:0:0:0:
266,122,19976,2,0,L|370:114,1,105.000004005432,8|0,0:0|0:0,0:0:0:0:
479,88,20382,1,8,0:0:0:0:
438,170,20517,6,0,L|431:240,1,52.5000020027161,2|0,1:2|0:0,0:0:0:0:
512,322,20787,2,0,L|506:269,1,52.5000020027161,0|0,0:0|0:0,0:0:0:0:
418,311,21057,2,0,L|411:381,1,52.5000020027161,8|0,0:0|0:0,0:0:0:0:
242,259,21328,1,0,1:0:0:0:
345,209,21463,1,8,0:0:0:0:
266,338,21598,6,0,P|190:327|167:284,1,112,4|0,0:0|1:0,0:0:0:0:
181,206,22003,1,8,0:0:0:0:
97,311,22139,2,0,P|103:269|123:240,1,56,2|0,1:2|0:0,0:0:0:0:
50,195,22409,2,0,P|88:174|121:177,1,56,2|0,0:0|0:0,0:0:0:0:
181,206,22679,6,0,L|306:197,2,112,8|2|10,0:0|1:2|0:0,0:0:0:0:
181,206,23355,1,0,0:0:0:0:
358,286,23490,1,8,0:0:0:0:
358,286,23557,1,8,0:0:0:0:
358,286,23625,1,8,0:0:0:0:
454,59,23760,5,4,0:0:0:0:
510,228,24030,5,0,1:0:0:0:
454,59,24301,6,0,L|446:133,1,56,0|0,0:0|0:0,0:0:0:0:
510,228,24571,2,0,L|503:172,1,56,0|0,0:0|0:0,0:0:0:0:
372,80,24841,5,0,1:0:0:0:
428,249,25111,5,0,1:0:0:0:
372,80,25382,6,0,L|364:154,1,56,0|0,0:0|0:0,0:0:0:0:
428,249,25652,2,0,L|421:193,1,56,0|0,0:0|0:0,0:0:0:0:
289,93,25922,6,0,P|234:98|205:151,1,112,2|0,1:2|0:0,0:0:0:0:
224,252,26328,1,8,0:0:0:0:
94,196,26463,2,0,L|169:205,1,56,8|0,0:0|1:0,0:0:0:0:
279,245,26733,2,0,L|204:254,1,56,0|0,3:0|1:0,0:0:0:0:
57,342,27003,6,0,L|51:273,1,56,4|0,0:0|0:0,0:0:0:0:
120,109,27274,1,8,0:0:0:0:
0,220,27409,1,8,0:0:0:0:
0,220,27476,1,8,0:0:0:0:
0,220,27544,1,0,1:0:0:0:
94,196,27679,1,8,3:0:0:0:
129,275,27814,1,0,1:0:0:0:
223,251,27949,1,0,1:0:0:0:
451,258,28084,6,0,L|469:131,1,90.9999958343508,6|0,0:0|0:0,0:0:0:0:
272,23,28355,2,0,L|290:150,1,90.9999958343508,8|0,0:0|1:0,0:0:0:0:
223,251,28625,1,2,0:0:0:0:
374,143,28760,1,0,1:0:0:0:
128,134,28895,2,0,L|227:171,1,90.9999958343508,10|0,0:0|1:0,0:0:0:0:
346,302,29166,6,0,L|247:339,1,90.9999958343508,2|0,1:2|0:0,0:0:0:0:
20,274,29436,2,0,P|70:228|115:234,1,90.9999958343508,10|0,0:0|0:0,0:0:0:0:
202,382,29706,2,0,P|137:362|119:320,1,90.9999958343508,2|0,0:0|1:0,0:0:0:0:
213,165,29976,2,0,P|227:232|200:268,1,90.9999958343508,8|0,0:0|1:0,0:0:0:0:
38,147,30247,6,0,L|129:133,1,90.9999958343508,2|0,1:2|0:0,0:0:0:0:
308,263,30517,2,0,L|217:249,1,90.9999958343508,8|0,0:0|0:0,0:0:0:0:
324,148,30787,1,2,0:0:0:0:
484,220,30922,1,0,0:0:0:0:
445,46,31057,2,0,L|418:149,1,90.9999958343508,10|0,0:0|0:0,0:0:0:0:
362,382,31328,5,0,1:0:0:0:
226,143,31463,1,8,0:0:0:0:
484,220,31598,1,8,0:0:0:0:
218,249,31733,5,8,0:0:0:0:
218,249,31801,1,8,0:0:0:0:
218,249,31868,1,8,0:0:0:0:
478,317,32003,1,8,0:0:0:0:
478,317,32071,1,8,0:0:0:0:
478,317,32138,1,8,0:0:0:0:
210,344,32274,1,0,1:0:0:0:
484,220,32409,6,0,L|386:200,1,90.9999958343508,6|0,1:2|0:0,0:0:0:0:
210,344,32679,2,0,L|299:325,1,90.9999958343508,8|0,0:0|1:0,0:0:0:0:
312,125,32949,2,0,L|294:224,1,90.9999958343508,0|0,0:2|1:0,0:0:0:0:
225,60,33220,1,0,1:0:0:0:
120,272,33355,5,14,0:0:0:0:
120,272,33423,1,2,0:0:0:0:
120,272,33490,2,0,L|137:183,1,90.9999958343508,2|0,0:0|1:0,0:0:0:0:
86,29,33760,1,8,0:0:0:0:
220,150,33895,1,0,1:0:0:0:
27,204,34030,1,8,0:0:0:0:
196,307,34166,1,0,0:0:0:0:
126,103,34301,5,2,0:0:0:0:
49,350,34436,1,6,1:2:0:0:
369,245,34571,6,0,L|271:225,1,90.9999958343508,0|0,0:0|1:0,0:0:0:0:
36,121,34841,2,0,L|125:102,1,90.9999958343508,8|0,0:0|1:0,0:0:0:0:
196,307,35111,2,0,L|98:287,1,90.9999958343508,0|0,0:0|1:0,0:0:0:0:
221,150,35382,1,8,0:0:0:0:
303,357,35517,1,0,1:0:0:0:
303,357,35584,1,2,0:0:0:0:
303,357,35652,6,0,L|318:300,2,45.4999979171754,2|2|2,0:0|0:0|0:0,0:0:0:0:
492,200,35922,1,10,0:0:0:0:
475,235,35989,1,8,0:0:0:0:
443,257,36057,1,0,1:0:0:0:
404,261,36124,1,0,1:0:0:0:
369,245,36192,1,8,0:0:0:0:
502,343,36328,1,0,1:0:0:0:
430,88,36463,2,0,L|415:186,1,90.9999958343508,12|0,0:0|0:0,0:0:0:0:
224,256,36733,6,0,P|260:218|320:212,1,83.9999974365235,6|0,0:0|0:0,0:0:0:0:
501,342,37003,2,0,P|462:328|436:296,1,83.9999974365235,8|0,0:0|1:0,0:0:0:0:
430,88,37274,2,0,L|415:186,1,83.9999974365235
313,307,37544,1,0,1:0:0:0:
190,130,37679,1,14,0:0:0:0:
190,130,37747,1,2,0:0:0:0:
190,130,37814,2,0,L|289:114,1,83.9999974365235,2|0,0:0|1:0,0:0:0:0:
157,304,38084,2,0,L|74:290,1,83.9999974365235,8|0,0:0|1:0,0:0:0:0:
95,61,38355,5,8,0:0:0:0:
132,219,38490,1,0,1:0:0:0:
205,42,38625,5,8,0:0:0:0:
233,208,38760,1,6,0:0:0:0:
29,107,38895,6,0,P|65:69|125:63,1,83.9999974365235,0|0,0:0|1:0,0:0:0:0:
298,254,39166,2,0,P|259:239|232:207,1,83.9999974365235,8|0,0:0|1:0,0:0:0:0:
428,74,39436,2,0,L|413:172,1,83.9999974365235
393,326,39706,1,8,0:0:0:0:
255,122,39841,5,0,1:0:0:0:
255,122,39909,1,2,1:2:0:0:
255,122,39976,2,0,L|360:114,1,83.9999974365235,6|0,1:2|1:0,0:0:0:0:
512,254,40247,2,0,L|407:246,1,83.9999974365235,8|0,0:0|0:0,0:0:0:0:
337,242,40449,1,8,0:0:0:0:
337,242,40517,1,8,0:0:0:0:
426,71,40652,1,0,1:0:0:0:
499,338,40787,5,12,0:0:0:0:
