osu file format v14

[General]
AudioFilename: audio.mp3
AudioLeadIn: 0
PreviewTime: 37911
Countdown: 1
SampleSet: None
StackLeniency: 0.7
Mode: 0
LetterboxInBreaks: 0
WidescreenStoryboard: 0

[Editor]
Bookmarks: 5911,10482,19625,28768,37911,47054,56197,65340,74482,83625,92768,101911
DistanceSpacing: 1.9
BeatDivisor: 4
GridSize: 8
TimelineZoom: 2.3

[Metadata]
Title:Happico Happico
TitleUnicode:Happico Happico
Artist:Shiraisi
ArtistUnicode:Shiraisi
Creator:fufu-
Version:Catastrophe
Source:
Tags:
BeatmapID:1371392
BeatmapSetID:647357

[Difficulty]
HPDrainRate:5
CircleSize:4.5
OverallDifficulty:8.8
ApproachRate:9.5
SliderMultiplier:1.4
SliderTickRate:1

[Events]
//Background and Video events
0,0,"Snow-Wallpaper-1200x839.jpg",0,0
//Break Periods
//Storyboard Layer 0 (Background)
//Storyboard Layer 1 (Fail)
//Storyboard Layer 2 (Pass)
//Storyboard Layer 3 (Foreground)
//Storyboard Sound Samples

[TimingPoints]
1340,285.714285714286,4,2,0,35,1,0
19625,-100,4,2,0,35,0,0
28768,-100,4,2,0,35,0,1
37911,-100,4,2,0,35,0,0
65340,-100,4,2,0,35,0,1
74482,-100,4,2,0,35,0,0

[Colours]
Combo1 : 185,255,255
Combo2 : 0,128,192
Combo3 : 255,255,255
Combo4 : 128,64,64

[HitObjects]
310,139,1340,6,0,L|389:132,1,70
337,223,1625,2,0,L|265:214,1,70
301,110,1911,2,0,L|380:103,1,70
343,252,2196,2,0,L|271:243,1,70
171,150,2482,6,0,P|148:117|135:86,1,70
273,116,2768,2,0,P|276:75|272:42,1,70
140,150,3054,2,0,P|117:117|104:86,1,70
296,98,3340,2,0,P|299:57|295:24,1,70
85,7,3625,6,0,L|77:82,1,70
198,81,3911,2,0,L|202:170,1,70
82,202,4197,2,0,L|74:277,1,70
195,276,4483,2,0,L|199:365,1,70
367,183,4768,6,0,P|404:187|439:197,1,70
438,311,5054,2,0,P|404:320|369:323,1,70
269,154,5340,2,0,P|306:158|341:168,1,70
343,341,5626,2,0,P|309:350|274:353,1,70
171,255,5911,5,0,0:0:0:0:
171,255,6054,2,0,L|245:260,1,70
161,187,6340,2,0,L|235:192,1,70
151,118,6625,2,0,L|225:123,1,70
296,128,6911,1,0,0:0:0:0:
422,66,7054,5,0,0:0:0:0:
422,66,7197,2,0,P|433:107|434:143,1,70
467,198,7482,2,0,P|452:237|432:267,1,70
444,333,7768,2,0,P|409:357|375:370,1,70
322,336,8054,1,0,0:0:0:0:
200,274,8197,5,0,0:0:0:0:
200,274,8340,2,0,L|207:353,1,70
130,261,8625,2,0,L|137:340,1,70
60,246,8911,2,0,L|67:325,1,70
110,193,9197,1,0,0:0:0:0:
34,30,9340,5,0,0:0:0:0:
106,160,9482,1,0,0:0:0:0:
125,13,9625,1,0,0:0:0:0:
24,121,9768,1,0,0:0:0:0:
170,93,9911,1,0,0:0:0:0:
190,113,10197,6,0,L|216:107,6,17.5
269,154,10482,5,0,0:0:0:0:
295,163,10554,1,0,0:0:0:0:
322,167,10625,1,0,0:0:0:0:
350,164,10697,1,0,0:0:0:0:
375,153,10768,1,0,0:0:0:0:
397,135,10840,1,0,0:0:0:0:
411,111,10911,1,0,0:0:0:0:
417,83,10982,1,0,0:0:0:0:
411,55,11054,5,0,0:0:0:0:
395,77,11126,1,0,0:0:0:0:
384,102,11197,1,0,0:0:0:0:
380,130,11269,1,0,0:0:0:0:
384,157,11340,1,0,0:0:0:0:
396,183,11412,1,0,0:0:0:0:
415,203,11483,1,0,0:0:0:0:
441,216,11554,1,0,0:0:0:0:
468,220,11625,5,0,0:0:0:0:
442,231,11697,1,0,0:0:0:0:
417,245,11768,1,0,0:0:0:0:
394,262,11840,1,0,0:0:0:0:
375,282,11911,1,0,0:0:0:0:
358,304,11982,1,0,0:0:0:0:
337,323,12054,1,0,0:0:0:0:
312,335,12125,1,0,0:0:0:0:
284,340,12197,5,0,0:0:0:0:
256,339,12268,1,0,0:0:0:0:
228,332,12340,1,0,0:0:0:0:
202,320,12411,1,0,0:0:0:0:
174,313,12482,1,0,0:0:0:0:
145,313,12554,1,0,0:0:0:0:
119,324,12625,1,0,0:0:0:0:
97,341,12697,1,0,0:0:0:0:
82,365,12768,5,0,0:0:0:0:
85,337,12840,1,0,0:0:0:0:
79,309,12911,1,0,0:0:0:0:
69,282,12982,1,0,0:0:0:0:
52,258,13054,1,0,0:0:0:0:
41,232,13125,1,0,0:0:0:0:
37,204,13197,1,0,0:0:0:0:
38,176,13268,1,0,0:0:0:0:
50,150,13340,5,0,0:0:0:0:
32,128,13411,1,0,0:0:0:0:
27,100,13482,1,0,0:0:0:0:
33,72,13554,1,0,0:0:0:0:
52,52,13625,1,0,0:0:0:0:
79,45,13697,1,0,0:0:0:0:
106,46,13768,1,0,0:0:0:0:
128,63,13840,1,0,0:0:0:0:
138,88,13911,6,0,P|138:108|133:138,3,35
197,220,14197,2,0,P|197:200|202:170,3,35
260,87,14482,2,0,P|260:107|255:137,3,35
319,219,14768,2,0,P|319:199|324:169,3,35
390,88,15054,5,0,0:0:0:0:
405,111,15125,1,0,0:0:0:0:
412,138,15197,1,0,0:0:0:0:
410,165,15268,1,0,0:0:0:0:
400,191,15340,1,0,0:0:0:0:
394,218,15411,1,0,0:0:0:0:
394,245,15482,1,0,0:0:0:0:
401,272,15554,1,0,0:0:0:0:
414,296,15625,5,0,0:0:0:0:
386,289,15697,1,0,0:0:0:0:
358,291,15768,1,0,0:0:0:0:
331,301,15840,1,0,0:0:0:0:
307,315,15911,1,0,0:0:0:0:
283,330,15982,1,0,0:0:0:0:
256,339,16054,1,0,0:0:0:0:
228,341,16125,1,0,0:0:0:0:
199,340,16197,5,0,0:0:0:0:
171,334,16268,1,0,0:0:0:0:
144,323,16340,1,0,0:0:0:0:
120,307,16411,1,0,0:0:0:0:
102,285,16482,1,0,0:0:0:0:
90,259,16554,1,0,0:0:0:0:
86,231,16625,1,0,0:0:0:0:
87,202,16697,1,0,0:0:0:0:
93,174,16768,5,0,0:0:0:0:
115,190,16840,1,0,0:0:0:0:
141,197,16911,1,0,0:0:0:0:
168,198,16982,1,0,0:0:0:0:
195,193,17054,1,0,0:0:0:0:
219,180,17125,1,0,0:0:0:0:
239,160,17197,1,0,0:0:0:0:
250,134,17268,1,0,0:0:0:0:
253,105,17340,5,0,0:0:0:0:
267,129,17411,1,0,0:0:0:0:
284,150,17482,1,0,0:0:0:0:
306,166,17554,1,0,0:0:0:0:
332,174,17625,1,0,0:0:0:0:
360,176,17697,1,0,0:0:0:0:
387,172,17768,1,0,0:0:0:0:
415,172,17840,1,0,0:0:0:0:
440,182,17911,5,0,0:0:0:0:
426,157,17982,1,0,0:0:0:0:
414,131,18054,1,0,0:0:0:0:
409,103,18125,1,0,0:0:0:0:
413,75,18197,1,0,0:0:0:0:
425,50,18268,1,0,0:0:0:0:
443,28,18340,1,0,0:0:0:0:
466,12,18411,1,0,0:0:0:0:
492,3,18482,6,0,L|486:41,3,35
476,129,18768,2,0,L|470:167,3,35
369,154,19054,2,0,L|375:192,3,35
385,280,19340,2,0,L|391:318,3,35
308,237,19625,6,0,L|224:228,1,70
96,158,19911,2,0,L|180:149,1,70
312,268,20197,2,0,L|228:259,1,70
81,131,20483,2,0,L|165:122,1,70
169,259,20768,6,0,P|166:298|159:329,1,70
223,107,21054,2,0,P|226:68|233:37,1,70
245,290,21340,2,0,P|248:329|255:360,1,70
141,94,21625,1,0,0:0:0:0:
209,274,21768,1,0,0:0:0:0:
298,127,21911,6,0,P|326:104|363:90,1,70
491,174,22197,2,0,P|463:151|426:137,1,70
277,104,22482,2,0,P|305:81|342:67,1,70
336,68,22697,1,0,0:0:0:0:
336,68,22768,1,0,0:0:0:0:
479,203,22911,1,0,0:0:0:0:
328,314,23054,6,0,L|269:263,1,70
141,275,23340,2,0,L|214:249,1,70
267,128,23625,2,0,L|252:204,1,70
229,325,23911,1,0,0:0:0:0:
197,98,24054,1,0,0:0:0:0:
347,230,24197,6,0,P|385:238|429:234,1,70
446,138,24482,2,0,P|408:130|364:134,1,70
357,275,24768,2,0,P|395:272|437:257,1,70
447,86,25053,2,0,P|408:88|366:103,1,70
405,340,25340,6,0,L|478:352,1,70
254,212,25625,2,0,L|335:201,1,70
121,337,25911,2,0,L|201:344,1,70
35,213,26197,1,0,0:0:0:0:
116,367,26340,1,0,0:0:0:0:
188,170,26482,6,0,P|193:132|192:93,1,70
95,33,26768,2,0,P|90:71|91:110,1,70
288,234,27054,2,0,P|293:196|292:157,1,70
292,164,27268,1,0,0:0:0:0:
292,164,27340,1,0,0:0:0:0:
107,186,27482,1,0,0:0:0:0:
306,261,27625,6,0,L|375:264,1,70
337,270,27911,2,0,L|404:255,1,70
368,272,28197,2,0,L|429:240,1,70
397,276,28482,1,0,0:0:0:0:
336,102,28625,1,0,0:0:0:0:
296,340,28768,5,0,0:0:0:0:
399,162,28911,1,0,0:0:0:0:
241,217,29054,2,0,L|161:209,1,70
264,196,29340,5,0,0:0:0:0:
77,180,29482,1,0,0:0:0:0:
169,316,29625,2,0,P|177:276|177:240,1,70
146,83,29911,5,0,0:0:0:0:
106,268,30054,1,0,0:0:0:0:
248,142,30197,1,0,0:0:0:0:
60,161,30340,1,0,0:0:0:0:
224,257,30482,6,0,L|308:261,1,70
107,298,30768,2,0,L|23:302,1,70
224,289,31054,5,0,0:0:0:0:
106,268,31197,1,0,0:0:0:0:
249,364,31340,2,0,L|320:368,1,70
223,228,31625,5,0,0:0:0:0:
346,369,31768,1,0,0:0:0:0:
406,204,31911,1,0,0:0:0:0:
226,343,32054,6,0,P|191:350|148:351,1,70
144,283,32340,2,0,P|111:268|75:244,1,70
117,191,32625,1,0,0:0:0:0:
117,191,32768,2,0,P|98:160|82:120,1,70
132,58,33054,2,0,L|233:67,1,70
143,32,33340,5,0,0:0:0:0:
316,43,33482,1,0,0:0:0:0:
219,187,33625,2,0,P|188:152|167:107,1,70
213,216,33911,5,0,0:0:0:0:
224,43,34053,1,0,0:0:0:0:
368,140,34196,2,0,P|333:171|288:192,1,70
398,155,34482,5,0,0:0:0:0:
225,144,34624,1,0,0:0:0:0:
322,0,34768,1,0,0:0:0:0:
312,213,34911,1,0,0:0:0:0:
401,64,35054,6,0,L|486:55,1,70
254,63,35340,2,0,L|169:54,1,70
398,155,35625,5,0,0:0:0:0:
225,144,35768,1,0,0:0:0:0:
315,242,35911,2,0,L|319:320,1,70
288,217,36197,5,0,0:0:0:0:
461,228,36340,1,0,0:0:0:0:
371,130,36482,1,0,0:0:0:0:
289,310,36625,6,0,L|294:383,1,70
215,292,36911,2,0,L|220:365,1,70
142,277,37197,1,0,0:0:0:0:
142,277,37340,2,0,L|147:350,1,70
189,218,37625,2,0,L|186:148,1,70
134,79,37911,6,0,P|96:68|61:64,1,70
156,157,38197,1,0,0:0:0:0:
134,79,38340,2,0,P|96:68|61:64,1,70
202,64,38625,2,0,P|164:75|129:79,1,70
156,157,38911,1,0,0:0:0:0:
134,79,39054,2,0,P|96:68|61:64,1,70
162,186,39340,1,0,0:0:0:0:
222,40,39482,1,0,0:0:0:0:
309,160,39625,6,0,P|345:184|336:142,1,105
270,154,39911,6,0,P|280:197|336:222,1,105
205,103,40197,5,0,0:0:0:0:
315,36,40340,2,0,L|246:43,1,70
385,43,40625,2,0,L|316:37,1,70
455,37,40911,2,0,L|386:44,1,70
239,128,41197,1,0,0:0:0:0:
465,140,41340,6,0,B|478:182|478:182|468:249,1,105
393,291,41625,6,0,L|408:181,1,105
335,183,41911,6,0,L|211:195,1,105
189,252,42197,6,0,P|202:297|266:328,1,105
327,337,42482,5,0,0:0:0:0:
337,310,42554,1,0,0:0:0:0:
341,282,42625,1,0,0:0:0:0:
335,254,42697,1,0,0:0:0:0:
324,228,42768,1,0,0:0:0:0:
317,200,42840,1,0,0:0:0:0:
316,172,42911,1,0,0:0:0:0:
323,145,42982,1,0,0:0:0:0:
343,125,43054,5,0,0:0:0:0:
316,133,43125,1,0,0:0:0:0:
287,135,43197,1,0,0:0:0:0:
259,130,43268,1,0,0:0:0:0:
233,118,43340,1,0,0:0:0:0:
212,98,43411,1,0,0:0:0:0:
197,74,43482,1,0,0:0:0:0:
189,46,43554,1,0,0:0:0:0:
185,19,43625,5,0,0:0:0:0:
205,38,43696,1,0,0:0:0:0:
221,62,43768,1,0,0:0:0:0:
231,89,43839,1,0,0:0:0:0:
233,118,43911,1,0,0:0:0:0:
227,146,43982,1,0,0:0:0:0:
213,171,44053,1,0,0:0:0:0:
193,192,44125,1,0,0:0:0:0:
171,209,44197,5,0,0:0:0:0:
177,182,44268,1,0,0:0:0:0:
190,156,44340,1,0,0:0:0:0:
208,134,44411,1,0,0:0:0:0:
233,118,44483,1,0,0:0:0:0:
260,109,44554,1,0,0:0:0:0:
288,108,44625,1,0,0:0:0:0:
317,115,44697,1,0,0:0:0:0:
341,127,44768,6,0,B|348:167|348:167|342:219,1,70
306,276,45054,1,0,0:0:0:0:
341,127,45197,2,0,B|348:167|348:167|342:219,1,70
292,299,45482,1,0,0:0:0:0:
380,122,45625,1,0,0:0:0:0:
183,135,45768,1,0,0:0:0:0:
419,117,45911,2,0,B|426:157|426:157|420:209,1,70
281,117,46197,6,0,P|273:79|271:44,1,70
447,139,46482,6,0,P|452:181|398:242,1,105
306,148,46768,6,0,P|329:109|394:95,1,105
378,168,47054,5,0,0:0:0:0:
371,184,47125,1,0,0:0:0:0:
360,198,47196,1,0,0:0:0:0:
347,209,47268,1,0,0:0:0:0:
331,217,47339,1,0,0:0:0:0:
314,221,47411,1,0,0:0:0:0:
297,221,47482,1,0,0:0:0:0:
280,216,47554,1,0,0:0:0:0:
265,208,47625,5,0,0:0:0:0:
252,197,47696,1,0,0:0:0:0:
241,183,47768,1,0,0:0:0:0:
235,166,47839,1,0,0:0:0:0:
232,149,47911,1,0,0:0:0:0:
234,132,47982,1,0,0:0:0:0:
240,115,48054,1,0,0:0:0:0:
249,101,48125,1,0,0:0:0:0:
261,88,48196,5,0,0:0:0:0:
262,106,48268,1,0,0:0:0:0:
263,123,48340,1,0,0:0:0:0:
264,140,48411,1,0,0:0:0:0:
265,157,48482,1,0,0:0:0:0:
266,174,48554,1,0,0:0:0:0:
267,191,48625,1,0,0:0:0:0:
268,208,48697,1,0,0:0:0:0:
269,225,48768,5,0,0:0:0:0:
267,242,48840,1,0,0:0:0:0:
266,259,48911,1,0,0:0:0:0:
265,276,48982,1,0,0:0:0:0:
264,293,49054,1,0,0:0:0:0:
263,310,49125,1,0,0:0:0:0:
262,327,49197,1,0,0:0:0:0:
261,344,49268,1,0,0:0:0:0:
260,361,49340,5,0,0:0:0:0:
251,346,49411,1,0,0:0:0:0:
246,330,49482,1,0,0:0:0:0:
244,312,49554,1,0,0:0:0:0:
246,295,49625,1,0,0:0:0:0:
253,279,49697,1,0,0:0:0:0:
263,265,49768,1,0,0:0:0:0:
276,253,49840,1,0,0:0:0:0:
292,245,49911,5,0,0:0:0:0:
309,241,49982,1,0,0:0:0:0:
326,241,50054,1,0,0:0:0:0:
343,245,50125,1,0,0:0:0:0:
359,253,50197,1,0,0:0:0:0:
372,264,50268,1,0,0:0:0:0:
382,278,50340,1,0,0:0:0:0:
389,294,50411,1,0,0:0:0:0:
392,311,50482,5,0,0:0:0:0:
376,319,50554,1,0,0:0:0:0:
359,324,50625,1,0,0:0:0:0:
342,328,50696,1,0,0:0:0:0:
325,330,50768,1,0,0:0:0:0:
307,331,50839,1,0,0:0:0:0:
290,330,50911,1,0,0:0:0:0:
273,328,50982,1,0,0:0:0:0:
255,324,51054,5,0,0:0:0:0:
238,320,51125,1,0,0:0:0:0:
221,316,51196,1,0,0:0:0:0:
204,313,51268,1,0,0:0:0:0:
187,311,51339,1,0,0:0:0:0:
169,310,51411,1,0,0:0:0:0:
152,312,51482,1,0,0:0:0:0:
135,316,51554,1,0,0:0:0:0:
121,326,51625,5,0,0:0:0:0:
135,308,51697,1,0,0:0:0:0:
143,288,51768,1,0,0:0:0:0:
150,266,51840,1,0,0:0:0:0:
152,243,51911,1,0,0:0:0:0:
150,221,51982,1,0,0:0:0:0:
143,198,52054,1,0,0:0:0:0:
134,178,52125,1,0,0:0:0:0:
119,160,52197,5,0,0:0:0:0:
105,142,52269,1,0,0:0:0:0:
97,122,52340,1,0,0:0:0:0:
90,99,52412,1,0,0:0:0:0:
88,77,52483,1,0,0:0:0:0:
90,55,52554,1,0,0:0:0:0:
97,32,52626,1,0,0:0:0:0:
106,12,52697,1,0,0:0:0:0:
122,0,52768,5,0,0:0:0:0:
141,7,52839,1,0,0:0:0:0:
161,16,52910,1,0,0:0:0:0:
182,26,52982,1,0,0:0:0:0:
203,32,53053,1,0,0:0:0:0:
224,39,53125,1,0,0:0:0:0:
246,43,53196,1,0,0:0:0:0:
268,46,53268,1,0,0:0:0:0:
291,48,53339,5,0,0:0:0:0:
313,48,53410,1,0,0:0:0:0:
335,47,53482,1,0,0:0:0:0:
358,45,53553,1,0,0:0:0:0:
380,41,53625,1,0,0:0:0:0:
401,35,53696,1,0,0:0:0:0:
423,29,53768,1,0,0:0:0:0:
444,22,53839,1,0,0:0:0:0:
464,12,53911,5,0,0:0:0:0:
443,3,53982,1,0,0:0:0:0:
422,0,54053,1,0,0:0:0:0:
399,0,54125,1,0,0:0:0:0:
377,2,54196,1,0,0:0:0:0:
357,11,54268,1,0,0:0:0:0:
337,23,54339,1,0,0:0:0:0:
323,39,54411,1,0,0:0:0:0:
310,57,54482,5,0,0:0:0:0:
301,78,54553,1,0,0:0:0:0:
296,99,54625,1,0,0:0:0:0:
296,122,54696,1,0,0:0:0:0:
301,144,54768,1,0,0:0:0:0:
310,164,54839,1,0,0:0:0:0:
321,183,54911,1,0,0:0:0:0:
337,198,54982,1,0,0:0:0:0:
360,204,55054,5,0,0:0:0:0:
364,194,55125,1,0,0:0:0:0:
367,182,55196,1,0,0:0:0:0:
367,169,55268,1,0,0:0:0:0:
365,157,55339,1,0,0:0:0:0:
361,146,55411,1,0,0:0:0:0:
353,136,55482,1,0,0:0:0:0:
345,128,55554,1,0,0:0:0:0:
335,121,55625,5,0,0:0:0:0:
325,117,55696,1,0,0:0:0:0:
314,115,55768,1,0,0:0:0:0:
303,115,55839,1,0,0:0:0:0:
292,117,55911,1,0,0:0:0:0:
281,122,55982,1,0,0:0:0:0:
271,128,56054,1,0,0:0:0:0:
263,136,56125,1,0,0:0:0:0:
257,145,56196,5,0,0:0:0:0:
245,178,56268,1,0,0:0:0:0:
243,213,56340,1,0,0:0:0:0:
251,246,56411,1,0,0:0:0:0:
253,280,56482,1,0,0:0:0:0:
240,313,56554,1,0,0:0:0:0:
211,332,56625,1,0,0:0:0:0:
176,339,56697,1,0,0:0:0:0:
143,325,56768,5,0,0:0:0:0:
124,294,56840,1,0,0:0:0:0:
116,260,56911,1,0,0:0:0:0:
118,225,56982,1,0,0:0:0:0:
112,190,57054,1,0,0:0:0:0:
95,159,57125,1,0,0:0:0:0:
68,136,57197,1,0,0:0:0:0:
34,125,57268,1,0,0:0:0:0:
0,136,57340,5,0,0:0:0:0:
27,157,57411,1,0,0:0:0:0:
61,163,57482,1,0,0:0:0:0:
95,159,57554,1,0,0:0:0:0:
125,142,57625,1,0,0:0:0:0:
151,119,57697,1,0,0:0:0:0:
184,108,57768,1,0,0:0:0:0:
219,109,57840,1,0,0:0:0:0:
250,123,57911,5,0,0:0:0:0:
276,145,57982,1,0,0:0:0:0:
302,168,58054,1,0,0:0:0:0:
335,178,58125,1,0,0:0:0:0:
370,174,58197,1,0,0:0:0:0:
401,159,58268,1,0,0:0:0:0:
425,134,58340,1,0,0:0:0:0:
457,122,58411,1,0,0:0:0:0:
491,128,58482,5,0,0:0:0:0:
474,158,58553,1,0,0:0:0:0:
444,175,58624,1,0,0:0:0:0:
409,176,58696,1,0,0:0:0:0:
379,159,58767,1,0,0:0:0:0:
362,129,58839,1,0,0:0:0:0:
361,95,58910,1,0,0:0:0:0:
378,65,58982,1,0,0:0:0:0:
408,47,59054,5,0,0:0:0:0:
417,81,59125,1,0,0:0:0:0:
409,115,59196,1,0,0:0:0:0:
385,139,59268,1,0,0:0:0:0:
352,148,59339,1,0,0:0:0:0:
318,140,59411,1,0,0:0:0:0:
294,115,59482,1,0,0:0:0:0:
284,82,59554,1,0,0:0:0:0:
294,49,59625,5,0,0:0:0:0:
324,65,59696,1,0,0:0:0:0:
341,95,59767,1,0,0:0:0:0:
342,130,59839,1,0,0:0:0:0:
325,160,59910,1,0,0:0:0:0:
295,177,59982,1,0,0:0:0:0:
261,178,60053,1,0,0:0:0:0:
231,161,60125,1,0,0:0:0:0:
213,131,60197,5,0,0:0:0:0:
245,121,60268,1,0,0:0:0:0:
278,130,60339,1,0,0:0:0:0:
304,154,60411,1,0,0:0:0:0:
313,187,60482,1,0,0:0:0:0:
304,220,60554,1,0,0:0:0:0:
280,245,60625,1,0,0:0:0:0:
247,254,60697,1,0,0:0:0:0:
213,246,60768,5,0,0:0:0:0:
182,227,60840,1,0,0:0:0:0:
147,220,60911,1,0,0:0:0:0:
112,222,60982,1,0,0:0:0:0:
80,238,61054,1,0,0:0:0:0:
59,265,61125,1,0,0:0:0:0:
53,299,61197,1,0,0:0:0:0:
38,330,61268,1,0,0:0:0:0:
10,351,61340,5,0,0:0:0:0:
43,341,61411,1,0,0:0:0:0:
77,341,61482,1,0,0:0:0:0:
111,346,61554,1,0,0:0:0:0:
143,358,61625,1,0,0:0:0:0:
176,367,61697,1,0,0:0:0:0:
210,367,61768,1,0,0:0:0:0:
244,361,61840,1,0,0:0:0:0:
276,347,61911,5,0,0:0:0:0:
247,326,61982,1,0,0:0:0:0:
234,292,62054,1,0,0:0:0:0:
241,257,62125,1,0,0:0:0:0:
262,229,62197,1,0,0:0:0:0:
281,199,62268,1,0,0:0:0:0:
284,163,62340,1,0,0:0:0:0:
275,129,62411,1,0,0:0:0:0:
255,100,62482,5,0,0:0:0:0:
288,112,62554,1,0,0:0:0:0:
321,119,62625,1,0,0:0:0:0:
356,121,62697,1,0,0:0:0:0:
390,120,62768,1,0,0:0:0:0:
363,143,62840,1,0,0:0:0:0:
329,150,62911,1,0,0:0:0:0:
294,152,62982,1,0,0:0:0:0:
259,146,63054,6,0,P|241:141|212:129,5,35
201,207,63482,2,0,P|181:209|156:213,3,35
128,146,63768,2,0,P|111:144|82:139,1,35
75,219,63911,2,0,P|54:222|30:229,1,35
112,118,64054,2,0,P|95:116|66:111,1,35
59,248,64197,2,0,P|38:251|14:258,7,35
117,295,64768,6,0,P|137:300|161:302,3,35
216,341,65054,2,0,P|237:334|258:325,3,35
298,270,65340,5,0,0:0:0:0:
451,294,65482,1,0,0:0:0:0:
351,203,65625,2,0,P|343:165|339:126,1,70
382,343,65911,5,0,0:0:0:0:
429,166,66054,1,0,0:0:0:0:
264,206,66197,2,0,P|221:203|178:202,1,70
363,231,66482,5,0,0:0:0:0:
231,121,66625,1,0,0:0:0:0:
202,291,66768,1,0,0:0:0:0:
368,146,66911,1,0,0:0:0:0:
209,100,67054,6,0,L|133:90,1,70
339,125,67340,2,0,L|424:111,1,70
260,185,67625,5,0,0:0:0:0:
294,42,67768,1,0,0:0:0:0:
328,247,67911,2,0,L|332:319,1,70
343,155,68196,5,0,0:0:0:0:
309,298,68339,1,0,0:0:0:0:
275,93,68482,1,0,0:0:0:0:
241,236,68625,6,0,P|202:244|169:243,1,70
368,142,68911,2,0,P|407:134|440:135,1,70
309,327,69197,1,0,0:0:0:0:
248,108,69340,2,0,P|240:67|239:26,1,70
386,0,69625,2,0,P|394:41|395:82,1,70
264,134,69911,5,0,0:0:0:0:
386,102,70054,1,0,0:0:0:0:
345,216,70197,2,0,L|357:290,1,70
368,195,70482,5,0,0:0:0:0:
246,163,70625,1,0,0:0:0:0:
287,277,70768,2,0,L|275:351,1,70
264,256,71054,5,0,0:0:0:0:
386,288,71197,1,0,0:0:0:0:
345,174,71340,1,0,0:0:0:0:
299,366,71482,1,0,0:0:0:0:
408,268,71625,6,0,P|435:232|450:205,1,70
331,143,71911,2,0,P|322:100|319:57,1,70
447,34,72197,5,0,0:0:0:0:
361,158,72340,1,0,0:0:0:0:
231,101,72482,2,0,P|185:93|146:92,1,70
251,78,72768,5,0,0:0:0:0:
277,226,72911,1,0,0:0:0:0:
145,278,73054,1,0,0:0:0:0:
301,202,73197,6,0,L|315:116,1,70
124,260,73482,2,0,L|140:349,1,70
224,131,73768,1,0,0:0:0:0:
203,293,73911,2,0,L|219:382,1,70
236,159,74197,2,0,L|250:73,1,70
286,318,74482,6,0,P|309:349|348:369,1,70
360,290,74768,2,0,P|398:295|439:282,1,70
392,220,75054,2,0,P|423:197|443:157,1,70
366,145,75340,2,0,P|371:106|358:65,1,70
298,113,75625,6,0,L|224:106,1,70
259,178,75911,2,0,L|185:171,1,70
216,243,76197,2,0,L|142:236,1,70
177,308,76482,1,0,0:0:0:0:
164,147,76625,1,0,0:0:0:0:
196,335,76768,6,0,L|270:345,1,70
393,307,77054,2,0,L|323:297,1,70
215,211,77340,2,0,L|289:221,1,70
284,220,77554,1,0,0:0:0:0:
284,220,77625,1,0,0:0:0:0:
411,187,77768,1,0,0:0:0:0:
276,113,77911,6,0,P|236:117|202:132,1,70
84,156,78197,2,0,P|124:160|158:175,1,70
281,197,78482,2,0,P|241:201|207:216,1,70
89,240,78768,2,0,P|129:244|163:259,1,70
200,317,79054,6,0,L|282:298,1,70
156,255,79340,2,0,L|77:239,1,70
213,212,79625,2,0,L|289:196,1,70
151,171,79911,2,0,L|75:154,1,70
212,118,80197,6,0,L|219:45,1,70
281,197,80482,2,0,L|285:268,1,70
352,122,80768,2,0,L|359:49,1,70
421,201,81054,1,0,0:0:0:0:
471,120,81197,1,0,0:0:0:0:
420,231,81340,6,0,L|416:313,1,70
355,92,81625,2,0,L|361:21,1,70
283,229,81911,2,0,L|287:300,1,70
286,298,82125,1,0,0:0:0:0:
286,298,82197,1,0,0:0:0:0:
216,85,82340,1,0,0:0:0:0:
168,241,82482,6,0,P|158:278|131:302,1,70
204,179,82768,2,0,P|231:206|238:241,1,70
169,116,83054,2,0,P|206:106|240:117,1,70
98,241,83340,2,0,P|60:250|26:239,1,70
213,313,83625,6,0,L|296:324,1,70
404,236,83911,2,0,L|321:247,1,70
199,339,84197,2,0,L|282:350,1,70
415,207,84483,2,0,L|332:218,1,70
469,358,84768,6,0,P|477:314|473:279,1,70
345,109,85054,2,0,P|337:153|341:188,1,70
450,336,85340,2,0,P|458:292|454:257,1,70
362,134,85625,1,0,0:0:0:0:
431,310,85768,1,0,0:0:0:0:
466,105,85911,6,0,L|475:29,1,70
345,107,86197,2,0,L|297:46,1,70
267,198,86482,2,0,L|191:189,1,70
197,189,86697,1,0,0:0:0:0:
197,189,86768,1,0,0:0:0:0:
295,332,86911,1,0,0:0:0:0:
351,126,87054,6,0,P|366:88|377:50,1,70
161,126,87340,2,0,P|146:88|135:50,1,70
334,100,87625,2,0,P|349:62|360:24,1,70
183,104,87911,2,0,P|168:66|157:28,1,70
455,146,88197,6,0,B|465:180|465:180|456:236,1,70
389,275,88482,2,0,B|395:241|395:241|385:207,1,70
299,180,88768,2,0,B|309:214|309:214|300:270,1,70
233,309,89053,2,0,B|239:275|239:275|229:241,1,70
164,276,89340,6,0,L|90:268,1,70
140,205,89625,2,0,L|66:197,1,70
158,138,89911,2,0,L|84:130,1,70
134,67,90197,1,0,0:0:0:0:
156,227,90340,1,0,0:0:0:0:
210,82,90482,6,0,P|249:73|283:52,1,70
297,167,90768,2,0,P|318:133|327:94,1,70
420,164,91054,2,0,P|410:124|389:91,1,70
396,99,91268,1,0,0:0:0:0:
396,99,91340,1,0,0:0:0:0:
501,94,91482,1,0,0:0:0:0:
297,117,91625,6,0,L|216:108,1,70
91,185,91911,2,0,L|179:174,1,70
292,252,92197,2,0,L|215:239,1,70
106,311,92482,2,0,L|147:302,3,35
174,293,92768,5,0,0:0:0:0:
205,309,92840,1,0,0:0:0:0:
224,337,92911,1,0,0:0:0:0:
251,358,92982,1,0,0:0:0:0:
285,364,93054,1,0,0:0:0:0:
318,355,93125,1,0,0:0:0:0:
345,334,93196,1,0,0:0:0:0:
364,306,93267,1,0,0:0:0:0:
395,290,93340,5,0,0:0:0:0:
368,267,93411,1,0,0:0:0:0:
347,239,93482,1,0,0:0:0:0:
333,207,93554,1,0,0:0:0:0:
327,172,93625,1,0,0:0:0:0:
328,137,93697,1,0,0:0:0:0:
337,104,93768,1,0,0:0:0:0:
353,73,93839,1,0,0:0:0:0:
377,46,93911,5,0,0:0:0:0:
409,60,93983,1,0,0:0:0:0:
423,92,94054,1,0,0:0:0:0:
409,125,94126,1,0,0:0:0:0:
377,138,94197,1,0,0:0:0:0:
350,118,94269,1,0,0:0:0:0:
319,102,94340,1,0,0:0:0:0:
287,117,94412,1,0,0:0:0:0:
279,150,94483,5,0,0:0:0:0:
252,127,94554,1,0,0:0:0:0:
217,127,94625,1,0,0:0:0:0:
191,151,94697,1,0,0:0:0:0:
187,185,94768,1,0,0:0:0:0:
202,216,94840,1,0,0:0:0:0:
210,249,94911,1,0,0:0:0:0:
206,283,94982,1,0,0:0:0:0:
191,315,95054,5,0,0:0:0:0:
176,283,95125,1,0,0:0:0:0:
196,254,95197,1,0,0:0:0:0:
230,260,95268,1,0,0:0:0:0:
246,291,95340,1,0,0:0:0:0:
272,313,95411,1,0,0:0:0:0:
304,324,95482,1,0,0:0:0:0:
338,329,95554,1,0,0:0:0:0:
372,329,95625,5,0,0:0:0:0:
354,298,95697,1,0,0:0:0:0:
350,263,95768,1,0,0:0:0:0:
363,230,95840,1,0,0:0:0:0:
376,197,95911,1,0,0:0:0:0:
379,162,95982,1,0,0:0:0:0:
373,127,96054,1,0,0:0:0:0:
355,96,96125,1,0,0:0:0:0:
324,77,96197,5,0,0:0:0:0:
326,111,96268,1,0,0:0:0:0:
342,142,96339,1,0,0:0:0:0:
368,165,96411,1,0,0:0:0:0:
401,176,96482,1,0,0:0:0:0:
436,173,96554,1,0,0:0:0:0:
467,157,96625,1,0,0:0:0:0:
490,131,96696,1,0,0:0:0:0:
501,98,96768,6,0,P|499:83|489:48,3,35
414,95,97054,2,0,P|405:85|384:69,3,35
354,61,97340,5,0,0:0:0:0:
321,49,97411,1,0,0:0:0:0:
286,50,97482,1,0,0:0:0:0:
254,64,97554,1,0,0:0:0:0:
229,88,97625,1,0,0:0:0:0:
215,120,97697,1,0,0:0:0:0:
213,155,97768,1,0,0:0:0:0:
224,188,97839,1,0,0:0:0:0:
246,215,97911,5,0,0:0:0:0:
257,182,97982,1,0,0:0:0:0:
256,147,98053,1,0,0:0:0:0:
241,115,98125,1,0,0:0:0:0:
217,91,98196,1,0,0:0:0:0:
185,77,98268,1,0,0:0:0:0:
150,76,98339,1,0,0:0:0:0:
117,87,98410,1,0,0:0:0:0:
88,108,98482,5,0,0:0:0:0:
121,118,98554,1,0,0:0:0:0:
154,125,98625,1,0,0:0:0:0:
188,131,98697,1,0,0:0:0:0:
222,135,98768,1,0,0:0:0:0:
257,135,98840,1,0,0:0:0:0:
291,132,98911,1,0,0:0:0:0:
325,125,98982,1,0,0:0:0:0:
359,116,99054,5,0,0:0:0:0:
328,98,99125,1,0,0:0:0:0:
293,103,99197,1,0,0:0:0:0:
279,135,99268,1,0,0:0:0:0:
288,168,99340,1,0,0:0:0:0:
305,198,99411,1,0,0:0:0:0:
313,231,99482,1,0,0:0:0:0:
314,266,99554,1,0,0:0:0:0:
306,299,99625,5,0,0:0:0:0:
329,272,99697,1,0,0:0:0:0:
363,265,99768,1,0,0:0:0:0:
393,282,99840,1,0,0:0:0:0:
405,314,99911,1,0,0:0:0:0:
429,338,99982,1,0,0:0:0:0:
464,340,100054,1,0,0:0:0:0:
494,324,100125,1,0,0:0:0:0:
508,291,100197,5,0,0:0:0:0:
474,301,100268,1,0,0:0:0:0:
440,311,100340,1,0,0:0:0:0:
406,321,100411,1,0,0:0:0:0:
372,331,100482,1,0,0:0:0:0:
338,342,100554,1,0,0:0:0:0:
305,354,100625,1,0,0:0:0:0:
271,365,100697,1,0,0:0:0:0:
237,375,100768,5,0,0:0:0:0:
257,335,100839,1,0,0:0:0:0:
260,290,100910,1,0,0:0:0:0:
245,247,100982,1,0,0:0:0:0:
215,214,101054,1,0,0:0:0:0:
195,174,101125,1,0,0:0:0:0:
192,129,101196,1,0,0:0:0:0:
207,86,101268,1,0,0:0:0:0:
237,53,101339,5,0,0:0:0:0:
248,104,101411,1,0,0:0:0:0:
219,147,101482,1,0,0:0:0:0:
167,160,101554,1,0,0:0:0:0:
122,133,101625,5,0,0:0:0:0:
112,66,101697,1,0,0:0:0:0:
161,22,101768,1,0,0:0:0:0:
226,38,101840,1,0,0:0:0:0:
248,104,101911,5,0,0:0:0:0:
