osu file format v14

[General]
AudioFilename: audio.mp3
AudioLeadIn: 0
PreviewTime: 56311
Countdown: 0
SampleSet: Normal
StackLeniency: 0.7
Mode: 1
LetterboxInBreaks: 0
WidescreenStoryboard: 0

[Editor]
Bookmarks: 17080,29388,97079,150924,195539
DistanceSpacing: 0.7
BeatDivisor: 4
GridSize: 32
TimelineZoom: 1.7

[Metadata]
Title:Ruriiro Kingyo to Hanashobu (nmk Eurobeat mix)
TitleUnicode:瑠璃色金魚と花菖蒲 (nmk Eurobeat mix)
Artist:Shiraishi Tsumugi (CV: Minami Saki)
ArtistUnicode:白石紬 (CV: 南早紀)
Creator:Konpaku Sariel
Version:Inner Oni
Source:アイドルマスター ミリオンライブ!
Tags:video game Japanese electronic アイマス ミリマス ミリシタ Idolmaster imas im@s idolm@ster million live theater days シアターデイズ M@STER SPARKLE 01 Azure Goldfish and the Iris RamSeeni ラムシーニ Nakamura Kanata 中村彼方 765PRO 765プロ 765 Production ナムコ DTXFiles.nmk 佐原誠 Sahara Makoto
BeatmapID:2559016
BeatmapSetID:1230914

[Difficulty]
HPDrainRate:6
CircleSize:5
OverallDifficulty:6
ApproachRate:5
SliderMultiplier:1.4
SliderTickRate:1

[Events]
//Background and Video events
0,0,"849454.jpg",0,60
//Break Periods
//Storyboard Layer 0 (Background)
//Storyboard Layer 1 (Fail)
//Storyboard Layer 2 (Pass)
//Storyboard Layer 3 (Foreground)
//Storyboard Layer 4 (Overlay)
//Storyboard Sound Samples

[TimingPoints]
158,384.615384615385,4,1,0,80,1,0
2417,-100,4,1,0,70,0,0
2513,-102.880658436214,4,1,0,80,0,0
2609,-105.820105820106,4,1,0,80,0,0
2706,-108.813928182807,4,1,0,80,0,0
2802,-111.856823266219,4,1,0,80,0,0
2898,-115.074798619102,4,1,0,80,0,0
2994,-118.343195266272,4,1,0,80,0,0
3234,384.615384615385,4,1,0,80,1,0
3234,-125,4,1,0,80,0,0
9291,-100,4,1,0,100,0,0
15493,-100,4,1,0,80,0,0
15685,-83.3333333333333,4,1,0,80,0,0
15974,-89.2857142857143,4,1,0,80,0,0
16214,-96.1538461538461,4,1,0,80,0,0
16551,-104.166666666667,4,1,0,80,0,0
16839,-111.111111111111,4,1,0,80,0,0
17032,-100,4,1,0,100,0,0
17081,384.615384615385,4,1,0,100,1,0
28571,-100,4,1,0,80,0,0
29340,-100,4,1,0,100,0,0
55638,-100,4,1,0,80,0,0
57032,-100,4,1,0,100,0,0
57081,384.615384615385,4,1,0,100,1,1
83234,384.615384615385,4,1,0,100,1,0
95493,-100,4,1,0,80,0,0
97032,-100,4,1,0,100,0,0
97081,384.615384615385,4,1,0,100,1,0
123331,-100,4,1,0,80,0,0
124724,-100,4,1,0,100,0,0
124773,384.615384615385,4,1,0,100,1,1
150927,384.615384615385,4,1,0,100,1,0
177032,-100,4,1,0,80,0,0
177802,-100,4,1,0,80,0,0
177898,-102.880658436214,4,1,0,80,0,0
177994,-105.820105820106,4,1,0,80,0,0
178091,-108.813928182807,4,1,0,80,0,0
178187,-111.856823266219,4,1,0,80,0,0
178283,-115.074798619102,4,1,0,80,0,0
178379,-118.343195266272,4,1,0,80,0,0
178619,384.615384615385,4,1,0,80,1,0
178619,-125,4,1,0,80,0,0
191647,-125,4,1,0,90,0,0
192417,-90.9090909090909,4,1,0,100,0,0
195542,384.615384615385,4,1,0,100,1,1
221696,384.615384615385,4,1,0,100,1,0

[HitObjects]
256,192,2465,5,8,0:0:0:0:
256,192,2561,1,8,0:0:0:0:
256,192,2658,1,8,0:0:0:0:
256,192,2754,1,8,0:0:0:0:
256,192,2850,1,0,0:0:0:0:
256,192,2946,1,0,0:0:0:0:
256,192,3042,1,0,0:0:0:0:
256,192,3234,1,4,0:0:0:0:
256,192,4772,1,8,0:0:0:0:
256,192,6310,1,8,0:0:0:0:
256,192,7849,1,8,0:0:0:0:
256,192,9387,1,12,0:0:0:0:
256,192,9580,1,0,0:0:0:0:
256,192,9772,1,8,0:0:0:0:
256,192,9964,1,0,0:0:0:0:
256,192,10060,1,0,0:0:0:0:
256,192,10157,1,8,0:0:0:0:
256,192,10349,1,8,0:0:0:0:
256,192,10541,1,0,0:0:0:0:
256,192,10637,1,0,0:0:0:0:
256,192,10734,1,8,0:0:0:0:
256,192,10830,1,0,0:0:0:0:
256,192,10926,1,8,0:0:0:0:
256,192,11118,1,0,0:0:0:0:
256,192,11310,1,8,0:0:0:0:
256,192,11503,1,8,0:0:0:0:
256,192,11599,1,8,0:0:0:0:
256,192,11695,1,0,0:0:0:0:
256,192,11887,1,8,0:0:0:0:
256,192,12080,1,0,0:0:0:0:
256,192,12176,1,0,0:0:0:0:
256,192,12272,1,8,0:0:0:0:
256,192,12368,1,0,0:0:0:0:
256,192,12464,1,8,0:0:0:0:
256,192,12657,1,0,0:0:0:0:
256,192,12849,1,8,0:0:0:0:
256,192,13041,1,0,0:0:0:0:
256,192,13137,1,0,0:0:0:0:
256,192,13234,1,8,0:0:0:0:
256,192,13426,1,8,0:0:0:0:
256,192,13618,1,0,0:0:0:0:
256,192,13714,1,0,0:0:0:0:
256,192,13810,1,8,0:0:0:0:
256,192,14003,1,0,0:0:0:0:
256,192,14099,1,0,0:0:0:0:
256,192,14195,1,8,0:0:0:0:
256,192,14291,1,8,0:0:0:0:
256,192,14387,1,0,0:0:0:0:
256,192,14484,1,8,0:0:0:0:
256,192,14580,1,8,0:0:0:0:
256,192,14676,1,8,0:0:0:0:
256,192,14772,1,0,0:0:0:0:
256,192,14868,1,0,0:0:0:0:
256,192,14964,1,8,0:0:0:0:
256,192,15060,1,8,0:0:0:0:
256,192,15157,1,0,0:0:0:0:
256,192,15253,1,8,0:0:0:0:
256,192,15349,1,8,0:0:0:0:
256,192,15445,1,8,0:0:0:0:
256,192,15541,1,0,0:0:0:0:
256,192,15734,1,8,0:0:0:0:
256,192,16022,1,8,0:0:0:0:
256,192,16310,1,8,0:0:0:0:
256,192,16599,1,8,0:0:0:0:
256,192,16887,1,8,0:0:0:0:
256,192,17081,1,4,0:0:0:0:
256,192,17273,1,8,0:0:0:0:
256,192,17465,1,0,0:0:0:0:
256,192,17561,1,0,0:0:0:0:
256,192,17657,1,0,0:0:0:0:
256,192,17754,1,8,0:0:0:0:
256,192,17946,1,0,0:0:0:0:
256,192,18042,1,8,0:0:0:0:
256,192,18234,1,0,0:0:0:0:
256,192,18331,1,0,0:0:0:0:
256,192,18427,1,8,0:0:0:0:
256,192,18619,1,0,0:0:0:0:
256,192,18811,1,8,0:0:0:0:
256,192,19004,1,0,0:0:0:0:
256,192,19196,1,8,0:0:0:0:
256,192,19292,1,8,0:0:0:0:
256,192,19388,1,0,0:0:0:0:
256,192,19484,1,8,0:0:0:0:
256,192,19581,1,8,0:0:0:0:
256,192,19773,1,0,0:0:0:0:
256,192,19869,1,0,0:0:0:0:
256,192,19965,1,8,0:0:0:0:
256,192,20157,1,0,0:0:0:0:
256,192,20350,1,8,0:0:0:0:
256,192,20542,1,0,0:0:0:0:
256,192,20638,1,0,0:0:0:0:
256,192,20734,1,0,0:0:0:0:
256,192,20831,1,8,0:0:0:0:
256,192,21023,1,0,0:0:0:0:
256,192,21119,1,8,0:0:0:0:
256,192,21311,1,0,0:0:0:0:
256,192,21407,1,0,0:0:0:0:
256,192,21504,1,8,0:0:0:0:
256,192,21696,1,0,0:0:0:0:
256,192,21888,1,8,0:0:0:0:
256,192,22081,1,0,0:0:0:0:
256,192,22273,1,8,0:0:0:0:
256,192,22369,1,8,0:0:0:0:
256,192,22465,1,0,0:0:0:0:
256,192,22561,1,8,0:0:0:0:
256,192,22657,1,8,0:0:0:0:
256,192,22754,1,8,0:0:0:0:
256,192,22850,1,0,0:0:0:0:
256,192,23042,1,8,0:0:0:0:
256,192,23234,1,8,0:0:0:0:
256,192,23331,1,0,0:0:0:0:
256,192,23427,1,0,0:0:0:0:
256,192,23523,1,8,0:0:0:0:
256,192,23619,1,0,0:0:0:0:
256,192,23715,1,0,0:0:0:0:
256,192,23811,1,8,0:0:0:0:
256,192,23907,1,0,0:0:0:0:
256,192,24004,1,8,0:0:0:0:
256,192,24100,1,0,0:0:0:0:
256,192,24196,1,0,0:0:0:0:
256,192,24292,1,8,0:0:0:0:
256,192,24388,1,8,0:0:0:0:
256,192,24484,1,0,0:0:0:0:
256,192,24581,1,8,0:0:0:0:
256,192,24677,1,0,0:0:0:0:
256,192,24773,1,0,0:0:0:0:
256,192,24869,1,8,0:0:0:0:
256,192,24965,1,8,0:0:0:0:
256,192,25061,1,0,0:0:0:0:
256,192,25157,1,8,0:0:0:0:
256,192,25254,1,8,0:0:0:0:
256,192,25350,1,0,0:0:0:0:
256,192,25446,1,8,0:0:0:0:
256,192,25542,1,8,0:0:0:0:
256,192,25638,1,8,0:0:0:0:
256,192,25734,1,0,0:0:0:0:
256,192,25927,1,8,0:0:0:0:
256,192,26119,1,8,0:0:0:0:
256,192,26311,1,8,0:0:0:0:
256,192,26504,1,0,0:0:0:0:
256,192,26696,1,8,0:0:0:0:
256,192,26888,1,0,0:0:0:0:
256,192,26984,1,8,0:0:0:0:
256,192,27177,1,8,0:0:0:0:
256,192,27273,1,0,0:0:0:0:
256,192,27369,1,8,0:0:0:0:
256,192,27465,1,8,0:0:0:0:
256,192,27657,1,8,0:0:0:0:
256,192,27754,1,0,0:0:0:0:
256,192,27850,1,8,0:0:0:0:
256,192,28042,1,0,0:0:0:0:
256,192,28138,1,0,0:0:0:0:
256,192,28234,1,8,0:0:0:0:
256,192,28427,1,8,0:0:0:0:
256,192,28523,1,8,0:0:0:0:
256,192,28619,1,0,0:0:0:0:
256,192,28715,1,0,0:0:0:0:
256,192,28811,1,8,0:0:0:0:
256,192,28907,1,0,0:0:0:0:
256,192,29004,1,8,0:0:0:0:
256,192,29100,1,8,0:0:0:0:
256,192,29196,1,0,0:0:0:0:
256,192,29292,1,8,0:0:0:0:
256,192,29388,1,0,0:0:0:0:
256,192,29581,1,8,0:0:0:0:
256,192,29773,1,0,0:0:0:0:
256,192,29965,1,8,0:0:0:0:
256,192,30157,1,0,0:0:0:0:
256,192,30254,1,8,0:0:0:0:
256,192,30446,1,8,0:0:0:0:
256,192,30542,1,0,0:0:0:0:
256,192,30734,1,8,0:0:0:0:
256,192,30927,1,0,0:0:0:0:
256,192,31119,1,8,0:0:0:0:
256,192,31311,1,0,0:0:0:0:
256,192,31504,1,8,0:0:0:0:
256,192,31696,1,0,0:0:0:0:
256,192,31792,1,8,0:0:0:0:
256,192,31984,1,8,0:0:0:0:
256,192,32081,1,0,0:0:0:0:
256,192,32273,1,8,0:0:0:0:
256,192,32465,1,0,0:0:0:0:
256,192,32657,1,8,0:0:0:0:
256,192,32754,1,8,0:0:0:0:
256,192,32850,1,0,0:0:0:0:
256,192,33042,1,8,0:0:0:0:
256,192,33234,1,0,0:0:0:0:
256,192,33331,1,8,0:0:0:0:
256,192,33427,1,8,0:0:0:0:
256,192,33523,1,8,0:0:0:0:
256,192,33619,1,0,0:0:0:0:
256,192,33811,1,8,0:0:0:0:
256,192,34004,1,0,0:0:0:0:
256,192,34196,1,8,0:0:0:0:
256,192,34292,1,8,0:0:0:0:
256,192,34388,1,0,0:0:0:0:
256,192,34581,1,8,0:0:0:0:
256,192,34773,1,0,0:0:0:0:
256,192,34869,1,8,0:0:0:0:
256,192,34965,1,8,0:0:0:0:
256,192,35061,1,8,0:0:0:0:
256,192,35157,1,0,0:0:0:0:
256,192,35350,1,8,0:0:0:0:
256,192,35542,1,0,0:0:0:0:
256,192,35734,1,8,0:0:0:0:
256,192,35927,1,0,0:0:0:0:
256,192,36119,1,8,0:0:0:0:
256,192,36311,1,0,0:0:0:0:
256,192,36407,1,8,0:0:0:0:
256,192,36600,1,8,0:0:0:0:
256,192,36696,1,0,0:0:0:0:
256,192,36888,1,8,0:0:0:0:
256,192,37081,1,0,0:0:0:0:
256,192,37273,1,8,0:0:0:0:
256,192,37465,1,0,0:0:0:0:
256,192,37657,1,8,0:0:0:0:
256,192,37850,1,0,0:0:0:0:
256,192,37946,1,8,0:0:0:0:
256,192,38138,1,8,0:0:0:0:
256,192,38234,1,0,0:0:0:0:
256,192,38427,1,8,0:0:0:0:
256,192,38619,1,0,0:0:0:0:
256,192,39004,1,8,0:0:0:0:
256,192,39196,1,0,0:0:0:0:
256,192,39581,1,8,0:0:0:0:
256,192,39773,1,4,0:0:0:0:
256,192,39965,1,8,0:0:0:0:
256,192,40157,1,0,0:0:0:0:
256,192,40350,1,0,0:0:0:0:
256,192,40542,1,8,0:0:0:0:
256,192,40638,1,8,0:0:0:0:
256,192,40734,1,0,0:0:0:0:
256,192,40831,1,0,0:0:0:0:
256,192,40927,1,8,0:0:0:0:
256,192,41023,1,0,0:0:0:0:
256,192,41119,1,0,0:0:0:0:
256,192,41215,1,0,0:0:0:0:
256,192,41311,1,8,0:0:0:0:
256,192,41407,1,8,0:0:0:0:
256,192,41504,1,0,0:0:0:0:
256,192,41696,1,12,0:0:0:0:
256,192,41888,1,0,0:0:0:0:
256,192,42081,1,8,0:0:0:0:
256,192,42273,1,0,0:0:0:0:
256,192,42465,1,8,0:0:0:0:
256,192,42561,1,0,0:0:0:0:
256,192,42754,1,0,0:0:0:0:
256,192,42850,1,8,0:0:0:0:
256,192,43042,1,0,0:0:0:0:
256,192,43234,1,8,0:0:0:0:
256,192,43427,1,0,0:0:0:0:
256,192,43619,1,8,0:0:0:0:
256,192,43811,1,0,0:0:0:0:
256,192,44004,1,8,0:0:0:0:
256,192,44100,1,0,0:0:0:0:
256,192,44292,1,0,0:0:0:0:
256,192,44388,1,8,0:0:0:0:
256,192,44581,1,0,0:0:0:0:
256,192,44677,1,0,0:0:0:0:
256,192,44773,1,8,0:0:0:0:
256,192,44965,1,0,0:0:0:0:
256,192,45157,1,8,0:0:0:0:
256,192,45350,1,0,0:0:0:0:
256,192,45542,1,8,0:0:0:0:
256,192,45638,1,0,0:0:0:0:
256,192,45831,1,0,0:0:0:0:
256,192,45927,1,8,0:0:0:0:
256,192,46119,1,8,0:0:0:0:
256,192,46311,1,0,0:0:0:0:
256,192,46504,1,8,0:0:0:0:
256,192,46696,1,0,0:0:0:0:
256,192,46888,1,8,0:0:0:0:
256,192,47081,1,0,0:0:0:0:
256,192,47177,1,8,0:0:0:0:
256,192,47369,1,8,0:0:0:0:
256,192,47465,1,0,0:0:0:0:
256,192,47657,1,8,0:0:0:0:
256,192,47754,1,0,0:0:0:0:
256,192,47850,1,8,0:0:0:0:
256,192,48042,1,8,0:0:0:0:
256,192,48234,1,0,0:0:0:0:
256,192,48427,1,8,0:0:0:0:
256,192,48619,1,8,0:0:0:0:
256,192,48715,1,0,0:0:0:0:
256,192,48907,1,0,0:0:0:0:
256,192,49004,1,8,0:0:0:0:
256,192,49196,1,0,0:0:0:0:
256,192,49388,1,8,0:0:0:0:
256,192,49581,1,8,0:0:0:0:
256,192,49773,1,0,0:0:0:0:
256,192,49965,1,8,0:0:0:0:
256,192,50157,1,8,0:0:0:0:
256,192,50254,1,0,0:0:0:0:
256,192,50446,1,0,0:0:0:0:
256,192,50542,1,8,0:0:0:0:
256,192,50734,1,8,0:0:0:0:
256,192,50927,1,0,0:0:0:0:
256,192,51119,1,8,0:0:0:0:
256,192,51215,1,8,0:0:0:0:
256,192,51311,1,0,0:0:0:0:
256,192,51504,1,8,0:0:0:0:
256,192,51696,1,0,0:0:0:0:
256,192,51792,1,8,0:0:0:0:
256,192,51984,1,8,0:0:0:0:
256,192,52081,1,0,0:0:0:0:
256,192,52273,1,8,0:0:0:0:
256,192,52465,1,0,0:0:0:0:
256,192,52657,1,8,0:0:0:0:
256,192,52754,1,8,0:0:0:0:
256,192,52850,1,0,0:0:0:0:
256,192,53042,1,8,0:0:0:0:
256,192,53138,1,8,0:0:0:0:
256,192,53234,1,0,0:0:0:0:
256,192,53331,1,8,0:0:0:0:
256,192,53523,1,8,0:0:0:0:
256,192,53619,1,0,0:0:0:0:
256,192,53811,1,8,0:0:0:0:
256,192,54004,1,0,0:0:0:0:
256,192,54100,1,0,0:0:0:0:
256,192,54196,1,8,0:0:0:0:
256,192,54292,1,0,0:0:0:0:
256,192,54388,1,8,0:0:0:0:
256,192,54484,1,8,0:0:0:0:
256,192,54581,1,0,0:0:0:0:
256,192,54677,1,0,0:0:0:0:
256,192,54773,1,8,0:0:0:0:
256,192,54869,1,8,0:0:0:0:
256,192,54965,1,0,0:0:0:0:
256,192,55061,1,0,0:0:0:0:
256,192,55157,1,8,0:0:0:0:
256,192,55350,1,8,0:0:0:0:
256,192,55542,1,4,0:0:0:0:
256,192,56311,1,8,0:0:0:0:
256,192,56696,1,8,0:0:0:0:
256,192,56888,1,8,0:0:0:0:
256,192,56984,1,8,0:0:0:0:
256,192,57081,1,0,0:0:0:0:
256,192,57273,1,8,0:0:0:0:
256,192,57465,1,0,0:0:0:0:
256,192,57657,1,8,0:0:0:0:
256,192,57754,1,8,0:0:0:0:
256,192,57850,1,0,0:0:0:0:
256,192,58042,1,8,0:0:0:0:
256,192,58234,1,0,0:0:0:0:
256,192,58427,1,8,0:0:0:0:
256,192,58523,1,0,0:0:0:0:
256,192,58619,1,8,0:0:0:0:
256,192,58811,1,0,0:0:0:0:
256,192,59004,1,8,0:0:0:0:
256,192,59196,1,8,0:0:0:0:
256,192,59292,1,8,0:0:0:0:
256,192,59388,1,0,0:0:0:0:
256,192,59484,1,0,0:0:0:0:
256,192,59581,1,8,0:0:0:0:
256,192,59773,1,0,0:0:0:0:
256,192,59869,1,0,0:0:0:0:
256,192,59965,1,8,0:0:0:0:
256,192,60061,1,8,0:0:0:0:
256,192,60157,1,0,0:0:0:0:
256,192,60350,1,8,0:0:0:0:
256,192,60542,1,0,0:0:0:0:
256,192,60734,1,8,0:0:0:0:
256,192,60831,1,8,0:0:0:0:
256,192,60927,1,0,0:0:0:0:
256,192,61119,1,8,0:0:0:0:
256,192,61311,1,0,0:0:0:0:
256,192,61504,1,8,0:0:0:0:
256,192,61600,1,0,0:0:0:0:
256,192,61696,1,8,0:0:0:0:
256,192,61888,1,0,0:0:0:0:
256,192,62081,1,8,0:0:0:0:
256,192,62273,1,8,0:0:0:0:
256,192,62369,1,8,0:0:0:0:
256,192,62465,1,0,0:0:0:0:
256,192,62561,1,8,0:0:0:0:
256,192,62657,1,8,0:0:0:0:
256,192,62754,1,8,0:0:0:0:
256,192,62850,1,0,0:0:0:0:
256,192,63042,1,8,0:0:0:0:
256,192,63234,1,8,0:0:0:0:
256,192,63427,1,0,0:0:0:0:
256,192,63619,1,8,0:0:0:0:
256,192,63811,1,0,0:0:0:0:
256,192,63907,1,0,0:0:0:0:
256,192,64004,1,8,0:0:0:0:
256,192,64196,1,8,0:0:0:0:
256,192,64388,1,0,0:0:0:0:
256,192,64581,1,8,0:0:0:0:
256,192,64773,1,8,0:0:0:0:
256,192,64965,1,0,0:0:0:0:
256,192,65157,1,8,0:0:0:0:
256,192,65350,1,8,0:0:0:0:
256,192,65446,1,8,0:0:0:0:
256,192,65542,1,0,0:0:0:0:
256,192,65638,1,8,0:0:0:0:
256,192,65734,1,8,0:0:0:0:
256,192,65831,1,8,0:0:0:0:
256,192,65927,1,0,0:0:0:0:
256,192,66119,1,8,0:0:0:0:
256,192,66215,1,0,0:0:0:0:
256,192,66311,1,8,0:0:0:0:
256,192,66504,1,0,0:0:0:0:
256,192,66696,1,8,0:0:0:0:
256,192,66888,1,0,0:0:0:0:
256,192,66984,1,0,0:0:0:0:
256,192,67081,1,8,0:0:0:0:
256,192,67273,1,8,0:0:0:0:
256,192,67465,1,0,0:0:0:0:
256,192,67657,1,8,0:0:0:0:
256,192,67850,1,12,0:0:0:0:
256,192,68138,1,4,0:0:0:0:
256,192,68427,1,8,0:0:0:0:
256,192,68523,1,8,0:0:0:0:
256,192,68619,1,0,0:0:0:0:
256,192,68715,1,0,0:0:0:0:
256,192,68811,1,0,0:0:0:0:
256,192,68907,1,0,0:0:0:0:
256,192,69004,1,8,0:0:0:0:
256,192,69100,1,0,0:0:0:0:
256,192,69196,1,8,0:0:0:0:
256,192,69292,1,8,0:0:0:0:
256,192,69388,1,0,0:0:0:0:
256,192,69581,1,8,0:0:0:0:
256,192,69773,1,0,0:0:0:0:
256,192,69965,1,8,0:0:0:0:
256,192,70061,1,8,0:0:0:0:
256,192,70157,1,0,0:0:0:0:
256,192,70350,1,8,0:0:0:0:
256,192,70542,1,0,0:0:0:0:
256,192,70734,1,8,0:0:0:0:
256,192,70831,1,0,0:0:0:0:
256,192,70927,1,8,0:0:0:0:
256,192,71119,1,0,0:0:0:0:
256,192,71311,1,8,0:0:0:0:
256,192,71504,1,8,0:0:0:0:
256,192,71600,1,8,0:0:0:0:
256,192,71696,1,0,0:0:0:0:
256,192,71792,1,0,0:0:0:0:
256,192,71888,1,8,0:0:0:0:
256,192,72081,1,0,0:0:0:0:
256,192,72177,1,0,0:0:0:0:
256,192,72273,1,8,0:0:0:0:
256,192,72369,1,8,0:0:0:0:
256,192,72465,1,0,0:0:0:0:
256,192,72657,1,8,0:0:0:0:
256,192,72850,1,0,0:0:0:0:
256,192,73042,1,8,0:0:0:0:
256,192,73138,1,8,0:0:0:0:
256,192,73234,1,0,0:0:0:0:
256,192,73427,1,8,0:0:0:0:
256,192,73619,1,0,0:0:0:0:
256,192,73811,1,8,0:0:0:0:
256,192,73907,1,0,0:0:0:0:
256,192,74004,1,8,0:0:0:0:
256,192,74196,1,0,0:0:0:0:
256,192,74388,1,8,0:0:0:0:
256,192,74581,1,8,0:0:0:0:
256,192,74677,1,8,0:0:0:0:
256,192,74773,1,0,0:0:0:0:
256,192,74869,1,8,0:0:0:0:
256,192,74965,1,8,0:0:0:0:
256,192,75061,1,8,0:0:0:0:
256,192,75157,1,0,0:0:0:0:
256,192,75350,1,8,0:0:0:0:
256,192,75542,1,8,0:0:0:0:
256,192,75734,1,0,0:0:0:0:
256,192,75927,1,8,0:0:0:0:
256,192,76119,1,0,0:0:0:0:
256,192,76215,1,0,0:0:0:0:
256,192,76311,1,8,0:0:0:0:
256,192,76504,1,8,0:0:0:0:
256,192,76696,1,0,0:0:0:0:
256,192,76792,1,0,0:0:0:0:
256,192,76888,1,8,0:0:0:0:
256,192,76984,1,0,0:0:0:0:
256,192,77081,1,8,0:0:0:0:
256,192,77273,1,0,0:0:0:0:
256,192,77465,1,8,0:0:0:0:
256,192,77657,1,8,0:0:0:0:
256,192,77754,1,8,0:0:0:0:
256,192,77850,1,0,0:0:0:0:
256,192,77946,1,8,0:0:0:0:
256,192,78042,1,8,0:0:0:0:
256,192,78138,1,8,0:0:0:0:
256,192,78234,1,0,0:0:0:0:
256,192,78427,1,8,0:0:0:0:
256,192,78523,1,0,0:0:0:0:
256,192,78619,1,8,0:0:0:0:
256,192,78811,1,0,0:0:0:0:
256,192,79004,1,8,0:0:0:0:
256,192,79196,1,0,0:0:0:0:
256,192,79292,1,0,0:0:0:0:
256,192,79388,1,8,0:0:0:0:
256,192,79581,1,8,0:0:0:0:
256,192,79773,1,0,0:0:0:0:
256,192,79869,1,0,0:0:0:0:
256,192,79965,1,8,0:0:0:0:
256,192,80061,1,8,0:0:0:0:
256,192,80157,1,0,0:0:0:0:
256,192,80350,1,8,0:0:0:0:
256,192,80446,1,8,0:0:0:0:
256,192,80542,1,0,0:0:0:0:
256,192,80734,1,8,0:0:0:0:
256,192,80831,1,8,0:0:0:0:
256,192,80927,1,0,0:0:0:0:
256,192,81023,1,0,0:0:0:0:
256,192,81119,1,8,0:0:0:0:
256,192,81215,1,8,0:0:0:0:
256,192,81311,1,0,0:0:0:0:
256,192,81504,1,8,0:0:0:0:
256,192,81600,1,8,0:0:0:0:
256,192,81696,1,0,0:0:0:0:
256,192,81792,1,0,0:0:0:0:
256,192,81888,1,8,0:0:0:0:
256,192,81984,1,0,0:0:0:0:
256,192,82081,1,0,0:0:0:0:
256,192,82177,1,8,0:0:0:0:
256,192,82273,1,0,0:0:0:0:
256,192,82369,1,0,0:0:0:0:
256,192,82465,1,8,0:0:0:0:
256,192,82561,1,8,0:0:0:0:
256,192,82657,1,0,0:0:0:0:
256,192,82754,1,8,0:0:0:0:
256,192,82850,1,8,0:0:0:0:
256,192,82946,1,0,0:0:0:0:
256,192,83042,1,8,0:0:0:0:
256,192,83138,1,8,0:0:0:0:
256,192,83234,1,0,0:0:0:0:
256,192,83426,1,8,0:0:0:0:
256,192,83618,1,0,0:0:0:0:
256,192,83714,1,0,0:0:0:0:
256,192,83810,1,0,0:0:0:0:
256,192,83907,1,8,0:0:0:0:
256,192,84099,1,0,0:0:0:0:
256,192,84195,1,8,0:0:0:0:
256,192,84387,1,0,0:0:0:0:
256,192,84484,1,0,0:0:0:0:
256,192,84580,1,8,0:0:0:0:
256,192,84772,1,0,0:0:0:0:
256,192,84964,1,8,0:0:0:0:
256,192,85157,1,0,0:0:0:0:
256,192,85349,1,8,0:0:0:0:
256,192,85445,1,8,0:0:0:0:
256,192,85541,1,0,0:0:0:0:
256,192,85637,1,0,0:0:0:0:
256,192,85734,1,8,0:0:0:0:
256,192,85926,1,0,0:0:0:0:
256,192,86118,1,8,0:0:0:0:
256,192,86214,1,8,0:0:0:0:
256,192,86310,1,0,0:0:0:0:
256,192,86503,1,8,0:0:0:0:
256,192,86695,1,0,0:0:0:0:
256,192,86791,1,0,0:0:0:0:
256,192,86887,1,0,0:0:0:0:
256,192,86984,1,8,0:0:0:0:
256,192,87176,1,0,0:0:0:0:
256,192,87272,1,8,0:0:0:0:
256,192,87464,1,0,0:0:0:0:
256,192,87560,1,0,0:0:0:0:
256,192,87657,1,8,0:0:0:0:
256,192,87849,1,0,0:0:0:0:
256,192,88041,1,8,0:0:0:0:
256,192,88234,1,0,0:0:0:0:
256,192,88426,1,8,0:0:0:0:
256,192,88522,1,8,0:0:0:0:
256,192,88618,1,0,0:0:0:0:
256,192,88714,1,8,0:0:0:0:
256,192,88810,1,8,0:0:0:0:
256,192,88907,1,8,0:0:0:0:
256,192,89003,1,0,0:0:0:0:
256,192,89195,1,8,0:0:0:0:
256,192,89387,1,8,0:0:0:0:
256,192,89484,1,0,0:0:0:0:
256,192,89580,1,0,0:0:0:0:
256,192,89676,1,8,0:0:0:0:
256,192,89772,1,0,0:0:0:0:
256,192,89868,1,0,0:0:0:0:
256,192,89964,1,8,0:0:0:0:
256,192,90060,1,0,0:0:0:0:
256,192,90157,1,8,0:0:0:0:
256,192,90253,1,0,0:0:0:0:
256,192,90349,1,0,0:0:0:0:
256,192,90445,1,8,0:0:0:0:
256,192,90541,1,8,0:0:0:0:
256,192,90637,1,0,0:0:0:0:
256,192,90734,1,8,0:0:0:0:
256,192,90830,1,0,0:0:0:0:
256,192,90926,1,0,0:0:0:0:
256,192,91022,1,8,0:0:0:0:
256,192,91118,1,8,0:0:0:0:
256,192,91214,1,0,0:0:0:0:
256,192,91310,1,8,0:0:0:0:
256,192,91407,1,8,0:0:0:0:
256,192,91503,1,0,0:0:0:0:
256,192,91599,1,8,0:0:0:0:
256,192,91695,1,8,0:0:0:0:
256,192,91791,1,8,0:0:0:0:
256,192,91887,1,0,0:0:0:0:
256,192,91984,1,0,0:0:0:0:
256,192,92080,1,8,0:0:0:0:
256,192,92176,1,0,0:0:0:0:
256,192,92272,1,8,0:0:0:0:
256,192,92464,1,8,0:0:0:0:
256,192,92657,1,0,0:0:0:0:
256,192,92849,1,8,0:0:0:0:
256,192,93041,1,0,0:0:0:0:
256,192,93137,1,8,0:0:0:0:
256,192,93330,1,8,0:0:0:0:
256,192,93426,1,0,0:0:0:0:
256,192,93522,1,8,0:0:0:0:
256,192,93618,1,8,0:0:0:0:
256,192,93810,1,0,0:0:0:0:
256,192,94003,1,8,0:0:0:0:
256,192,94195,1,0,0:0:0:0:
256,192,94291,1,0,0:0:0:0:
256,192,94387,1,8,0:0:0:0:
256,192,94580,1,0,0:0:0:0:
256,192,94676,1,0,0:0:0:0:
256,192,94772,1,8,0:0:0:0:
256,192,94868,1,8,0:0:0:0:
256,192,94964,1,0,0:0:0:0:
256,192,95060,1,0,0:0:0:0:
256,192,95157,1,8,0:0:0:0:
256,192,95253,1,0,0:0:0:0:
256,192,95349,1,8,0:0:0:0:
256,192,95445,1,8,0:0:0:0:
256,192,96310,1,8,0:0:0:0:
256,192,96407,1,0,0:0:0:0:
256,192,96503,1,8,0:0:0:0:
256,192,96695,1,8,0:0:0:0:
256,192,96887,1,8,0:0:0:0:
256,192,97080,1,4,0:0:0:0:
256,192,97273,1,8,0:0:0:0:
256,192,97465,1,0,0:0:0:0:
256,192,97657,1,8,0:0:0:0:
256,192,97850,1,0,0:0:0:0:
256,192,97946,1,8,0:0:0:0:
256,192,98138,1,8,0:0:0:0:
256,192,98234,1,0,0:0:0:0:
256,192,98427,1,8,0:0:0:0:
256,192,98619,1,0,0:0:0:0:
256,192,98811,1,8,0:0:0:0:
256,192,99004,1,0,0:0:0:0:
256,192,99196,1,8,0:0:0:0:
256,192,99388,1,0,0:0:0:0:
256,192,99484,1,8,0:0:0:0:
256,192,99677,1,8,0:0:0:0:
256,192,99773,1,0,0:0:0:0:
256,192,99965,1,8,0:0:0:0:
256,192,100157,1,0,0:0:0:0:
256,192,100350,1,8,0:0:0:0:
256,192,100446,1,8,0:0:0:0:
256,192,100542,1,0,0:0:0:0:
256,192,100734,1,8,0:0:0:0:
256,192,100927,1,0,0:0:0:0:
256,192,101023,1,8,0:0:0:0:
256,192,101119,1,8,0:0:0:0:
256,192,101215,1,8,0:0:0:0:
256,192,101311,1,0,0:0:0:0:
256,192,101504,1,8,0:0:0:0:
256,192,101696,1,0,0:0:0:0:
256,192,101888,1,8,0:0:0:0:
256,192,101984,1,8,0:0:0:0:
256,192,102081,1,0,0:0:0:0:
256,192,102273,1,8,0:0:0:0:
256,192,102465,1,0,0:0:0:0:
256,192,102657,1,8,0:0:0:0:
256,192,102754,1,8,0:0:0:0:
256,192,102850,1,0,0:0:0:0:
256,192,103042,1,8,0:0:0:0:
256,192,103138,1,8,0:0:0:0:
256,192,103234,1,0,0:0:0:0:
256,192,103427,1,8,0:0:0:0:
256,192,103619,1,0,0:0:0:0:
256,192,103811,1,8,0:0:0:0:
256,192,104004,1,0,0:0:0:0:
256,192,104100,1,8,0:0:0:0:
256,192,104292,1,8,0:0:0:0:
256,192,104388,1,0,0:0:0:0:
256,192,104581,1,8,0:0:0:0:
256,192,104773,1,0,0:0:0:0:
256,192,104965,1,8,0:0:0:0:
256,192,105157,1,0,0:0:0:0:
256,192,105350,1,8,0:0:0:0:
256,192,105542,1,0,0:0:0:0:
256,192,105638,1,8,0:0:0:0:
256,192,105831,1,8,0:0:0:0:
256,192,105927,1,0,0:0:0:0:
256,192,106119,1,8,0:0:0:0:
256,192,106311,1,0,0:0:0:0:
256,192,106696,1,8,0:0:0:0:
256,192,106888,1,0,0:0:0:0:
256,192,107273,1,8,0:0:0:0:
256,192,107465,1,4,0:0:0:0:
256,192,107657,1,8,0:0:0:0:
256,192,107850,1,0,0:0:0:0:
256,192,108042,1,8,0:0:0:0:
256,192,108234,1,0,0:0:0:0:
256,192,108331,1,0,0:0:0:0:
256,192,108427,1,8,0:0:0:0:
256,192,108523,1,0,0:0:0:0:
256,192,108619,1,8,0:0:0:0:
256,192,108715,1,8,0:0:0:0:
256,192,108811,1,0,0:0:0:0:
256,192,108907,1,0,0:0:0:0:
256,192,109004,1,8,0:0:0:0:
256,192,109100,1,8,0:0:0:0:
256,192,109196,1,0,0:0:0:0:
256,192,109388,1,12,0:0:0:0:
256,192,109581,1,0,0:0:0:0:
256,192,109773,1,8,0:0:0:0:
256,192,109965,1,0,0:0:0:0:
256,192,110157,1,8,0:0:0:0:
256,192,110254,1,0,0:0:0:0:
256,192,110446,1,0,0:0:0:0:
256,192,110542,1,8,0:0:0:0:
256,192,110734,1,0,0:0:0:0:
256,192,110927,1,8,0:0:0:0:
256,192,111119,1,0,0:0:0:0:
256,192,111311,1,8,0:0:0:0:
256,192,111504,1,0,0:0:0:0:
256,192,111696,1,8,0:0:0:0:
256,192,111792,1,0,0:0:0:0:
256,192,111984,1,0,0:0:0:0:
256,192,112081,1,8,0:0:0:0:
256,192,112273,1,0,0:0:0:0:
256,192,112369,1,0,0:0:0:0:
256,192,112465,1,8,0:0:0:0:
256,192,112657,1,0,0:0:0:0:
256,192,112850,1,8,0:0:0:0:
256,192,113042,1,0,0:0:0:0:
256,192,113234,1,8,0:0:0:0:
256,192,113331,1,0,0:0:0:0:
256,192,113523,1,0,0:0:0:0:
256,192,113619,1,8,0:0:0:0:
256,192,113811,1,8,0:0:0:0:
256,192,114004,1,0,0:0:0:0:
256,192,114196,1,8,0:0:0:0:
256,192,114388,1,0,0:0:0:0:
256,192,114581,1,8,0:0:0:0:
256,192,114773,1,0,0:0:0:0:
256,192,114869,1,8,0:0:0:0:
256,192,115061,1,8,0:0:0:0:
256,192,115157,1,0,0:0:0:0:
256,192,115350,1,8,0:0:0:0:
256,192,115446,1,0,0:0:0:0:
256,192,115542,1,8,0:0:0:0:
256,192,115734,1,8,0:0:0:0:
256,192,115927,1,0,0:0:0:0:
256,192,116119,1,8,0:0:0:0:
256,192,116311,1,8,0:0:0:0:
256,192,116407,1,0,0:0:0:0:
256,192,116600,1,0,0:0:0:0:
256,192,116696,1,8,0:0:0:0:
256,192,116888,1,0,0:0:0:0:
256,192,116984,1,0,0:0:0:0:
256,192,117081,1,8,0:0:0:0:
256,192,117273,1,8,0:0:0:0:
256,192,117465,1,0,0:0:0:0:
256,192,117657,1,8,0:0:0:0:
256,192,117850,1,8,0:0:0:0:
256,192,117946,1,0,0:0:0:0:
256,192,118138,1,0,0:0:0:0:
256,192,118234,1,8,0:0:0:0:
256,192,118427,1,8,0:0:0:0:
256,192,118523,1,8,0:0:0:0:
256,192,118619,1,0,0:0:0:0:
256,192,118811,1,8,0:0:0:0:
256,192,118907,1,8,0:0:0:0:
256,192,119004,1,0,0:0:0:0:
256,192,119100,1,0,0:0:0:0:
256,192,119196,1,8,0:0:0:0:
256,192,119388,1,0,0:0:0:0:
256,192,119484,1,8,0:0:0:0:
256,192,119677,1,8,0:0:0:0:
256,192,119773,1,0,0:0:0:0:
256,192,119965,1,8,0:0:0:0:
256,192,120157,1,0,0:0:0:0:
256,192,120350,1,8,0:0:0:0:
256,192,120446,1,8,0:0:0:0:
256,192,120542,1,0,0:0:0:0:
256,192,120638,1,0,0:0:0:0:
256,192,120734,1,8,0:0:0:0:
256,192,120927,1,0,0:0:0:0:
256,192,121023,1,8,0:0:0:0:
256,192,121215,1,8,0:0:0:0:
256,192,121311,1,0,0:0:0:0:
256,192,121504,1,8,0:0:0:0:
256,192,121600,1,8,0:0:0:0:
256,192,121696,1,0,0:0:0:0:
256,192,121792,1,0,0:0:0:0:
256,192,121888,1,8,0:0:0:0:
256,192,121984,1,0,0:0:0:0:
256,192,122081,1,8,0:0:0:0:
256,192,122177,1,8,0:0:0:0:
256,192,122273,1,0,0:0:0:0:
256,192,122369,1,0,0:0:0:0:
256,192,122465,1,8,0:0:0:0:
256,192,122561,1,8,0:0:0:0:
256,192,122657,1,0,0:0:0:0:
256,192,122754,1,0,0:0:0:0:
256,192,122850,1,8,0:0:0:0:
256,192,123042,1,8,0:0:0:0:
256,192,123234,1,4,0:0:0:0:
256,192,123619,1,8,0:0:0:0:
256,192,123811,1,8,0:0:0:0:
256,192,123907,1,8,0:0:0:0:
256,192,124004,1,0,0:0:0:0:
256,192,124196,1,0,0:0:0:0:
256,192,124292,1,0,0:0:0:0:
256,192,124388,1,8,0:0:0:0:
256,192,124484,1,0,0:0:0:0:
256,192,124581,1,8,0:0:0:0:
256,192,124677,1,8,0:0:0:0:
256,192,124773,1,0,0:0:0:0:
256,192,124965,1,8,0:0:0:0:
256,192,125157,1,0,0:0:0:0:
256,192,125349,1,8,0:0:0:0:
256,192,125446,1,8,0:0:0:0:
256,192,125542,1,0,0:0:0:0:
256,192,125734,1,8,0:0:0:0:
256,192,125926,1,0,0:0:0:0:
256,192,126023,1,0,0:0:0:0:
256,192,126119,1,8,0:0:0:0:
256,192,126215,1,0,0:0:0:0:
256,192,126311,1,8,0:0:0:0:
256,192,126503,1,0,0:0:0:0:
256,192,126696,1,8,0:0:0:0:
256,192,126888,1,8,0:0:0:0:
256,192,126984,1,8,0:0:0:0:
256,192,127080,1,0,0:0:0:0:
256,192,127273,1,8,0:0:0:0:
256,192,127465,1,0,0:0:0:0:
256,192,127561,1,0,0:0:0:0:
256,192,127657,1,8,0:0:0:0:
256,192,127753,1,8,0:0:0:0:
256,192,127849,1,0,0:0:0:0:
256,192,128042,1,8,0:0:0:0:
256,192,128234,1,0,0:0:0:0:
256,192,128426,1,8,0:0:0:0:
256,192,128523,1,8,0:0:0:0:
256,192,128619,1,0,0:0:0:0:
256,192,128811,1,8,0:0:0:0:
256,192,129003,1,0,0:0:0:0:
256,192,129099,1,0,0:0:0:0:
256,192,129196,1,8,0:0:0:0:
256,192,129292,1,0,0:0:0:0:
256,192,129388,1,8,0:0:0:0:
256,192,129580,1,0,0:0:0:0:
256,192,129773,1,8,0:0:0:0:
256,192,129965,1,8,0:0:0:0:
256,192,130061,1,8,0:0:0:0:
256,192,130157,1,0,0:0:0:0:
256,192,130253,1,8,0:0:0:0:
256,192,130349,1,8,0:0:0:0:
256,192,130446,1,8,0:0:0:0:
256,192,130542,1,0,0:0:0:0:
256,192,130734,1,8,0:0:0:0:
256,192,130830,1,0,0:0:0:0:
256,192,130926,1,8,0:0:0:0:
256,192,131119,1,0,0:0:0:0:
256,192,131311,1,8,0:0:0:0:
256,192,131503,1,0,0:0:0:0:
256,192,131599,1,0,0:0:0:0:
256,192,131696,1,8,0:0:0:0:
256,192,131888,1,8,0:0:0:0:
256,192,132080,1,0,0:0:0:0:
256,192,132176,1,0,0:0:0:0:
256,192,132273,1,8,0:0:0:0:
256,192,132369,1,0,0:0:0:0:
256,192,132465,1,8,0:0:0:0:
256,192,132657,1,0,0:0:0:0:
256,192,132849,1,8,0:0:0:0:
256,192,133042,1,8,0:0:0:0:
256,192,133138,1,8,0:0:0:0:
256,192,133234,1,0,0:0:0:0:
256,192,133330,1,8,0:0:0:0:
256,192,133426,1,8,0:0:0:0:
256,192,133523,1,8,0:0:0:0:
256,192,133619,1,0,0:0:0:0:
256,192,133811,1,8,0:0:0:0:
256,192,133907,1,0,0:0:0:0:
256,192,134003,1,8,0:0:0:0:
256,192,134196,1,0,0:0:0:0:
256,192,134388,1,8,0:0:0:0:
256,192,134580,1,0,0:0:0:0:
256,192,134676,1,0,0:0:0:0:
256,192,134773,1,8,0:0:0:0:
256,192,134965,1,8,0:0:0:0:
256,192,135157,1,0,0:0:0:0:
256,192,135253,1,0,0:0:0:0:
256,192,135349,1,8,0:0:0:0:
256,192,135542,1,12,0:0:0:0:
256,192,135830,1,4,0:0:0:0:
256,192,136119,1,8,0:0:0:0:
256,192,136215,1,8,0:0:0:0:
256,192,136311,1,0,0:0:0:0:
256,192,136407,1,0,0:0:0:0:
256,192,136503,1,0,0:0:0:0:
256,192,136599,1,0,0:0:0:0:
256,192,136696,1,8,0:0:0:0:
256,192,136792,1,0,0:0:0:0:
256,192,136888,1,8,0:0:0:0:
256,192,136984,1,8,0:0:0:0:
256,192,137080,1,0,0:0:0:0:
256,192,137273,1,8,0:0:0:0:
256,192,137465,1,0,0:0:0:0:
256,192,137657,1,8,0:0:0:0:
256,192,137753,1,8,0:0:0:0:
256,192,137849,1,0,0:0:0:0:
256,192,138042,1,8,0:0:0:0:
256,192,138234,1,0,0:0:0:0:
256,192,138330,1,0,0:0:0:0:
256,192,138426,1,8,0:0:0:0:
256,192,138523,1,0,0:0:0:0:
256,192,138619,1,8,0:0:0:0:
256,192,138811,1,0,0:0:0:0:
256,192,139003,1,8,0:0:0:0:
256,192,139196,1,8,0:0:0:0:
256,192,139292,1,8,0:0:0:0:
256,192,139388,1,0,0:0:0:0:
256,192,139580,1,8,0:0:0:0:
256,192,139773,1,0,0:0:0:0:
256,192,139869,1,0,0:0:0:0:
256,192,139965,1,8,0:0:0:0:
256,192,140061,1,8,0:0:0:0:
256,192,140157,1,0,0:0:0:0:
256,192,140349,1,8,0:0:0:0:
256,192,140542,1,0,0:0:0:0:
256,192,140734,1,8,0:0:0:0:
256,192,140830,1,8,0:0:0:0:
256,192,140926,1,0,0:0:0:0:
256,192,141119,1,8,0:0:0:0:
256,192,141311,1,0,0:0:0:0:
256,192,141407,1,0,0:0:0:0:
256,192,141503,1,8,0:0:0:0:
256,192,141599,1,0,0:0:0:0:
256,192,141696,1,8,0:0:0:0:
256,192,141888,1,0,0:0:0:0:
256,192,142080,1,8,0:0:0:0:
256,192,142273,1,8,0:0:0:0:
256,192,142369,1,8,0:0:0:0:
256,192,142465,1,0,0:0:0:0:
256,192,142561,1,8,0:0:0:0:
256,192,142657,1,8,0:0:0:0:
256,192,142753,1,8,0:0:0:0:
256,192,142849,1,0,0:0:0:0:
256,192,143042,1,8,0:0:0:0:
256,192,143138,1,0,0:0:0:0:
256,192,143234,1,8,0:0:0:0:
256,192,143426,1,0,0:0:0:0:
256,192,143619,1,8,0:0:0:0:
256,192,143811,1,0,0:0:0:0:
256,192,143907,1,0,0:0:0:0:
256,192,144003,1,8,0:0:0:0:
256,192,144196,1,8,0:0:0:0:
256,192,144388,1,0,0:0:0:0:
256,192,144484,1,0,0:0:0:0:
256,192,144580,1,8,0:0:0:0:
256,192,144676,1,0,0:0:0:0:
256,192,144773,1,8,0:0:0:0:
256,192,144965,1,0,0:0:0:0:
256,192,145157,1,8,0:0:0:0:
256,192,145349,1,8,0:0:0:0:
256,192,145446,1,8,0:0:0:0:
256,192,145542,1,0,0:0:0:0:
256,192,145638,1,8,0:0:0:0:
256,192,145734,1,8,0:0:0:0:
256,192,145830,1,8,0:0:0:0:
256,192,145926,1,0,0:0:0:0:
256,192,146119,1,8,0:0:0:0:
256,192,146215,1,0,0:0:0:0:
256,192,146311,1,8,0:0:0:0:
256,192,146503,1,0,0:0:0:0:
256,192,146696,1,8,0:0:0:0:
256,192,146888,1,0,0:0:0:0:
256,192,146984,1,0,0:0:0:0:
256,192,147080,1,8,0:0:0:0:
256,192,147273,1,8,0:0:0:0:
256,192,147465,1,0,0:0:0:0:
256,192,147561,1,0,0:0:0:0:
256,192,147657,1,8,0:0:0:0:
256,192,147753,1,0,0:0:0:0:
256,192,147849,1,8,0:0:0:0:
256,192,148042,1,8,0:0:0:0:
256,192,148138,1,8,0:0:0:0:
256,192,148234,1,0,0:0:0:0:
256,192,148426,1,8,0:0:0:0:
256,192,148523,1,8,0:0:0:0:
256,192,148619,1,0,0:0:0:0:
256,192,148715,1,0,0:0:0:0:
256,192,148811,1,8,0:0:0:0:
256,192,148907,1,8,0:0:0:0:
256,192,149003,1,0,0:0:0:0:
256,192,149196,1,8,0:0:0:0:
256,192,149292,1,8,0:0:0:0:
256,192,149388,1,0,0:0:0:0:
256,192,149484,1,0,0:0:0:0:
256,192,149580,1,8,0:0:0:0:
256,192,149676,1,0,0:0:0:0:
256,192,149773,1,0,0:0:0:0:
256,192,149869,1,8,0:0:0:0:
256,192,149965,1,0,0:0:0:0:
256,192,150061,1,0,0:0:0:0:
256,192,150157,1,8,0:0:0:0:
256,192,150253,1,8,0:0:0:0:
256,192,150349,1,0,0:0:0:0:
256,192,150446,1,8,0:0:0:0:
256,192,150542,1,8,0:0:0:0:
256,192,150638,1,0,0:0:0:0:
256,192,150734,1,8,0:0:0:0:
256,192,150830,1,8,0:0:0:0:
256,192,150926,1,0,0:0:0:0:
256,192,151119,1,8,0:0:0:0:
256,192,151311,1,0,0:0:0:0:
256,192,151407,1,0,0:0:0:0:
256,192,151503,1,0,0:0:0:0:
256,192,151600,1,8,0:0:0:0:
256,192,151792,1,0,0:0:0:0:
256,192,151888,1,8,0:0:0:0:
256,192,152080,1,0,0:0:0:0:
256,192,152177,1,0,0:0:0:0:
256,192,152273,1,8,0:0:0:0:
256,192,152369,1,8,0:0:0:0:
256,192,152465,1,0,0:0:0:0:
256,192,152657,1,8,0:0:0:0:
256,192,152850,1,0,0:0:0:0:
256,192,153042,1,8,0:0:0:0:
256,192,153138,1,8,0:0:0:0:
256,192,153234,1,0,0:0:0:0:
256,192,153330,1,0,0:0:0:0:
256,192,153427,1,8,0:0:0:0:
256,192,153619,1,0,0:0:0:0:
256,192,153811,1,8,0:0:0:0:
256,192,153907,1,8,0:0:0:0:
256,192,154003,1,0,0:0:0:0:
256,192,154196,1,8,0:0:0:0:
256,192,154388,1,0,0:0:0:0:
256,192,154484,1,0,0:0:0:0:
256,192,154580,1,0,0:0:0:0:
256,192,154677,1,8,0:0:0:0:
256,192,154869,1,0,0:0:0:0:
256,192,154965,1,8,0:0:0:0:
256,192,155157,1,0,0:0:0:0:
256,192,155253,1,0,0:0:0:0:
256,192,155350,1,8,0:0:0:0:
256,192,155446,1,8,0:0:0:0:
256,192,155542,1,0,0:0:0:0:
256,192,155734,1,8,0:0:0:0:
256,192,155927,1,0,0:0:0:0:
256,192,156119,1,8,0:0:0:0:
256,192,156215,1,8,0:0:0:0:
256,192,156311,1,0,0:0:0:0:
256,192,156407,1,8,0:0:0:0:
256,192,156503,1,8,0:0:0:0:
256,192,156600,1,8,0:0:0:0:
256,192,156696,1,0,0:0:0:0:
256,192,156888,1,8,0:0:0:0:
256,192,157080,1,8,0:0:0:0:
256,192,157177,1,0,0:0:0:0:
256,192,157273,1,0,0:0:0:0:
256,192,157369,1,8,0:0:0:0:
256,192,157465,1,0,0:0:0:0:
256,192,157561,1,0,0:0:0:0:
256,192,157657,1,8,0:0:0:0:
256,192,157753,1,0,0:0:0:0:
256,192,157850,1,8,0:0:0:0:
256,192,157946,1,0,0:0:0:0:
256,192,158042,1,0,0:0:0:0:
256,192,158138,1,8,0:0:0:0:
256,192,158234,1,8,0:0:0:0:
256,192,158330,1,0,0:0:0:0:
256,192,158427,1,8,0:0:0:0:
256,192,158523,1,0,0:0:0:0:
256,192,158619,1,0,0:0:0:0:
256,192,158715,1,8,0:0:0:0:
256,192,158811,1,8,0:0:0:0:
256,192,158907,1,0,0:0:0:0:
256,192,159003,1,8,0:0:0:0:
256,192,159100,1,8,0:0:0:0:
256,192,159196,1,0,0:0:0:0:
256,192,159292,1,8,0:0:0:0:
256,192,159388,1,8,0:0:0:0:
256,192,159484,1,8,0:0:0:0:
256,192,159580,1,0,0:0:0:0:
256,192,159677,1,0,0:0:0:0:
256,192,159773,1,8,0:0:0:0:
256,192,159869,1,0,0:0:0:0:
256,192,159965,1,8,0:0:0:0:
256,192,160157,1,8,0:0:0:0:
256,192,160350,1,0,0:0:0:0:
256,192,160542,1,8,0:0:0:0:
256,192,160734,1,0,0:0:0:0:
256,192,160830,1,8,0:0:0:0:
256,192,161023,1,8,0:0:0:0:
256,192,161119,1,0,0:0:0:0:
256,192,161215,1,8,0:0:0:0:
256,192,161311,1,8,0:0:0:0:
256,192,161503,1,0,0:0:0:0:
256,192,161696,1,8,0:0:0:0:
256,192,161888,1,0,0:0:0:0:
256,192,161984,1,0,0:0:0:0:
256,192,162080,1,8,0:0:0:0:
256,192,162273,1,0,0:0:0:0:
256,192,162369,1,8,0:0:0:0:
256,192,162465,1,8,0:0:0:0:
256,192,162561,1,8,0:0:0:0:
256,192,162657,1,0,0:0:0:0:
256,192,162753,1,0,0:0:0:0:
256,192,162850,1,8,0:0:0:0:
256,192,162946,1,0,0:0:0:0:
256,192,163042,1,8,0:0:0:0:
256,192,163234,1,4,0:0:0:0:
256,192,163427,1,8,0:0:0:0:
256,192,163523,1,8,0:0:0:0:
256,192,163619,1,0,0:0:0:0:
256,192,163811,1,8,0:0:0:0:
256,192,164003,1,0,0:0:0:0:
256,192,164100,1,8,0:0:0:0:
256,192,164196,1,8,0:0:0:0:
256,192,164388,1,0,0:0:0:0:
256,192,164484,1,0,0:0:0:0:
256,192,164580,1,8,0:0:0:0:
256,192,164677,1,8,0:0:0:0:
256,192,164773,1,0,0:0:0:0:
256,192,164965,1,8,0:0:0:0:
256,192,165061,1,0,0:0:0:0:
256,192,165157,1,8,0:0:0:0:
256,192,165350,1,0,0:0:0:0:
256,192,165446,1,0,0:0:0:0:
256,192,165542,1,8,0:0:0:0:
256,192,165638,1,0,0:0:0:0:
256,192,165734,1,8,0:0:0:0:
256,192,165830,1,8,0:0:0:0:
256,192,165927,1,0,0:0:0:0:
256,192,166119,1,8,0:0:0:0:
256,192,166215,1,8,0:0:0:0:
256,192,166311,1,0,0:0:0:0:
256,192,166503,1,8,0:0:0:0:
256,192,166600,1,8,0:0:0:0:
256,192,166696,1,0,0:0:0:0:
256,192,166888,1,8,0:0:0:0:
256,192,167080,1,0,0:0:0:0:
256,192,167177,1,0,0:0:0:0:
256,192,167273,1,8,0:0:0:0:
256,192,167465,1,0,0:0:0:0:
256,192,167561,1,0,0:0:0:0:
256,192,167657,1,8,0:0:0:0:
256,192,167753,1,8,0:0:0:0:
256,192,167850,1,0,0:0:0:0:
256,192,168042,1,8,0:0:0:0:
256,192,168234,1,0,0:0:0:0:
256,192,168330,1,0,0:0:0:0:
256,192,168427,1,8,0:0:0:0:
256,192,168523,1,8,0:0:0:0:
256,192,168619,1,0,0:0:0:0:
256,192,168715,1,0,0:0:0:0:
256,192,168811,1,8,0:0:0:0:
256,192,168907,1,0,0:0:0:0:
256,192,169003,1,8,0:0:0:0:
256,192,169196,1,8,0:0:0:0:
256,192,169292,1,8,0:0:0:0:
256,192,169388,1,0,0:0:0:0:
256,192,169580,1,0,0:0:0:0:
256,192,169677,1,0,0:0:0:0:
256,192,169773,1,8,0:0:0:0:
256,192,169869,1,8,0:0:0:0:
256,192,169965,1,0,0:0:0:0:
256,192,170157,1,8,0:0:0:0:
256,192,170350,1,0,0:0:0:0:
256,192,170446,1,0,0:0:0:0:
256,192,170542,1,8,0:0:0:0:
256,192,170638,1,8,0:0:0:0:
256,192,170734,1,0,0:0:0:0:
256,192,170830,1,0,0:0:0:0:
256,192,170927,1,8,0:0:0:0:
256,192,171119,1,0,0:0:0:0:
256,192,171215,1,0,0:0:0:0:
256,192,171311,1,8,0:0:0:0:
256,192,171503,1,8,0:0:0:0:
256,192,171600,1,8,0:0:0:0:
256,192,171696,1,0,0:0:0:0:
256,192,171792,1,0,0:0:0:0:
256,192,171888,1,8,0:0:0:0:
256,192,171984,1,0,0:0:0:0:
256,192,172080,1,8,0:0:0:0:
256,192,172273,1,8,0:0:0:0:
256,192,172369,1,8,0:0:0:0:
256,192,172465,1,0,0:0:0:0:
256,192,172657,1,0,0:0:0:0:
256,192,172850,1,8,0:0:0:0:
256,192,172946,1,0,0:0:0:0:
256,192,173042,1,8,0:0:0:0:
256,192,173138,1,8,0:0:0:0:
256,192,173234,1,0,0:0:0:0:
256,192,173427,1,8,0:0:0:0:
256,192,173619,1,0,0:0:0:0:
256,192,173715,1,0,0:0:0:0:
256,192,173811,1,8,0:0:0:0:
256,192,173907,1,0,0:0:0:0:
256,192,174003,1,8,0:0:0:0:
256,192,174100,1,0,0:0:0:0:
256,192,174196,1,8,0:0:0:0:
256,192,174292,1,8,0:0:0:0:
256,192,174388,1,0,0:0:0:0:
256,192,174484,1,0,0:0:0:0:
256,192,174580,1,8,0:0:0:0:
256,192,174677,1,8,0:0:0:0:
256,192,174773,1,0,0:0:0:0:
256,192,174869,1,8,0:0:0:0:
256,192,174965,1,8,0:0:0:0:
256,192,175061,1,8,0:0:0:0:
256,192,175157,1,0,0:0:0:0:
256,192,175253,1,8,0:0:0:0:
256,192,175350,1,8,0:0:0:0:
256,192,175446,1,8,0:0:0:0:
256,192,175542,1,0,0:0:0:0:
256,192,175734,1,8,0:0:0:0:
256,192,175830,1,8,0:0:0:0:
256,192,175927,1,0,0:0:0:0:
256,192,176023,1,0,0:0:0:0:
256,192,176119,1,8,0:0:0:0:
256,192,176215,1,0,0:0:0:0:
256,192,176311,1,8,0:0:0:0:
256,192,176503,1,0,0:0:0:0:
256,192,176600,1,8,0:0:0:0:
256,192,176792,1,0,0:0:0:0:
256,192,176888,1,8,0:0:0:0:
256,192,177080,1,0,0:0:0:0:
256,192,177657,1,0,0:0:0:0:
256,192,177850,1,8,0:0:0:0:
256,192,177946,1,8,0:0:0:0:
256,192,178042,1,8,0:0:0:0:
256,192,178138,1,8,0:0:0:0:
256,192,178234,1,0,0:0:0:0:
256,192,178330,1,0,0:0:0:0:
256,192,178427,1,0,0:0:0:0:
256,192,178619,1,0,0:0:0:0:
256,192,178811,1,8,0:0:0:0:
256,192,179003,1,0,0:0:0:0:
256,192,179195,1,8,0:0:0:0:
256,192,179292,1,8,0:0:0:0:
256,192,179388,1,0,0:0:0:0:
256,192,179580,1,8,0:0:0:0:
256,192,179772,1,0,0:0:0:0:
256,192,179965,1,8,0:0:0:0:
256,192,180157,1,0,0:0:0:0:
256,192,180349,1,8,0:0:0:0:
256,192,180542,1,0,0:0:0:0:
256,192,180734,1,8,0:0:0:0:
256,192,180830,1,8,0:0:0:0:
256,192,180926,1,0,0:0:0:0:
256,192,181119,1,8,0:0:0:0:
256,192,181311,1,0,0:0:0:0:
256,192,181407,1,0,0:0:0:0:
256,192,181503,1,8,0:0:0:0:
256,192,181695,1,0,0:0:0:0:
256,192,181888,1,8,0:0:0:0:
256,192,182080,1,0,0:0:0:0:
256,192,182272,1,8,0:0:0:0:
256,192,182369,1,8,0:0:0:0:
256,192,182465,1,0,0:0:0:0:
256,192,182657,1,8,0:0:0:0:
256,192,182849,1,0,0:0:0:0:
256,192,183042,1,8,0:0:0:0:
256,192,183234,1,0,0:0:0:0:
256,192,183426,1,8,0:0:0:0:
256,192,183619,1,0,0:0:0:0:
256,192,183811,1,8,0:0:0:0:
256,192,183907,1,8,0:0:0:0:
256,192,184003,1,0,0:0:0:0:
256,192,184195,1,8,0:0:0:0:
256,192,184388,1,0,0:0:0:0:
256,192,184580,1,0,0:0:0:0:
256,192,184772,1,8,0:0:0:0:
256,192,184965,1,0,0:0:0:0:
256,192,185157,1,8,0:0:0:0:
256,192,185349,1,0,0:0:0:0:
256,192,185445,1,0,0:0:0:0:
256,192,185542,1,8,0:0:0:0:
256,192,185734,1,8,0:0:0:0:
256,192,185926,1,0,0:0:0:0:
256,192,186119,1,0,0:0:0:0:
256,192,186311,1,8,0:0:0:0:
256,192,186503,1,0,0:0:0:0:
256,192,186695,1,8,0:0:0:0:
256,192,186888,1,8,0:0:0:0:
256,192,187080,1,0,0:0:0:0:
256,192,187272,1,0,0:0:0:0:
256,192,187465,1,8,0:0:0:0:
256,192,187657,1,0,0:0:0:0:
256,192,187849,1,8,0:0:0:0:
256,192,188042,1,0,0:0:0:0:
256,192,188234,1,8,0:0:0:0:
256,192,188426,1,0,0:0:0:0:
256,192,188522,1,0,0:0:0:0:
256,192,188619,1,8,0:0:0:0:
256,192,188811,1,8,0:0:0:0:
256,192,189003,1,0,0:0:0:0:
256,192,189195,1,8,0:0:0:0:
256,192,189388,1,0,0:0:0:0:
256,192,189580,1,8,0:0:0:0:
256,192,189772,1,0,0:0:0:0:
256,192,189869,1,8,0:0:0:0:
256,192,189965,1,0,0:0:0:0:
256,192,190157,1,8,0:0:0:0:
256,192,190349,1,0,0:0:0:0:
256,192,190445,1,8,0:0:0:0:
256,192,190542,1,0,0:0:0:0:
256,192,190734,1,8,0:0:0:0:
256,192,190926,1,0,0:0:0:0:
256,192,191119,1,8,0:0:0:0:
256,192,191311,1,0,0:0:0:0:
256,192,191503,1,8,0:0:0:0:
256,192,191599,1,0,0:0:0:0:
256,192,191695,1,8,0:0:0:0:
256,192,191792,1,8,0:0:0:0:
256,192,191888,1,0,0:0:0:0:
256,192,191984,1,0,0:0:0:0:
256,192,192080,1,8,0:0:0:0:
256,192,192176,1,0,0:0:0:0:
256,192,192272,1,8,0:0:0:0:
256,192,192465,1,4,0:0:0:0:
256,192,192753,1,12,0:0:0:0:
256,192,193042,1,4,0:0:0:0:
256,192,193330,1,12,0:0:0:0:
256,192,193619,1,4,0:0:0:0:
256,192,193811,1,12,0:0:0:0:
256,192,194003,1,4,0:0:0:0:
256,192,194292,1,4,0:0:0:0:
256,192,194580,1,4,0:0:0:0:
256,192,195542,1,4,0:0:0:0:
256,192,195734,1,8,0:0:0:0:
256,192,195926,1,0,0:0:0:0:
256,192,196118,1,8,0:0:0:0:
256,192,196215,1,8,0:0:0:0:
256,192,196311,1,0,0:0:0:0:
256,192,196503,1,8,0:0:0:0:
256,192,196695,1,0,0:0:0:0:
256,192,196792,1,0,0:0:0:0:
256,192,196888,1,8,0:0:0:0:
256,192,196984,1,0,0:0:0:0:
256,192,197080,1,8,0:0:0:0:
256,192,197272,1,0,0:0:0:0:
256,192,197465,1,8,0:0:0:0:
256,192,197657,1,8,0:0:0:0:
256,192,197753,1,8,0:0:0:0:
256,192,197849,1,0,0:0:0:0:
256,192,197945,1,0,0:0:0:0:
256,192,198042,1,8,0:0:0:0:
256,192,198234,1,0,0:0:0:0:
256,192,198330,1,0,0:0:0:0:
256,192,198426,1,8,0:0:0:0:
256,192,198522,1,8,0:0:0:0:
256,192,198618,1,0,0:0:0:0:
256,192,198811,1,8,0:0:0:0:
256,192,199003,1,0,0:0:0:0:
256,192,199195,1,8,0:0:0:0:
256,192,199292,1,8,0:0:0:0:
256,192,199388,1,0,0:0:0:0:
256,192,199580,1,8,0:0:0:0:
256,192,199772,1,0,0:0:0:0:
256,192,199868,1,0,0:0:0:0:
256,192,199965,1,8,0:0:0:0:
256,192,200061,1,0,0:0:0:0:
256,192,200157,1,8,0:0:0:0:
256,192,200349,1,0,0:0:0:0:
256,192,200542,1,8,0:0:0:0:
256,192,200734,1,8,0:0:0:0:
256,192,200830,1,8,0:0:0:0:
256,192,200926,1,0,0:0:0:0:
256,192,201022,1,8,0:0:0:0:
256,192,201118,1,8,0:0:0:0:
256,192,201215,1,8,0:0:0:0:
256,192,201311,1,0,0:0:0:0:
256,192,201503,1,8,0:0:0:0:
256,192,201599,1,0,0:0:0:0:
256,192,201695,1,8,0:0:0:0:
256,192,201888,1,0,0:0:0:0:
256,192,202080,1,8,0:0:0:0:
256,192,202272,1,0,0:0:0:0:
256,192,202368,1,0,0:0:0:0:
256,192,202465,1,8,0:0:0:0:
256,192,202657,1,8,0:0:0:0:
256,192,202849,1,0,0:0:0:0:
256,192,202945,1,0,0:0:0:0:
256,192,203042,1,8,0:0:0:0:
256,192,203138,1,0,0:0:0:0:
256,192,203234,1,8,0:0:0:0:
256,192,203426,1,0,0:0:0:0:
256,192,203618,1,8,0:0:0:0:
256,192,203811,1,8,0:0:0:0:
256,192,203907,1,8,0:0:0:0:
256,192,204003,1,0,0:0:0:0:
256,192,204099,1,8,0:0:0:0:
256,192,204195,1,8,0:0:0:0:
256,192,204292,1,8,0:0:0:0:
256,192,204388,1,0,0:0:0:0:
256,192,204580,1,8,0:0:0:0:
256,192,204676,1,0,0:0:0:0:
256,192,204772,1,8,0:0:0:0:
256,192,204965,1,0,0:0:0:0:
256,192,205157,1,8,0:0:0:0:
256,192,205349,1,0,0:0:0:0:
256,192,205445,1,0,0:0:0:0:
256,192,205542,1,8,0:0:0:0:
256,192,205734,1,8,0:0:0:0:
256,192,205926,1,0,0:0:0:0:
256,192,206022,1,0,0:0:0:0:
256,192,206118,1,8,0:0:0:0:
256,192,206311,1,12,0:0:0:0:
256,192,206599,1,4,0:0:0:0:
256,192,206888,1,8,0:0:0:0:
256,192,206984,1,8,0:0:0:0:
256,192,207080,1,0,0:0:0:0:
256,192,207176,1,0,0:0:0:0:
256,192,207272,1,0,0:0:0:0:
256,192,207368,1,0,0:0:0:0:
256,192,207465,1,8,0:0:0:0:
256,192,207561,1,0,0:0:0:0:
256,192,207657,1,8,0:0:0:0:
256,192,207753,1,8,0:0:0:0:
256,192,207849,1,0,0:0:0:0:
256,192,208042,1,8,0:0:0:0:
256,192,208234,1,0,0:0:0:0:
256,192,208426,1,8,0:0:0:0:
256,192,208522,1,8,0:0:0:0:
256,192,208618,1,0,0:0:0:0:
256,192,208811,1,8,0:0:0:0:
256,192,209003,1,0,0:0:0:0:
256,192,209099,1,0,0:0:0:0:
256,192,209195,1,8,0:0:0:0:
256,192,209292,1,0,0:0:0:0:
256,192,209388,1,8,0:0:0:0:
256,192,209580,1,0,0:0:0:0:
256,192,209772,1,8,0:0:0:0:
256,192,209965,1,8,0:0:0:0:
256,192,210061,1,8,0:0:0:0:
256,192,210157,1,0,0:0:0:0:
256,192,210253,1,0,0:0:0:0:
256,192,210349,1,8,0:0:0:0:
256,192,210542,1,0,0:0:0:0:
256,192,210638,1,0,0:0:0:0:
256,192,210734,1,8,0:0:0:0:
256,192,210830,1,8,0:0:0:0:
256,192,210926,1,0,0:0:0:0:
256,192,211118,1,8,0:0:0:0:
256,192,211311,1,0,0:0:0:0:
256,192,211503,1,8,0:0:0:0:
256,192,211599,1,8,0:0:0:0:
256,192,211695,1,0,0:0:0:0:
256,192,211888,1,8,0:0:0:0:
256,192,212080,1,0,0:0:0:0:
256,192,212176,1,0,0:0:0:0:
256,192,212272,1,8,0:0:0:0:
256,192,212368,1,0,0:0:0:0:
256,192,212465,1,8,0:0:0:0:
256,192,212657,1,0,0:0:0:0:
256,192,212753,1,0,0:0:0:0:
256,192,212849,1,8,0:0:0:0:
256,192,213042,1,8,0:0:0:0:
256,192,213138,1,8,0:0:0:0:
256,192,213234,1,0,0:0:0:0:
256,192,213330,1,8,0:0:0:0:
256,192,213426,1,8,0:0:0:0:
256,192,213522,1,8,0:0:0:0:
256,192,213618,1,0,0:0:0:0:
256,192,213811,1,8,0:0:0:0:
256,192,213907,1,0,0:0:0:0:
256,192,214003,1,8,0:0:0:0:
256,192,214195,1,0,0:0:0:0:
256,192,214388,1,8,0:0:0:0:
256,192,214580,1,0,0:0:0:0:
256,192,214676,1,0,0:0:0:0:
256,192,214772,1,8,0:0:0:0:
256,192,214965,1,8,0:0:0:0:
256,192,215157,1,0,0:0:0:0:
256,192,215253,1,0,0:0:0:0:
256,192,215349,1,8,0:0:0:0:
256,192,215445,1,0,0:0:0:0:
256,192,215542,1,8,0:0:0:0:
256,192,215734,1,0,0:0:0:0:
256,192,215926,1,8,0:0:0:0:
256,192,216118,1,8,0:0:0:0:
256,192,216215,1,8,0:0:0:0:
256,192,216311,1,0,0:0:0:0:
256,192,216407,1,8,0:0:0:0:
256,192,216503,1,8,0:0:0:0:
256,192,216599,1,8,0:0:0:0:
256,192,216695,1,0,0:0:0:0:
256,192,216792,1,0,0:0:0:0:
256,192,216888,1,8,0:0:0:0:
256,192,216984,1,0,0:0:0:0:
256,192,217080,1,8,0:0:0:0:
256,192,217272,1,0,0:0:0:0:
256,192,217465,1,8,0:0:0:0:
256,192,217561,1,0,0:0:0:0:
256,192,217657,1,8,0:0:0:0:
256,192,217753,1,8,0:0:0:0:
256,192,217849,1,0,0:0:0:0:
256,192,217945,1,0,0:0:0:0:
256,192,218042,1,8,0:0:0:0:
256,192,218234,1,0,0:0:0:0:
256,192,218330,1,0,0:0:0:0:
256,192,218426,1,8,0:0:0:0:
256,192,218522,1,0,0:0:0:0:
256,192,218618,1,8,0:0:0:0:
256,192,218811,1,8,0:0:0:0:
256,192,218907,1,8,0:0:0:0:
256,192,219003,1,0,0:0:0:0:
256,192,219195,1,8,0:0:0:0:
256,192,219292,1,8,0:0:0:0:
256,192,219388,1,0,0:0:0:0:
256,192,219484,1,0,0:0:0:0:
256,192,219580,1,8,0:0:0:0:
256,192,219676,1,8,0:0:0:0:
256,192,219772,1,0,0:0:0:0:
256,192,219965,1,8,0:0:0:0:
256,192,220061,1,8,0:0:0:0:
256,192,220157,1,0,0:0:0:0:
256,192,220253,1,0,0:0:0:0:
256,192,220349,1,8,0:0:0:0:
256,192,220445,1,0,0:0:0:0:
256,192,220542,1,0,0:0:0:0:
256,192,220638,1,8,0:0:0:0:
256,192,220734,1,0,0:0:0:0:
256,192,220830,1,0,0:0:0:0:
256,192,220926,1,8,0:0:0:0:
256,192,221022,1,8,0:0:0:0:
256,192,221118,1,0,0:0:0:0:
256,192,221215,1,8,0:0:0:0:
256,192,221311,1,8,0:0:0:0:
256,192,221407,1,0,0:0:0:0:
256,192,221503,1,8,0:0:0:0:
256,192,221599,1,8,0:0:0:0:
256,192,221696,1,0,0:0:0:0:
256,192,221888,1,8,0:0:0:0:
256,192,222080,1,0,0:0:0:0:
256,192,222176,1,0,0:0:0:0:
256,192,222272,1,0,0:0:0:0:
256,192,222369,1,8,0:0:0:0:
256,192,222561,1,0,0:0:0:0:
256,192,222657,1,8,0:0:0:0:
256,192,222849,1,0,0:0:0:0:
256,192,222946,1,0,0:0:0:0:
256,192,223042,1,8,0:0:0:0:
256,192,223234,1,0,0:0:0:0:
256,192,223426,1,8,0:0:0:0:
256,192,223619,1,0,0:0:0:0:
256,192,223811,1,8,0:0:0:0:
256,192,223907,1,8,0:0:0:0:
256,192,224003,1,0,0:0:0:0:
256,192,224099,1,0,0:0:0:0:
256,192,224196,1,8,0:0:0:0:
256,192,224388,1,0,0:0:0:0:
256,192,224580,1,8,0:0:0:0:
256,192,224676,1,8,0:0:0:0:
256,192,224772,1,0,0:0:0:0:
256,192,224965,1,8,0:0:0:0:
256,192,225157,1,0,0:0:0:0:
256,192,225253,1,0,0:0:0:0:
256,192,225349,1,0,0:0:0:0:
256,192,225446,1,8,0:0:0:0:
256,192,225638,1,0,0:0:0:0:
256,192,225734,1,8,0:0:0:0:
256,192,225926,1,0,0:0:0:0:
256,192,226022,1,0,0:0:0:0:
256,192,226119,1,8,0:0:0:0:
256,192,226311,1,0,0:0:0:0:
256,192,226503,1,8,0:0:0:0:
256,192,226599,1,8,0:0:0:0:
256,192,226696,1,0,0:0:0:0:
256,192,226888,1,8,0:0:0:0:
256,192,226984,1,8,0:0:0:0:
256,192,227080,1,0,0:0:0:0:
256,192,227176,1,8,0:0:0:0:
256,192,227272,1,8,0:0:0:0:
256,192,227369,1,0,0:0:0:0:
256,192,227465,1,8,0:0:0:0:
256,192,227561,1,8,0:0:0:0:
256,192,227657,1,0,0:0:0:0:
256,192,227849,1,8,0:0:0:0:
256,192,227946,1,0,0:0:0:0:
256,192,228042,1,0,0:0:0:0:
256,192,228138,1,8,0:0:0:0:
256,192,228234,1,0,0:0:0:0:
256,192,228330,1,0,0:0:0:0:
256,192,228426,1,8,0:0:0:0:
256,192,228522,1,0,0:0:0:0:
256,192,228619,1,8,0:0:0:0:
256,192,228715,1,0,0:0:0:0:
256,192,228811,1,0,0:0:0:0:
256,192,228907,1,8,0:0:0:0:
256,192,229003,1,8,0:0:0:0:
256,192,229099,1,0,0:0:0:0:
256,192,229196,1,8,0:0:0:0:
256,192,229292,1,0,0:0:0:0:
256,192,229388,1,0,0:0:0:0:
256,192,229484,1,8,0:0:0:0:
256,192,229580,1,8,0:0:0:0:
256,192,229676,1,0,0:0:0:0:
256,192,229772,1,8,0:0:0:0:
256,192,229869,1,8,0:0:0:0:
256,192,229965,1,0,0:0:0:0:
256,192,230061,1,8,0:0:0:0:
256,192,230157,1,8,0:0:0:0:
256,192,230253,1,8,0:0:0:0:
256,192,230349,1,0,0:0:0:0:
256,192,230446,1,0,0:0:0:0:
256,192,230542,1,8,0:0:0:0:
256,192,230638,1,0,0:0:0:0:
256,192,230734,1,8,0:0:0:0:
256,192,230926,1,8,0:0:0:0:
256,192,231119,1,0,0:0:0:0:
256,192,231311,1,8,0:0:0:0:
256,192,231503,1,0,0:0:0:0:
256,192,231599,1,8,0:0:0:0:
256,192,231792,1,8,0:0:0:0:
256,192,231888,1,0,0:0:0:0:
256,192,231984,1,8,0:0:0:0:
256,192,232080,1,8,0:0:0:0:
256,192,232272,1,0,0:0:0:0:
256,192,232465,1,8,0:0:0:0:
256,192,232657,1,0,0:0:0:0:
256,192,232753,1,0,0:0:0:0:
256,192,232849,1,8,0:0:0:0:
256,192,233042,1,0,0:0:0:0:
256,192,233138,1,8,0:0:0:0:
256,192,233234,1,8,0:0:0:0:
256,192,233330,1,8,0:0:0:0:
256,192,233426,1,0,0:0:0:0:
256,192,233522,1,0,0:0:0:0:
256,192,233619,1,8,0:0:0:0:
256,192,233715,1,0,0:0:0:0:
256,192,233811,1,8,0:0:0:0:
