osu file format v14

[General]
AudioFilename: audio140.mp3
AudioLeadIn: 0
PreviewTime: -1
Countdown: 1
SampleSet: None
StackLeniency: 0.7
Mode: 3
LetterboxInBreaks: 0
SpecialStyle: 0
WidescreenStoryboard: 0

[Editor]
Bookmarks: 954,7295,21791,29039,34474,48970,58029,65277
DistanceSpacing: 0.5
BeatDivisor: 4
GridSize: 8
TimelineZoom: 1.5

[Metadata]
Title:Shinsekai
TitleUnicode:Shinsekai
Artist:Shiraishi
ArtistUnicode:Shiraishi
Creator:Itzuaka
Version:jumpstream [1.4x Rate]
Source:
Tags:
BeatmapID:2061811
BeatmapSetID:985477

[Difficulty]
HPDrainRate:9
CircleSize:4
OverallDifficulty:10
ApproachRate:5
SliderMultiplier:1.4
SliderTickRate:1

[Events]
//Background and Video events
0,0,"background.jpg",0,0
//Break Periods
//Storyboard Layer 0 (Background)
//Storyboard Layer 1 (Fail)
//Storyboard Layer 2 (Pass)
//Storyboard Layer 3 (Foreground)
//Storyboard Sound Samples

[TimingPoints]
954,226.493726123786,4,1,1,70,1,0

[HitObjects]
64,192,954,5,0,0:0:0:0:
448,192,954,1,0,0:0:0:0:
320,192,954,1,0,0:0:0:0:
192,192,1066,1,0,0:0:0:0:
320,192,1180,1,0,0:0:0:0:
448,192,1293,1,0,0:0:0:0:
448,192,1633,1,0,0:0:0:0:
64,192,1859,1,0,0:0:0:0:
192,192,1888,1,0,0:0:0:0:
320,192,2199,1,0,0:0:0:0:
448,192,2199,1,0,0:0:0:0:
64,192,2765,1,0,0:0:0:0:
192,192,2765,1,0,0:0:0:0:
448,192,2765,1,0,0:0:0:0:
64,192,3218,1,0,0:0:0:0:
192,192,3331,1,0,0:0:0:0:
320,192,3445,1,0,0:0:0:0:
448,192,3558,1,0,0:0:0:0:
64,192,3671,1,0,0:0:0:0:
192,192,3671,1,0,0:0:0:0:
64,192,4011,1,0,0:0:0:0:
192,192,4011,1,0,0:0:0:0:
320,192,4351,1,0,0:0:0:0:
448,192,4577,1,0,0:0:0:0:
64,192,4577,128,0,5256:0:0:0:0:
192,192,4577,128,0,5256:0:0:0:0:
320,192,5144,1,0,0:0:0:0:
448,192,5256,1,0,0:0:0:0:
320,192,5370,1,0,0:0:0:0:
64,192,5483,128,0,6389:0:0:0:0:
192,192,5483,128,0,6389:0:0:0:0:
448,192,5483,128,0,6389:0:0:0:0:
192,192,6616,128,0,6842:0:0:0:0:
64,192,6616,128,0,6842:0:0:0:0:
448,192,6955,128,0,7182:0:0:0:0:
192,192,6955,128,0,7182:0:0:0:0:
64,192,7295,1,0,0:0:0:0:
192,192,7295,1,0,0:0:0:0:
320,192,7295,1,0,0:0:0:0:
448,192,7351,1,0,0:0:0:0:
320,192,7409,1,0,0:0:0:0:
192,192,7465,1,0,0:0:0:0:
64,192,7521,1,0,0:0:0:0:
320,192,7521,1,0,0:0:0:0:
448,192,7578,1,0,0:0:0:0:
192,192,7635,1,0,0:0:0:0:
320,192,7691,1,0,0:0:0:0:
64,192,7748,1,0,0:0:0:0:
192,192,7748,1,0,0:0:0:0:
448,192,7805,1,0,0:0:0:0:
320,192,7861,1,0,0:0:0:0:
192,192,7918,1,0,0:0:0:0:
64,192,7974,1,0,0:0:0:0:
448,192,7974,1,0,0:0:0:0:
320,192,8031,1,0,0:0:0:0:
192,192,8088,1,0,0:0:0:0:
320,192,8144,1,0,0:0:0:0:
64,192,8201,1,0,0:0:0:0:
448,192,8201,1,0,0:0:0:0:
192,192,8201,1,0,0:0:0:0:
320,192,8258,1,0,0:0:0:0:
192,192,8314,1,0,0:0:0:0:
64,192,8371,1,0,0:0:0:0:
320,192,8428,1,0,0:0:0:0:
448,192,8428,1,0,0:0:0:0:
192,192,8484,1,0,0:0:0:0:
320,192,8541,1,0,0:0:0:0:
448,192,8597,1,0,0:0:0:0:
64,192,8654,1,0,0:0:0:0:
192,192,8654,1,0,0:0:0:0:
320,192,8711,1,0,0:0:0:0:
64,192,8767,1,0,0:0:0:0:
192,192,8767,1,0,0:0:0:0:
320,192,8824,1,0,0:0:0:0:
64,192,8881,1,0,0:0:0:0:
192,192,8881,1,0,0:0:0:0:
320,192,8937,1,0,0:0:0:0:
448,192,8994,1,0,0:0:0:0:
192,192,9051,1,0,0:0:0:0:
64,192,9107,1,0,0:0:0:0:
320,192,9107,1,0,0:0:0:0:
448,192,9107,1,0,0:0:0:0:
192,192,9164,1,0,0:0:0:0:
320,192,9220,1,0,0:0:0:0:
448,192,9277,1,0,0:0:0:0:
192,192,9334,1,0,0:0:0:0:
320,192,9334,1,0,0:0:0:0:
64,192,9390,1,0,0:0:0:0:
192,192,9446,1,0,0:0:0:0:
320,192,9504,1,0,0:0:0:0:
448,192,9560,1,0,0:0:0:0:
64,192,9560,1,0,0:0:0:0:
192,192,9616,1,0,0:0:0:0:
320,192,9674,1,0,0:0:0:0:
192,192,9730,1,0,0:0:0:0:
64,192,9786,1,0,0:0:0:0:
448,192,9786,1,0,0:0:0:0:
320,192,9843,1,0,0:0:0:0:
192,192,9900,1,0,0:0:0:0:
320,192,9956,1,0,0:0:0:0:
64,192,10013,1,0,0:0:0:0:
192,192,10013,1,0,0:0:0:0:
448,192,10013,1,0,0:0:0:0:
320,192,10069,1,0,0:0:0:0:
64,192,10126,1,0,0:0:0:0:
192,192,10183,1,0,0:0:0:0:
320,192,10239,1,0,0:0:0:0:
448,192,10239,1,0,0:0:0:0:
192,192,10296,1,0,0:0:0:0:
320,192,10353,1,0,0:0:0:0:
448,192,10409,1,0,0:0:0:0:
64,192,10466,1,0,0:0:0:0:
192,192,10466,1,0,0:0:0:0:
320,192,10523,1,0,0:0:0:0:
448,192,10523,1,0,0:0:0:0:
192,192,10579,1,0,0:0:0:0:
64,192,10579,1,0,0:0:0:0:
320,192,10636,1,0,0:0:0:0:
192,192,10692,1,0,0:0:0:0:
448,192,10692,1,0,0:0:0:0:
320,192,10749,1,0,0:0:0:0:
64,192,10806,1,0,0:0:0:0:
192,192,10806,1,0,0:0:0:0:
320,192,10862,1,0,0:0:0:0:
448,192,10919,1,0,0:0:0:0:
192,192,10919,1,0,0:0:0:0:
64,192,10919,1,0,0:0:0:0:
320,192,10976,1,0,0:0:0:0:
64,192,11032,1,0,0:0:0:0:
192,192,11089,1,0,0:0:0:0:
448,192,11146,1,0,0:0:0:0:
64,192,11146,1,0,0:0:0:0:
320,192,11202,1,0,0:0:0:0:
192,192,11259,1,0,0:0:0:0:
64,192,11315,1,0,0:0:0:0:
320,192,11372,1,0,0:0:0:0:
448,192,11372,1,0,0:0:0:0:
192,192,11429,1,0,0:0:0:0:
64,192,11485,1,0,0:0:0:0:
320,192,11542,1,0,0:0:0:0:
192,192,11599,1,0,0:0:0:0:
448,192,11599,1,0,0:0:0:0:
64,192,11655,1,0,0:0:0:0:
320,192,11711,1,0,0:0:0:0:
192,192,11769,1,0,0:0:0:0:
64,192,11825,1,0,0:0:0:0:
320,192,11825,1,0,0:0:0:0:
448,192,11825,1,0,0:0:0:0:
192,192,11881,1,0,0:0:0:0:
320,192,11938,1,0,0:0:0:0:
64,192,11995,1,0,0:0:0:0:
192,192,12051,1,0,0:0:0:0:
448,192,12051,1,0,0:0:0:0:
320,192,12108,1,0,0:0:0:0:
192,192,12165,1,0,0:0:0:0:
64,192,12221,1,0,0:0:0:0:
320,192,12278,1,0,0:0:0:0:
448,192,12278,1,0,0:0:0:0:
192,192,12334,1,0,0:0:0:0:
320,192,12391,1,0,0:0:0:0:
448,192,12391,1,0,0:0:0:0:
192,192,12448,1,0,0:0:0:0:
320,192,12504,1,0,0:0:0:0:
448,192,12504,1,0,0:0:0:0:
64,192,12561,1,0,0:0:0:0:
192,192,12618,1,0,0:0:0:0:
320,192,12674,1,0,0:0:0:0:
64,192,12731,1,0,0:0:0:0:
192,192,12731,1,0,0:0:0:0:
448,192,12731,1,0,0:0:0:0:
320,192,12788,1,0,0:0:0:0:
448,192,12844,1,0,0:0:0:0:
64,192,12901,1,0,0:0:0:0:
320,192,12957,1,0,0:0:0:0:
448,192,12957,1,0,0:0:0:0:
192,192,13014,1,0,0:0:0:0:
320,192,13071,1,0,0:0:0:0:
448,192,13127,1,0,0:0:0:0:
64,192,13184,1,0,0:0:0:0:
320,192,13184,1,0,0:0:0:0:
192,192,13241,1,0,0:0:0:0:
320,192,13297,1,0,0:0:0:0:
448,192,13354,1,0,0:0:0:0:
64,192,13411,1,0,0:0:0:0:
192,192,13411,1,0,0:0:0:0:
320,192,13467,1,0,0:0:0:0:
448,192,13524,1,0,0:0:0:0:
320,192,13580,1,0,0:0:0:0:
64,192,13637,1,0,0:0:0:0:
192,192,13637,1,0,0:0:0:0:
448,192,13637,1,0,0:0:0:0:
320,192,13694,1,0,0:0:0:0:
192,192,13750,1,0,0:0:0:0:
448,192,13806,1,0,0:0:0:0:
320,192,13864,1,0,0:0:0:0:
64,192,13864,1,0,0:0:0:0:
192,192,13920,1,0,0:0:0:0:
320,192,13976,1,0,0:0:0:0:
192,192,14034,1,0,0:0:0:0:
448,192,14090,1,0,0:0:0:0:
320,192,14090,1,0,0:0:0:0:
192,192,14146,1,0,0:0:0:0:
64,192,14146,1,0,0:0:0:0:
320,192,14203,1,0,0:0:0:0:
448,192,14203,1,0,0:0:0:0:
192,192,14260,1,0,0:0:0:0:
448,192,14316,1,0,0:0:0:0:
64,192,14316,1,0,0:0:0:0:
320,192,14373,1,0,0:0:0:0:
192,192,14429,1,0,0:0:0:0:
64,192,14429,1,0,0:0:0:0:
448,192,14486,1,0,0:0:0:0:
192,192,14543,1,0,0:0:0:0:
320,192,14543,1,0,0:0:0:0:
64,192,14543,1,0,0:0:0:0:
448,192,14599,1,0,0:0:0:0:
64,192,14656,1,0,0:0:0:0:
192,192,14713,1,0,0:0:0:0:
320,192,14769,1,0,0:0:0:0:
448,192,14769,1,0,0:0:0:0:
192,192,14826,1,0,0:0:0:0:
64,192,14883,1,0,0:0:0:0:
192,192,14939,1,0,0:0:0:0:
64,192,14996,1,0,0:0:0:0:
448,192,14996,1,0,0:0:0:0:
320,192,15052,1,0,0:0:0:0:
192,192,15109,1,0,0:0:0:0:
64,192,15166,1,0,0:0:0:0:
192,192,15222,1,0,0:0:0:0:
448,192,15279,1,0,0:0:0:0:
320,192,15336,1,0,0:0:0:0:
192,192,15392,1,0,0:0:0:0:
64,192,15449,1,0,0:0:0:0:
320,192,15449,1,0,0:0:0:0:
448,192,15449,1,0,0:0:0:0:
192,192,15506,1,0,0:0:0:0:
320,192,15562,1,0,0:0:0:0:
448,192,15619,1,0,0:0:0:0:
64,192,15675,1,0,0:0:0:0:
192,192,15675,1,0,0:0:0:0:
320,192,15732,1,0,0:0:0:0:
64,192,15789,1,0,0:0:0:0:
448,192,15845,1,0,0:0:0:0:
320,192,15902,1,0,0:0:0:0:
64,192,15902,1,0,0:0:0:0:
192,192,15959,1,0,0:0:0:0:
64,192,16015,1,0,0:0:0:0:
320,192,16015,1,0,0:0:0:0:
192,192,16071,1,0,0:0:0:0:
64,192,16129,1,0,0:0:0:0:
320,192,16129,1,0,0:0:0:0:
192,192,16185,1,0,0:0:0:0:
320,192,16241,1,0,0:0:0:0:
448,192,16298,1,0,0:0:0:0:
64,192,16355,1,0,0:0:0:0:
192,192,16355,1,0,0:0:0:0:
320,192,16355,1,0,0:0:0:0:
448,192,16411,1,0,0:0:0:0:
320,192,16468,1,0,0:0:0:0:
192,192,16525,1,0,0:0:0:0:
64,192,16581,1,0,0:0:0:0:
320,192,16581,1,0,0:0:0:0:
448,192,16581,1,0,0:0:0:0:
192,192,16638,1,0,0:0:0:0:
64,192,16694,1,0,0:0:0:0:
192,192,16751,1,0,0:0:0:0:
448,192,16808,1,0,0:0:0:0:
64,192,16808,1,0,0:0:0:0:
320,192,16864,1,0,0:0:0:0:
192,192,16921,1,0,0:0:0:0:
320,192,16978,1,0,0:0:0:0:
64,192,17034,1,0,0:0:0:0:
192,192,17091,1,0,0:0:0:0:
320,192,17148,1,0,0:0:0:0:
192,192,17204,1,0,0:0:0:0:
64,192,17261,1,0,0:0:0:0:
320,192,17261,1,0,0:0:0:0:
448,192,17261,1,0,0:0:0:0:
192,192,17317,1,0,0:0:0:0:
320,192,17374,1,0,0:0:0:0:
448,192,17431,1,0,0:0:0:0:
192,192,17487,1,0,0:0:0:0:
64,192,17487,1,0,0:0:0:0:
320,192,17544,1,0,0:0:0:0:
192,192,17601,1,0,0:0:0:0:
64,192,17657,1,0,0:0:0:0:
320,192,17714,1,0,0:0:0:0:
448,192,17714,1,0,0:0:0:0:
192,192,17771,1,0,0:0:0:0:
64,192,17771,1,0,0:0:0:0:
448,192,17827,1,0,0:0:0:0:
320,192,17827,1,0,0:0:0:0:
192,192,17884,1,0,0:0:0:0:
64,192,17940,1,0,0:0:0:0:
320,192,17940,1,0,0:0:0:0:
192,192,17997,1,0,0:0:0:0:
320,192,18054,1,0,0:0:0:0:
448,192,18054,1,0,0:0:0:0:
192,192,18110,1,0,0:0:0:0:
64,192,18166,1,0,0:0:0:0:
320,192,18166,1,0,0:0:0:0:
448,192,18166,1,0,0:0:0:0:
192,192,18224,1,0,0:0:0:0:
64,192,18280,1,0,0:0:0:0:
192,192,18336,1,0,0:0:0:0:
320,192,18394,1,0,0:0:0:0:
448,192,18450,1,0,0:0:0:0:
64,192,18506,1,0,0:0:0:0:
192,192,18506,1,0,0:0:0:0:
320,192,18563,1,0,0:0:0:0:
448,192,18563,1,0,0:0:0:0:
64,192,18620,1,0,0:0:0:0:
192,192,18620,1,0,0:0:0:0:
448,192,18676,1,0,0:0:0:0:
320,192,18733,1,0,0:0:0:0:
192,192,18789,1,0,0:0:0:0:
64,192,18846,1,0,0:0:0:0:
192,192,18903,1,0,0:0:0:0:
320,192,18959,1,0,0:0:0:0:
448,192,18959,1,0,0:0:0:0:
192,192,19016,1,0,0:0:0:0:
64,192,19016,1,0,0:0:0:0:
320,192,19073,1,0,0:0:0:0:
448,192,19073,1,0,0:0:0:0:
192,192,19129,1,0,0:0:0:0:
64,192,19186,1,0,0:0:0:0:
192,192,19243,1,0,0:0:0:0:
320,192,19299,1,0,0:0:0:0:
64,192,19356,1,0,0:0:0:0:
320,192,19412,1,0,0:0:0:0:
192,192,19469,1,0,0:0:0:0:
64,192,19526,1,0,0:0:0:0:
192,192,19582,1,0,0:0:0:0:
320,192,19639,1,0,0:0:0:0:
448,192,19696,1,0,0:0:0:0:
192,192,19752,1,0,0:0:0:0:
320,192,19809,1,0,0:0:0:0:
192,192,19866,1,0,0:0:0:0:
64,192,19866,1,0,0:0:0:0:
320,192,19922,1,0,0:0:0:0:
448,192,19922,1,0,0:0:0:0:
192,192,19979,1,0,0:0:0:0:
64,192,19979,1,0,0:0:0:0:
320,192,20035,1,0,0:0:0:0:
448,192,20092,1,0,0:0:0:0:
320,192,20149,1,0,0:0:0:0:
64,192,20205,1,0,0:0:0:0:
192,192,20205,1,0,0:0:0:0:
320,192,20262,1,0,0:0:0:0:
64,192,20319,1,0,0:0:0:0:
192,192,20375,1,0,0:0:0:0:
320,192,20431,1,0,0:0:0:0:
448,192,20431,1,0,0:0:0:0:
192,192,20489,1,0,0:0:0:0:
64,192,20545,1,0,0:0:0:0:
320,192,20601,1,0,0:0:0:0:
64,192,20658,1,0,0:0:0:0:
192,192,20658,1,0,0:0:0:0:
320,192,20715,1,0,0:0:0:0:
448,192,20771,1,0,0:0:0:0:
64,192,20828,1,0,0:0:0:0:
192,192,20885,1,0,0:0:0:0:
320,192,20885,1,0,0:0:0:0:
448,192,20941,1,0,0:0:0:0:
320,192,20998,1,0,0:0:0:0:
192,192,21054,1,0,0:0:0:0:
320,192,21111,1,0,0:0:0:0:
448,192,21111,1,0,0:0:0:0:
192,192,21168,1,0,0:0:0:0:
64,192,21168,1,0,0:0:0:0:
320,192,21224,1,0,0:0:0:0:
448,192,21224,1,0,0:0:0:0:
192,192,21281,1,0,0:0:0:0:
64,192,21281,1,0,0:0:0:0:
320,192,21338,1,0,0:0:0:0:
448,192,21338,1,0,0:0:0:0:
192,192,21394,1,0,0:0:0:0:
64,192,21394,1,0,0:0:0:0:
320,192,21451,1,0,0:0:0:0:
448,192,21451,1,0,0:0:0:0:
192,192,21508,1,0,0:0:0:0:
64,192,21508,1,0,0:0:0:0:
320,192,21564,1,0,0:0:0:0:
448,192,21564,1,0,0:0:0:0:
64,192,21621,1,0,0:0:0:0:
192,192,21621,1,0,0:0:0:0:
320,192,21677,1,0,0:0:0:0:
448,192,21677,1,0,0:0:0:0:
192,192,21734,1,0,0:0:0:0:
64,192,21734,1,0,0:0:0:0:
320,192,21791,1,0,0:0:0:0:
448,192,21791,1,0,0:0:0:0:
192,192,21847,1,0,0:0:0:0:
64,192,21904,1,0,0:0:0:0:
192,192,21961,1,0,0:0:0:0:
320,192,22017,1,0,0:0:0:0:
64,192,22017,1,0,0:0:0:0:
448,192,22074,1,0,0:0:0:0:
320,192,22131,1,0,0:0:0:0:
64,192,22187,1,0,0:0:0:0:
192,192,22244,1,0,0:0:0:0:
320,192,22300,1,0,0:0:0:0:
448,192,22357,1,0,0:0:0:0:
320,192,22414,1,0,0:0:0:0:
192,192,22470,1,0,0:0:0:0:
64,192,22470,1,0,0:0:0:0:
448,192,22526,1,0,0:0:0:0:
192,192,22584,1,0,0:0:0:0:
320,192,22640,1,0,0:0:0:0:
64,192,22696,1,0,0:0:0:0:
448,192,22696,1,0,0:0:0:0:
320,192,22754,1,0,0:0:0:0:
192,192,22810,1,0,0:0:0:0:
64,192,22866,1,0,0:0:0:0:
320,192,22923,1,0,0:0:0:0:
448,192,22923,1,0,0:0:0:0:
192,192,22980,1,0,0:0:0:0:
320,192,23036,1,0,0:0:0:0:
64,192,23093,1,0,0:0:0:0:
192,192,23149,1,0,0:0:0:0:
320,192,23206,1,0,0:0:0:0:
448,192,23263,1,0,0:0:0:0:
320,192,23319,1,0,0:0:0:0:
64,192,23376,1,0,0:0:0:0:
192,192,23376,1,0,0:0:0:0:
320,192,23433,1,0,0:0:0:0:
448,192,23489,1,0,0:0:0:0:
192,192,23546,1,0,0:0:0:0:
64,192,23603,1,0,0:0:0:0:
320,192,23603,1,0,0:0:0:0:
448,192,23659,1,0,0:0:0:0:
192,192,23716,1,0,0:0:0:0:
64,192,23772,1,0,0:0:0:0:
320,192,23829,1,0,0:0:0:0:
448,192,23829,1,0,0:0:0:0:
192,192,23886,1,0,0:0:0:0:
64,192,23942,1,0,0:0:0:0:
192,192,23999,1,0,0:0:0:0:
320,192,24056,1,0,0:0:0:0:
448,192,24112,1,0,0:0:0:0:
192,192,24169,1,0,0:0:0:0:
64,192,24226,1,0,0:0:0:0:
320,192,24282,1,0,0:0:0:0:
448,192,24282,1,0,0:0:0:0:
192,192,24339,1,0,0:0:0:0:
64,192,24395,1,0,0:0:0:0:
320,192,24452,1,0,0:0:0:0:
64,192,24509,1,0,0:0:0:0:
448,192,24509,1,0,0:0:0:0:
192,192,24565,1,0,0:0:0:0:
320,192,24622,1,0,0:0:0:0:
448,192,24679,1,0,0:0:0:0:
64,192,24735,1,0,0:0:0:0:
192,192,24735,1,0,0:0:0:0:
320,192,24791,1,0,0:0:0:0:
64,192,24849,1,0,0:0:0:0:
192,192,24905,1,0,0:0:0:0:
320,192,24961,1,0,0:0:0:0:
448,192,25018,1,0,0:0:0:0:
64,192,25075,1,0,0:0:0:0:
192,192,25131,1,0,0:0:0:0:
320,192,25188,1,0,0:0:0:0:
448,192,25188,1,0,0:0:0:0:
192,192,25245,1,0,0:0:0:0:
64,192,25301,1,0,0:0:0:0:
320,192,25358,1,0,0:0:0:0:
192,192,25414,1,0,0:0:0:0:
448,192,25414,1,0,0:0:0:0:
64,192,25471,1,0,0:0:0:0:
192,192,25528,1,0,0:0:0:0:
320,192,25584,1,0,0:0:0:0:
64,192,25641,1,0,0:0:0:0:
192,192,25641,1,0,0:0:0:0:
448,192,25698,1,0,0:0:0:0:
320,192,25754,1,0,0:0:0:0:
192,192,25811,1,0,0:0:0:0:
64,192,25868,1,0,0:0:0:0:
320,192,25924,1,0,0:0:0:0:
192,192,25981,1,0,0:0:0:0:
64,192,26037,1,0,0:0:0:0:
320,192,26094,1,0,0:0:0:0:
448,192,26094,1,0,0:0:0:0:
192,192,26151,1,0,0:0:0:0:
64,192,26207,1,0,0:0:0:0:
320,192,26264,1,0,0:0:0:0:
192,192,26321,1,0,0:0:0:0:
448,192,26321,1,0,0:0:0:0:
320,192,26377,1,0,0:0:0:0:
192,192,26434,1,0,0:0:0:0:
64,192,26491,1,0,0:0:0:0:
320,192,26547,1,0,0:0:0:0:
448,192,26547,1,0,0:0:0:0:
192,192,26604,1,0,0:0:0:0:
64,192,26660,1,0,0:0:0:0:
320,192,26717,1,0,0:0:0:0:
192,192,26774,1,0,0:0:0:0:
448,192,26830,1,0,0:0:0:0:
320,192,26886,1,0,0:0:0:0:
192,192,26944,1,0,0:0:0:0:
320,192,27000,1,0,0:0:0:0:
448,192,27000,1,0,0:0:0:0:
192,192,27056,1,0,0:0:0:0:
64,192,27114,1,0,0:0:0:0:
320,192,27170,1,0,0:0:0:0:
192,192,27226,1,0,0:0:0:0:
448,192,27226,1,0,0:0:0:0:
320,192,27283,1,0,0:0:0:0:
64,192,27340,1,0,0:0:0:0:
192,192,27396,1,0,0:0:0:0:
320,192,27453,1,0,0:0:0:0:
448,192,27453,1,0,0:0:0:0:
64,192,27509,1,0,0:0:0:0:
320,192,27566,1,0,0:0:0:0:
448,192,27623,1,0,0:0:0:0:
320,192,27679,1,0,0:0:0:0:
192,192,27736,1,0,0:0:0:0:
64,192,27793,1,0,0:0:0:0:
192,192,27849,1,0,0:0:0:0:
320,192,27906,1,0,0:0:0:0:
448,192,27906,1,0,0:0:0:0:
192,192,27963,1,0,0:0:0:0:
64,192,28019,1,0,0:0:0:0:
320,192,28076,1,0,0:0:0:0:
192,192,28132,1,0,0:0:0:0:
448,192,28132,1,0,0:0:0:0:
64,192,28189,1,0,0:0:0:0:
320,192,28246,1,0,0:0:0:0:
192,192,28302,1,0,0:0:0:0:
320,192,28359,1,0,0:0:0:0:
448,192,28359,1,0,0:0:0:0:
192,192,28416,1,0,0:0:0:0:
64,192,28472,1,0,0:0:0:0:
320,192,28529,1,0,0:0:0:0:
192,192,28586,1,0,0:0:0:0:
64,192,28642,1,0,0:0:0:0:
320,192,28699,1,0,0:0:0:0:
448,192,28755,1,0,0:0:0:0:
192,192,28812,1,0,0:0:0:0:
64,192,28812,1,0,0:0:0:0:
320,192,28869,1,0,0:0:0:0:
448,192,28925,1,0,0:0:0:0:
320,192,28982,1,0,0:0:0:0:
64,192,29039,1,0,0:0:0:0:
192,192,29039,1,0,0:0:0:0:
320,192,29095,1,0,0:0:0:0:
448,192,29151,1,0,0:0:0:0:
64,192,29209,1,0,0:0:0:0:
192,192,29265,1,0,0:0:0:0:
320,192,29321,1,0,0:0:0:0:
448,192,29378,1,0,0:0:0:0:
64,192,29435,1,0,0:0:0:0:
192,192,29491,1,0,0:0:0:0:
320,192,29548,1,0,0:0:0:0:
448,192,29605,1,0,0:0:0:0:
320,192,29661,1,0,0:0:0:0:
192,192,29718,1,0,0:0:0:0:
64,192,29774,1,0,0:0:0:0:
448,192,29831,1,0,0:0:0:0:
320,192,29888,1,0,0:0:0:0:
64,192,29944,1,0,0:0:0:0:
192,192,29944,1,0,0:0:0:0:
320,192,30001,1,0,0:0:0:0:
448,192,30058,1,0,0:0:0:0:
64,192,30114,1,0,0:0:0:0:
192,192,30171,1,0,0:0:0:0:
320,192,30228,1,0,0:0:0:0:
448,192,30284,1,0,0:0:0:0:
64,192,30341,1,0,0:0:0:0:
192,192,30397,1,0,0:0:0:0:
320,192,30454,1,0,0:0:0:0:
448,192,30511,1,0,0:0:0:0:
320,192,30567,1,0,0:0:0:0:
192,192,30624,1,0,0:0:0:0:
64,192,30681,1,0,0:0:0:0:
448,192,30737,1,0,0:0:0:0:
320,192,30794,1,0,0:0:0:0:
64,192,30851,1,0,0:0:0:0:
192,192,30851,1,0,0:0:0:0:
320,192,30907,1,0,0:0:0:0:
448,192,30964,1,0,0:0:0:0:
64,192,31020,1,0,0:0:0:0:
192,192,31077,1,0,0:0:0:0:
320,192,31134,1,0,0:0:0:0:
448,192,31190,1,0,0:0:0:0:
320,192,31246,1,0,0:0:0:0:
64,192,31304,1,0,0:0:0:0:
192,192,31304,1,0,0:0:0:0:
320,192,31360,1,0,0:0:0:0:
448,192,31416,1,0,0:0:0:0:
64,192,31474,1,0,0:0:0:0:
192,192,31530,1,0,0:0:0:0:
320,192,31586,1,0,0:0:0:0:
448,192,31643,1,0,0:0:0:0:
320,192,31700,1,0,0:0:0:0:
64,192,31756,1,0,0:0:0:0:
192,192,31756,1,0,0:0:0:0:
320,192,31813,1,0,0:0:0:0:
448,192,31869,1,0,0:0:0:0:
64,192,31926,1,0,0:0:0:0:
192,192,31983,1,0,0:0:0:0:
320,192,32039,1,0,0:0:0:0:
448,192,32096,1,0,0:0:0:0:
320,192,32153,1,0,0:0:0:0:
192,192,32209,1,0,0:0:0:0:
64,192,32209,1,0,0:0:0:0:
320,192,32266,1,0,0:0:0:0:
448,192,32323,1,0,0:0:0:0:
64,192,32379,1,0,0:0:0:0:
192,192,32436,1,0,0:0:0:0:
320,192,32492,1,0,0:0:0:0:
448,192,32549,1,0,0:0:0:0:
320,192,32606,1,0,0:0:0:0:
64,192,32662,1,0,0:0:0:0:
192,192,32662,1,0,0:0:0:0:
448,192,32776,1,0,0:0:0:0:
192,192,32889,1,0,0:0:0:0:
64,192,32889,1,0,0:0:0:0:
448,192,33002,1,0,0:0:0:0:
192,192,33115,1,0,0:0:0:0:
64,192,33115,1,0,0:0:0:0:
448,192,33229,1,0,0:0:0:0:
192,192,33342,1,0,0:0:0:0:
64,192,33342,1,0,0:0:0:0:
448,192,33455,1,0,0:0:0:0:
64,192,33569,1,0,0:0:0:0:
192,192,33569,1,0,0:0:0:0:
320,192,33569,1,0,0:0:0:0:
64,192,33681,1,0,0:0:0:0:
320,192,33681,1,0,0:0:0:0:
448,192,33681,1,0,0:0:0:0:
192,192,33795,1,0,0:0:0:0:
448,192,33795,1,0,0:0:0:0:
64,192,33795,1,0,0:0:0:0:
192,192,33908,1,0,0:0:0:0:
320,192,33908,1,0,0:0:0:0:
448,192,33908,1,0,0:0:0:0:
64,192,34021,1,0,0:0:0:0:
192,192,34021,1,0,0:0:0:0:
320,192,34021,1,0,0:0:0:0:
192,192,34134,1,0,0:0:0:0:
448,192,34134,1,0,0:0:0:0:
64,192,34134,1,0,0:0:0:0:
192,192,34248,1,0,0:0:0:0:
320,192,34248,1,0,0:0:0:0:
448,192,34248,1,0,0:0:0:0:
64,192,34361,1,0,0:0:0:0:
320,192,34361,1,0,0:0:0:0:
448,192,34361,1,0,0:0:0:0:
192,192,34474,1,0,0:0:0:0:
64,192,34474,1,0,0:0:0:0:
320,192,34474,1,0,0:0:0:0:
448,192,34531,1,0,0:0:0:0:
320,192,34588,1,0,0:0:0:0:
192,192,34644,1,0,0:0:0:0:
64,192,34701,1,0,0:0:0:0:
448,192,34701,1,0,0:0:0:0:
320,192,34757,1,0,0:0:0:0:
192,192,34814,1,0,0:0:0:0:
64,192,34871,1,0,0:0:0:0:
320,192,34927,1,0,0:0:0:0:
448,192,34927,1,0,0:0:0:0:
192,192,34984,1,0,0:0:0:0:
320,192,35041,1,0,0:0:0:0:
64,192,35097,1,0,0:0:0:0:
192,192,35154,1,0,0:0:0:0:
448,192,35154,1,0,0:0:0:0:
320,192,35211,1,0,0:0:0:0:
448,192,35267,1,0,0:0:0:0:
320,192,35324,1,0,0:0:0:0:
64,192,35380,1,0,0:0:0:0:
192,192,35380,1,0,0:0:0:0:
448,192,35380,1,0,0:0:0:0:
320,192,35437,1,0,0:0:0:0:
192,192,35494,1,0,0:0:0:0:
64,192,35550,1,0,0:0:0:0:
320,192,35606,1,0,0:0:0:0:
448,192,35606,1,0,0:0:0:0:
192,192,35664,1,0,0:0:0:0:
64,192,35720,1,0,0:0:0:0:
320,192,35776,1,0,0:0:0:0:
64,192,35834,1,0,0:0:0:0:
192,192,35834,1,0,0:0:0:0:
448,192,35890,1,0,0:0:0:0:
64,192,35946,1,0,0:0:0:0:
192,192,35946,1,0,0:0:0:0:
448,192,36003,1,0,0:0:0:0:
64,192,36060,1,0,0:0:0:0:
192,192,36060,1,0,0:0:0:0:
448,192,36116,1,0,0:0:0:0:
320,192,36173,1,0,0:0:0:0:
192,192,36229,1,0,0:0:0:0:
64,192,36286,1,0,0:0:0:0:
320,192,36286,1,0,0:0:0:0:
448,192,36286,1,0,0:0:0:0:
192,192,36343,1,0,0:0:0:0:
320,192,36399,1,0,0:0:0:0:
448,192,36456,1,0,0:0:0:0:
192,192,36513,1,0,0:0:0:0:
64,192,36513,1,0,0:0:0:0:
320,192,36569,1,0,0:0:0:0:
192,192,36626,1,0,0:0:0:0:
64,192,36683,1,0,0:0:0:0:
320,192,36739,1,0,0:0:0:0:
448,192,36739,1,0,0:0:0:0:
64,192,36796,1,0,0:0:0:0:
192,192,36852,1,0,0:0:0:0:
448,192,36909,1,0,0:0:0:0:
320,192,36966,1,0,0:0:0:0:
64,192,36966,1,0,0:0:0:0:
192,192,37022,1,0,0:0:0:0:
448,192,37079,1,0,0:0:0:0:
320,192,37136,1,0,0:0:0:0:
64,192,37192,1,0,0:0:0:0:
192,192,37192,1,0,0:0:0:0:
448,192,37192,1,0,0:0:0:0:
320,192,37249,1,0,0:0:0:0:
64,192,37306,1,0,0:0:0:0:
192,192,37362,1,0,0:0:0:0:
64,192,37419,1,0,0:0:0:0:
320,192,37419,1,0,0:0:0:0:
192,192,37475,1,0,0:0:0:0:
320,192,37532,1,0,0:0:0:0:
448,192,37589,1,0,0:0:0:0:
64,192,37645,1,0,0:0:0:0:
192,192,37645,1,0,0:0:0:0:
320,192,37702,1,0,0:0:0:0:
448,192,37702,1,0,0:0:0:0:
192,192,37759,1,0,0:0:0:0:
64,192,37759,1,0,0:0:0:0:
320,192,37815,1,0,0:0:0:0:
192,192,37871,1,0,0:0:0:0:
448,192,37871,1,0,0:0:0:0:
320,192,37929,1,0,0:0:0:0:
64,192,37985,1,0,0:0:0:0:
448,192,37985,1,0,0:0:0:0:
192,192,38041,1,0,0:0:0:0:
448,192,38098,1,0,0:0:0:0:
320,192,38098,1,0,0:0:0:0:
64,192,38098,1,0,0:0:0:0:
192,192,38155,1,0,0:0:0:0:
448,192,38211,1,0,0:0:0:0:
320,192,38268,1,0,0:0:0:0:
64,192,38325,1,0,0:0:0:0:
448,192,38325,1,0,0:0:0:0:
192,192,38381,1,0,0:0:0:0:
320,192,38438,1,0,0:0:0:0:
448,192,38494,1,0,0:0:0:0:
64,192,38551,1,0,0:0:0:0:
192,192,38551,1,0,0:0:0:0:
320,192,38608,1,0,0:0:0:0:
192,192,38664,1,0,0:0:0:0:
448,192,38721,1,0,0:0:0:0:
64,192,38778,1,0,0:0:0:0:
320,192,38778,1,0,0:0:0:0:
192,192,38834,1,0,0:0:0:0:
320,192,38891,1,0,0:0:0:0:
192,192,38948,1,0,0:0:0:0:
64,192,39004,1,0,0:0:0:0:
320,192,39004,1,0,0:0:0:0:
448,192,39004,1,0,0:0:0:0:
192,192,39061,1,0,0:0:0:0:
320,192,39117,1,0,0:0:0:0:
448,192,39174,1,0,0:0:0:0:
64,192,39231,1,0,0:0:0:0:
192,192,39231,1,0,0:0:0:0:
320,192,39287,1,0,0:0:0:0:
448,192,39344,1,0,0:0:0:0:
192,192,39401,1,0,0:0:0:0:
320,192,39457,1,0,0:0:0:0:
448,192,39457,1,0,0:0:0:0:
64,192,39514,1,0,0:0:0:0:
320,192,39571,1,0,0:0:0:0:
448,192,39571,1,0,0:0:0:0:
64,192,39627,1,0,0:0:0:0:
320,192,39684,1,0,0:0:0:0:
448,192,39684,1,0,0:0:0:0:
64,192,39740,1,0,0:0:0:0:
192,192,39797,1,0,0:0:0:0:
320,192,39854,1,0,0:0:0:0:
64,192,39910,1,0,0:0:0:0:
192,192,39910,1,0,0:0:0:0:
448,192,39910,1,0,0:0:0:0:
320,192,39966,1,0,0:0:0:0:
192,192,40024,1,0,0:0:0:0:
64,192,40080,1,0,0:0:0:0:
448,192,40136,1,0,0:0:0:0:
320,192,40136,1,0,0:0:0:0:
192,192,40194,1,0,0:0:0:0:
320,192,40250,1,0,0:0:0:0:
448,192,40306,1,0,0:0:0:0:
64,192,40363,1,0,0:0:0:0:
192,192,40363,1,0,0:0:0:0:
448,192,40420,1,0,0:0:0:0:
320,192,40476,1,0,0:0:0:0:
64,192,40533,1,0,0:0:0:0:
448,192,40589,1,0,0:0:0:0:
192,192,40589,1,0,0:0:0:0:
320,192,40646,1,0,0:0:0:0:
64,192,40703,1,0,0:0:0:0:
192,192,40759,1,0,0:0:0:0:
64,192,40816,1,0,0:0:0:0:
320,192,40816,1,0,0:0:0:0:
448,192,40816,1,0,0:0:0:0:
192,192,40873,1,0,0:0:0:0:
448,192,40929,1,0,0:0:0:0:
320,192,40986,1,0,0:0:0:0:
192,192,41043,1,0,0:0:0:0:
448,192,41043,1,0,0:0:0:0:
320,192,41099,1,0,0:0:0:0:
64,192,41099,1,0,0:0:0:0:
192,192,41156,1,0,0:0:0:0:
64,192,41212,1,0,0:0:0:0:
320,192,41269,1,0,0:0:0:0:
448,192,41269,1,0,0:0:0:0:
64,192,41326,1,0,0:0:0:0:
192,192,41326,1,0,0:0:0:0:
448,192,41382,1,0,0:0:0:0:
320,192,41382,1,0,0:0:0:0:
192,192,41439,1,0,0:0:0:0:
64,192,41496,1,0,0:0:0:0:
320,192,41496,1,0,0:0:0:0:
192,192,41552,1,0,0:0:0:0:
64,192,41609,1,0,0:0:0:0:
448,192,41609,1,0,0:0:0:0:
192,192,41666,1,0,0:0:0:0:
64,192,41722,1,0,0:0:0:0:
320,192,41722,1,0,0:0:0:0:
448,192,41722,1,0,0:0:0:0:
192,192,41779,1,0,0:0:0:0:
64,192,41835,1,0,0:0:0:0:
448,192,41892,1,0,0:0:0:0:
320,192,41949,1,0,0:0:0:0:
192,192,41949,1,0,0:0:0:0:
64,192,42005,1,0,0:0:0:0:
448,192,42062,1,0,0:0:0:0:
192,192,42175,1,0,0:0:0:0:
320,192,42175,1,0,0:0:0:0:
64,192,42231,1,0,0:0:0:0:
320,192,42289,1,0,0:0:0:0:
448,192,42345,1,0,0:0:0:0:
192,192,42401,1,0,0:0:0:0:
64,192,42401,1,0,0:0:0:0:
320,192,42458,1,0,0:0:0:0:
448,192,42515,1,0,0:0:0:0:
320,192,42571,1,0,0:0:0:0:
64,192,42628,1,0,0:0:0:0:
192,192,42628,1,0,0:0:0:0:
448,192,42628,1,0,0:0:0:0:
320,192,42685,1,0,0:0:0:0:
192,192,42741,1,0,0:0:0:0:
320,192,42798,1,0,0:0:0:0:
64,192,42854,1,0,0:0:0:0:
448,192,42854,1,0,0:0:0:0:
192,192,42911,1,0,0:0:0:0:
320,192,42968,1,0,0:0:0:0:
448,192,43024,1,0,0:0:0:0:
192,192,43081,1,0,0:0:0:0:
64,192,43081,1,0,0:0:0:0:
320,192,43138,1,0,0:0:0:0:
64,192,43194,1,0,0:0:0:0:
448,192,43251,1,0,0:0:0:0:
192,192,43308,1,0,0:0:0:0:
320,192,43308,1,0,0:0:0:0:
64,192,43364,1,0,0:0:0:0:
320,192,43421,1,0,0:0:0:0:
192,192,43477,1,0,0:0:0:0:
64,192,43534,1,0,0:0:0:0:
320,192,43534,1,0,0:0:0:0:
448,192,43534,1,0,0:0:0:0:
192,192,43591,1,0,0:0:0:0:
320,192,43647,1,0,0:0:0:0:
448,192,43704,1,0,0:0:0:0:
192,192,43761,1,0,0:0:0:0:
64,192,43761,1,0,0:0:0:0:
320,192,43817,1,0,0:0:0:0:
448,192,43874,1,0,0:0:0:0:
320,192,43931,1,0,0:0:0:0:
192,192,43987,1,0,0:0:0:0:
448,192,43987,1,0,0:0:0:0:
320,192,44044,1,0,0:0:0:0:
192,192,44100,1,0,0:0:0:0:
64,192,44157,1,0,0:0:0:0:
320,192,44214,1,0,0:0:0:0:
448,192,44214,1,0,0:0:0:0:
192,192,44270,1,0,0:0:0:0:
64,192,44326,1,0,0:0:0:0:
320,192,44384,1,0,0:0:0:0:
192,192,44440,1,0,0:0:0:0:
64,192,44440,1,0,0:0:0:0:
448,192,44440,1,0,0:0:0:0:
320,192,44496,1,0,0:0:0:0:
192,192,44554,1,0,0:0:0:0:
64,192,44610,1,0,0:0:0:0:
320,192,44666,1,0,0:0:0:0:
448,192,44666,1,0,0:0:0:0:
192,192,44723,1,0,0:0:0:0:
320,192,44780,1,0,0:0:0:0:
64,192,44836,1,0,0:0:0:0:
448,192,44893,1,0,0:0:0:0:
192,192,44893,1,0,0:0:0:0:
320,192,44949,1,0,0:0:0:0:
64,192,44949,1,0,0:0:0:0:
192,192,45006,1,0,0:0:0:0:
448,192,45006,1,0,0:0:0:0:
320,192,45063,1,0,0:0:0:0:
192,192,45119,1,0,0:0:0:0:
64,192,45119,1,0,0:0:0:0:
320,192,45176,1,0,0:0:0:0:
192,192,45233,1,0,0:0:0:0:
448,192,45233,1,0,0:0:0:0:
64,192,45289,1,0,0:0:0:0:
320,192,45289,1,0,0:0:0:0:
192,192,45346,1,0,0:0:0:0:
448,192,45346,1,0,0:0:0:0:
64,192,45403,1,0,0:0:0:0:
448,192,45459,1,0,0:0:0:0:
64,192,45516,1,0,0:0:0:0:
192,192,45572,1,0,0:0:0:0:
320,192,45572,1,0,0:0:0:0:
448,192,45629,1,0,0:0:0:0:
64,192,45686,1,0,0:0:0:0:
320,192,45799,1,0,0:0:0:0:
192,192,45799,1,0,0:0:0:0:
448,192,45856,1,0,0:0:0:0:
192,192,45912,1,0,0:0:0:0:
64,192,45969,1,0,0:0:0:0:
320,192,46026,1,0,0:0:0:0:
448,192,46026,1,0,0:0:0:0:
192,192,46082,1,0,0:0:0:0:
64,192,46139,1,0,0:0:0:0:
192,192,46195,1,0,0:0:0:0:
448,192,46252,1,0,0:0:0:0:
320,192,46252,1,0,0:0:0:0:
64,192,46252,1,0,0:0:0:0:
192,192,46309,1,0,0:0:0:0:
320,192,46365,1,0,0:0:0:0:
192,192,46422,1,0,0:0:0:0:
448,192,46479,1,0,0:0:0:0:
64,192,46479,1,0,0:0:0:0:
320,192,46535,1,0,0:0:0:0:
192,192,46591,1,0,0:0:0:0:
64,192,46649,1,0,0:0:0:0:
320,192,46705,1,0,0:0:0:0:
448,192,46705,1,0,0:0:0:0:
192,192,46761,1,0,0:0:0:0:
448,192,46818,1,0,0:0:0:0:
64,192,46875,1,0,0:0:0:0:
320,192,46931,1,0,0:0:0:0:
192,192,46931,1,0,0:0:0:0:
448,192,46988,1,0,0:0:0:0:
192,192,47045,1,0,0:0:0:0:
320,192,47101,1,0,0:0:0:0:
448,192,47158,1,0,0:0:0:0:
192,192,47158,1,0,0:0:0:0:
64,192,47158,1,0,0:0:0:0:
320,192,47214,1,0,0:0:0:0:
192,192,47271,1,0,0:0:0:0:
64,192,47328,1,0,0:0:0:0:
320,192,47384,1,0,0:0:0:0:
448,192,47384,1,0,0:0:0:0:
192,192,47441,1,0,0:0:0:0:
64,192,47498,1,0,0:0:0:0:
192,192,47554,1,0,0:0:0:0:
320,192,47611,1,0,0:0:0:0:
64,192,47611,1,0,0:0:0:0:
192,192,47668,1,0,0:0:0:0:
320,192,47724,1,0,0:0:0:0:
448,192,47781,1,0,0:0:0:0:
192,192,47837,1,0,0:0:0:0:
64,192,47837,1,0,0:0:0:0:
320,192,47894,1,0,0:0:0:0:
448,192,47951,1,0,0:0:0:0:
192,192,48007,1,0,0:0:0:0:
320,192,48064,1,0,0:0:0:0:
448,192,48064,1,0,0:0:0:0:
64,192,48064,1,0,0:0:0:0:
192,192,48121,5,0,0:0:0:0:
320,192,48177,1,0,0:0:0:0:
448,192,48234,1,0,0:0:0:0:
192,192,48291,1,0,0:0:0:0:
64,192,48291,1,0,0:0:0:0:
320,192,48347,1,0,0:0:0:0:
192,192,48404,1,0,0:0:0:0:
448,192,48460,1,0,0:0:0:0:
64,192,48517,1,0,0:0:0:0:
320,192,48517,1,0,0:0:0:0:
192,192,48574,1,0,0:0:0:0:
448,192,48574,1,0,0:0:0:0:
320,192,48630,1,0,0:0:0:0:
64,192,48630,1,0,0:0:0:0:
192,192,48686,1,0,0:0:0:0:
320,192,48744,1,0,0:0:0:0:
448,192,48744,1,0,0:0:0:0:
192,192,48800,1,0,0:0:0:0:
320,192,48856,1,0,0:0:0:0:
64,192,48856,1,0,0:0:0:0:
448,192,48914,1,0,0:0:0:0:
192,192,48914,1,0,0:0:0:0:
64,192,48970,1,0,0:0:0:0:
320,192,48970,1,0,0:0:0:0:
192,192,49083,1,0,0:0:0:0:
320,192,49083,1,0,0:0:0:0:
64,192,49196,1,0,0:0:0:0:
448,192,49196,1,0,0:0:0:0:
320,192,49309,1,0,0:0:0:0:
448,192,49309,1,0,0:0:0:0:
192,192,49423,1,0,0:0:0:0:
64,192,49423,1,0,0:0:0:0:
448,192,49423,1,0,0:0:0:0:
320,192,49536,1,0,0:0:0:0:
192,192,49536,1,0,0:0:0:0:
64,192,49649,1,0,0:0:0:0:
320,192,49649,1,0,0:0:0:0:
448,192,49763,1,0,0:0:0:0:
192,192,49763,1,0,0:0:0:0:
320,192,49819,1,0,0:0:0:0:
64,192,49876,1,0,0:0:0:0:
192,192,49876,1,0,0:0:0:0:
448,192,49876,1,0,0:0:0:0:
320,192,49989,1,0,0:0:0:0:
64,192,49989,1,0,0:0:0:0:
192,192,50102,1,0,0:0:0:0:
320,192,50102,1,0,0:0:0:0:
448,192,50216,1,0,0:0:0:0:
64,192,50216,1,0,0:0:0:0:
64,192,50329,1,0,0:0:0:0:
192,192,50329,1,0,0:0:0:0:
192,192,50442,1,0,0:0:0:0:
320,192,50442,1,0,0:0:0:0:
64,192,50555,1,0,0:0:0:0:
320,192,50555,1,0,0:0:0:0:
192,192,50669,1,0,0:0:0:0:
448,192,50669,1,0,0:0:0:0:
320,192,50725,1,0,0:0:0:0:
192,192,50782,1,0,0:0:0:0:
448,192,50782,1,0,0:0:0:0:
64,192,50782,1,0,0:0:0:0:
64,192,50895,1,0,0:0:0:0:
320,192,50895,1,0,0:0:0:0:
64,192,51009,1,0,0:0:0:0:
192,192,51009,1,0,0:0:0:0:
192,192,51121,1,0,0:0:0:0:
448,192,51121,1,0,0:0:0:0:
64,192,51235,1,0,0:0:0:0:
320,192,51235,1,0,0:0:0:0:
448,192,51235,1,0,0:0:0:0:
192,192,51348,1,0,0:0:0:0:
320,192,51348,1,0,0:0:0:0:
64,192,51461,1,0,0:0:0:0:
192,192,51461,1,0,0:0:0:0:
448,192,51574,1,0,0:0:0:0:
192,192,51574,1,0,0:0:0:0:
320,192,51631,1,0,0:0:0:0:
64,192,51688,1,0,0:0:0:0:
192,192,51688,1,0,0:0:0:0:
448,192,51688,1,0,0:0:0:0:
320,192,51801,1,0,0:0:0:0:
448,192,51801,1,0,0:0:0:0:
64,192,51914,1,0,0:0:0:0:
320,192,51914,1,0,0:0:0:0:
192,192,52028,1,0,0:0:0:0:
64,192,52028,1,0,0:0:0:0:
64,192,52141,1,0,0:0:0:0:
192,192,52169,1,0,0:0:0:0:
320,192,52197,1,0,0:0:0:0:
448,192,52226,1,0,0:0:0:0:
64,192,52254,1,0,0:0:0:0:
192,192,52282,1,0,0:0:0:0:
320,192,52311,1,0,0:0:0:0:
448,192,52339,1,0,0:0:0:0:
64,192,52367,1,0,0:0:0:0:
192,192,52396,1,0,0:0:0:0:
320,192,52424,1,0,0:0:0:0:
448,192,52452,1,0,0:0:0:0:
64,192,52481,1,0,0:0:0:0:
192,192,52509,1,0,0:0:0:0:
320,192,52537,1,0,0:0:0:0:
448,192,52566,1,0,0:0:0:0:
64,192,52594,1,0,0:0:0:0:
192,192,52594,1,0,0:0:0:0:
320,192,52651,1,0,0:0:0:0:
192,192,52707,1,0,0:0:0:0:
64,192,52764,1,0,0:0:0:0:
448,192,52820,1,0,0:0:0:0:
320,192,52877,1,0,0:0:0:0:
192,192,52934,1,0,0:0:0:0:
64,192,52990,1,0,0:0:0:0:
320,192,53046,1,0,0:0:0:0:
448,192,53046,1,0,0:0:0:0:
192,192,53104,1,0,0:0:0:0:
64,192,53160,1,0,0:0:0:0:
320,192,53216,1,0,0:0:0:0:
192,192,53274,1,0,0:0:0:0:
64,192,53330,1,0,0:0:0:0:
448,192,53386,1,0,0:0:0:0:
320,192,53443,1,0,0:0:0:0:
64,192,53500,1,0,0:0:0:0:
192,192,53500,1,0,0:0:0:0:
448,192,53556,1,0,0:0:0:0:
320,192,53613,1,0,0:0:0:0:
192,192,53669,1,0,0:0:0:0:
64,192,53726,1,0,0:0:0:0:
448,192,53783,1,0,0:0:0:0:
320,192,53839,1,0,0:0:0:0:
192,192,53896,1,0,0:0:0:0:
320,192,53953,1,0,0:0:0:0:
448,192,53953,1,0,0:0:0:0:
192,192,54009,1,0,0:0:0:0:
64,192,54066,1,0,0:0:0:0:
448,192,54123,1,0,0:0:0:0:
320,192,54179,1,0,0:0:0:0:
192,192,54236,1,0,0:0:0:0:
64,192,54292,1,0,0:0:0:0:
448,192,54349,1,0,0:0:0:0:
64,192,54406,1,0,0:0:0:0:
192,192,54406,1,0,0:0:0:0:
320,192,54462,1,0,0:0:0:0:
192,192,54519,1,0,0:0:0:0:
64,192,54576,1,0,0:0:0:0:
320,192,54632,1,0,0:0:0:0:
448,192,54632,1,0,0:0:0:0:
192,192,54689,1,0,0:0:0:0:
320,192,54746,1,0,0:0:0:0:
448,192,54802,1,0,0:0:0:0:
64,192,54859,1,0,0:0:0:0:
192,192,54859,1,0,0:0:0:0:
320,192,54915,1,0,0:0:0:0:
192,192,54972,1,0,0:0:0:0:
64,192,55029,1,0,0:0:0:0:
320,192,55085,1,0,0:0:0:0:
448,192,55085,1,0,0:0:0:0:
192,192,55142,1,0,0:0:0:0:
320,192,55199,1,0,0:0:0:0:
448,192,55255,1,0,0:0:0:0:
64,192,55311,1,0,0:0:0:0:
192,192,55311,1,0,0:0:0:0:
448,192,55369,5,0,0:0:0:0:
192,192,55425,1,0,0:0:0:0:
64,192,55425,1,0,0:0:0:0:
448,192,55481,1,0,0:0:0:0:
192,192,55538,1,0,0:0:0:0:
64,192,55538,1,0,0:0:0:0:
448,192,55595,1,0,0:0:0:0:
192,192,55651,1,0,0:0:0:0:
64,192,55651,1,0,0:0:0:0:
448,192,55708,1,0,0:0:0:0:
64,192,55765,1,0,0:0:0:0:
192,192,55765,1,0,0:0:0:0:
448,192,55821,1,0,0:0:0:0:
192,192,55878,1,0,0:0:0:0:
64,192,55878,1,0,0:0:0:0:
448,192,55934,1,0,0:0:0:0:
64,192,55991,1,0,0:0:0:0:
192,192,55991,1,0,0:0:0:0:
448,192,56048,1,0,0:0:0:0:
64,192,56104,1,0,0:0:0:0:
192,192,56104,1,0,0:0:0:0:
448,192,56161,1,0,0:0:0:0:
64,192,56218,5,0,0:0:0:0:
320,192,56218,1,0,0:0:0:0:
192,192,56274,1,0,0:0:0:0:
320,192,56331,1,0,0:0:0:0:
448,192,56388,1,0,0:0:0:0:
320,192,56444,1,0,0:0:0:0:
64,192,56501,1,0,0:0:0:0:
192,192,56557,1,0,0:0:0:0:
320,192,56614,1,0,0:0:0:0:
448,192,56671,1,0,0:0:0:0:
64,192,56727,1,0,0:0:0:0:
192,192,56784,1,0,0:0:0:0:
64,192,56841,1,0,0:0:0:0:
192,192,56897,1,0,0:0:0:0:
320,192,56954,1,0,0:0:0:0:
448,192,57011,1,0,0:0:0:0:
320,192,57067,1,0,0:0:0:0:
192,192,57124,1,0,0:0:0:0:
64,192,57180,1,0,0:0:0:0:
192,192,57237,1,0,0:0:0:0:
320,192,57294,1,0,0:0:0:0:
448,192,57350,1,0,0:0:0:0:
320,192,57406,1,0,0:0:0:0:
64,192,57464,1,0,0:0:0:0:
192,192,57520,1,0,0:0:0:0:
64,192,57576,1,0,0:0:0:0:
192,192,57605,1,0,0:0:0:0:
320,192,57634,1,0,0:0:0:0:
448,192,57661,1,0,0:0:0:0:
64,192,57690,1,0,0:0:0:0:
192,192,57718,1,0,0:0:0:0:
320,192,57746,1,0,0:0:0:0:
448,192,57775,1,0,0:0:0:0:
64,192,57803,1,0,0:0:0:0:
192,192,57831,1,0,0:0:0:0:
320,192,57860,1,0,0:0:0:0:
448,192,57888,1,0,0:0:0:0:
64,192,57916,1,0,0:0:0:0:
192,192,57945,1,0,0:0:0:0:
320,192,57973,1,0,0:0:0:0:
448,192,58001,1,0,0:0:0:0:
64,192,58029,1,0,0:0:0:0:
192,192,58029,1,0,0:0:0:0:
448,192,58086,1,0,0:0:0:0:
320,192,58143,1,0,0:0:0:0:
192,192,58199,1,0,0:0:0:0:
64,192,58256,1,0,0:0:0:0:
320,192,58256,1,0,0:0:0:0:
448,192,58313,1,0,0:0:0:0:
192,192,58369,1,0,0:0:0:0:
320,192,58426,1,0,0:0:0:0:
64,192,58483,1,0,0:0:0:0:
192,192,58483,1,0,0:0:0:0:
448,192,58539,1,0,0:0:0:0:
320,192,58596,1,0,0:0:0:0:
192,192,58652,1,0,0:0:0:0:
64,192,58709,1,0,0:0:0:0:
448,192,58709,1,0,0:0:0:0:
320,192,58766,1,0,0:0:0:0:
192,192,58822,1,0,0:0:0:0:
320,192,58879,1,0,0:0:0:0:
64,192,58936,1,0,0:0:0:0:
448,192,58936,1,0,0:0:0:0:
192,192,58936,1,0,0:0:0:0:
320,192,58992,1,0,0:0:0:0:
192,192,59049,1,0,0:0:0:0:
64,192,59106,1,0,0:0:0:0:
320,192,59162,1,0,0:0:0:0:
448,192,59162,1,0,0:0:0:0:
192,192,59219,1,0,0:0:0:0:
320,192,59275,1,0,0:0:0:0:
448,192,59332,1,0,0:0:0:0:
64,192,59389,1,0,0:0:0:0:
192,192,59389,1,0,0:0:0:0:
320,192,59445,1,0,0:0:0:0:
64,192,59502,1,0,0:0:0:0:
192,192,59502,1,0,0:0:0:0:
320,192,59559,1,0,0:0:0:0:
64,192,59615,1,0,0:0:0:0:
192,192,59615,1,0,0:0:0:0:
320,192,59671,1,0,0:0:0:0:
448,192,59729,1,0,0:0:0:0:
192,192,59785,1,0,0:0:0:0:
64,192,59841,1,0,0:0:0:0:
320,192,59841,1,0,0:0:0:0:
448,192,59841,1,0,0:0:0:0:
192,192,59898,1,0,0:0:0:0:
320,192,59955,1,0,0:0:0:0:
448,192,60011,1,0,0:0:0:0:
192,192,60068,1,0,0:0:0:0:
320,192,60068,1,0,0:0:0:0:
64,192,60125,1,0,0:0:0:0:
192,192,60181,1,0,0:0:0:0:
320,192,60238,1,0,0:0:0:0:
448,192,60294,1,0,0:0:0:0:
64,192,60294,1,0,0:0:0:0:
192,192,60351,1,0,0:0:0:0:
320,192,60408,1,0,0:0:0:0:
192,192,60464,1,0,0:0:0:0:
64,192,60521,1,0,0:0:0:0:
448,192,60521,1,0,0:0:0:0:
320,192,60578,1,0,0:0:0:0:
192,192,60634,1,0,0:0:0:0:
320,192,60691,1,0,0:0:0:0:
64,192,60748,1,0,0:0:0:0:
192,192,60748,1,0,0:0:0:0:
448,192,60748,1,0,0:0:0:0:
320,192,60804,1,0,0:0:0:0:
64,192,60861,1,0,0:0:0:0:
192,192,60917,1,0,0:0:0:0:
320,192,60974,1,0,0:0:0:0:
448,192,60974,1,0,0:0:0:0:
192,192,61031,1,0,0:0:0:0:
320,192,61087,1,0,0:0:0:0:
448,192,61144,1,0,0:0:0:0:
64,192,61201,1,0,0:0:0:0:
192,192,61201,1,0,0:0:0:0:
320,192,61257,1,0,0:0:0:0:
448,192,61257,1,0,0:0:0:0:
192,192,61314,1,0,0:0:0:0:
64,192,61314,1,0,0:0:0:0:
320,192,61371,1,0,0:0:0:0:
192,192,61427,1,0,0:0:0:0:
448,192,61427,1,0,0:0:0:0:
320,192,61484,1,0,0:0:0:0:
64,192,61540,1,0,0:0:0:0:
192,192,61540,1,0,0:0:0:0:
320,192,61597,1,0,0:0:0:0:
448,192,61654,1,0,0:0:0:0:
192,192,61654,1,0,0:0:0:0:
64,192,61654,1,0,0:0:0:0:
320,192,61710,1,0,0:0:0:0:
64,192,61766,1,0,0:0:0:0:
192,192,61824,1,0,0:0:0:0:
448,192,61880,1,0,0:0:0:0:
64,192,61880,1,0,0:0:0:0:
320,192,61936,1,0,0:0:0:0:
192,192,61994,1,0,0:0:0:0:
64,192,62050,1,0,0:0:0:0:
320,192,62106,1,0,0:0:0:0:
448,192,62106,1,0,0:0:0:0:
192,192,62163,1,0,0:0:0:0:
64,192,62220,1,0,0:0:0:0:
320,192,62276,1,0,0:0:0:0:
192,192,62333,1,0,0:0:0:0:
448,192,62333,1,0,0:0:0:0:
64,192,62389,1,0,0:0:0:0:
320,192,62446,1,0,0:0:0:0:
192,192,62503,1,0,0:0:0:0:
64,192,62559,1,0,0:0:0:0:
320,192,62559,1,0,0:0:0:0:
448,192,62559,1,0,0:0:0:0:
192,192,62616,1,0,0:0:0:0:
320,192,62673,1,0,0:0:0:0:
64,192,62729,1,0,0:0:0:0:
192,192,62786,1,0,0:0:0:0:
448,192,62786,1,0,0:0:0:0:
320,192,62843,1,0,0:0:0:0:
192,192,62899,1,0,0:0:0:0:
64,192,62956,1,0,0:0:0:0:
320,192,63012,1,0,0:0:0:0:
448,192,63012,1,0,0:0:0:0:
192,192,63069,1,0,0:0:0:0:
320,192,63126,1,0,0:0:0:0:
448,192,63126,1,0,0:0:0:0:
192,192,63182,1,0,0:0:0:0:
320,192,63239,1,0,0:0:0:0:
448,192,63239,1,0,0:0:0:0:
64,192,63296,1,0,0:0:0:0:
192,192,63352,1,0,0:0:0:0:
320,192,63409,1,0,0:0:0:0:
64,192,63466,1,0,0:0:0:0:
192,192,63466,1,0,0:0:0:0:
448,192,63466,1,0,0:0:0:0:
320,192,63522,1,0,0:0:0:0:
448,192,63579,1,0,0:0:0:0:
64,192,63635,1,0,0:0:0:0:
320,192,63692,1,0,0:0:0:0:
448,192,63692,1,0,0:0:0:0:
192,192,63749,1,0,0:0:0:0:
320,192,63805,1,0,0:0:0:0:
448,192,63862,1,0,0:0:0:0:
64,192,63919,1,0,0:0:0:0:
320,192,63919,1,0,0:0:0:0:
192,192,63975,1,0,0:0:0:0:
320,192,64031,1,0,0:0:0:0:
448,192,64089,1,0,0:0:0:0:
64,192,64145,1,0,0:0:0:0:
192,192,64145,1,0,0:0:0:0:
320,192,64201,1,0,0:0:0:0:
448,192,64258,1,0,0:0:0:0:
320,192,64315,1,0,0:0:0:0:
64,192,64371,1,0,0:0:0:0:
192,192,64371,1,0,0:0:0:0:
320,192,64428,1,0,0:0:0:0:
448,192,64428,1,0,0:0:0:0:
192,192,64485,1,0,0:0:0:0:
64,192,64485,1,0,0:0:0:0:
320,192,64541,1,0,0:0:0:0:
448,192,64541,1,0,0:0:0:0:
192,192,64598,1,0,0:0:0:0:
64,192,64598,1,0,0:0:0:0:
320,192,64654,1,0,0:0:0:0:
448,192,64654,1,0,0:0:0:0:
192,192,64711,1,0,0:0:0:0:
64,192,64711,1,0,0:0:0:0:
320,192,64768,1,0,0:0:0:0:
448,192,64768,1,0,0:0:0:0:
192,192,64824,1,0,0:0:0:0:
64,192,64824,1,0,0:0:0:0:
320,192,64881,1,0,0:0:0:0:
448,192,64881,1,0,0:0:0:0:
192,192,64938,1,0,0:0:0:0:
64,192,64938,1,0,0:0:0:0:
320,192,64994,1,0,0:0:0:0:
448,192,64994,1,0,0:0:0:0:
192,192,65051,1,0,0:0:0:0:
64,192,65051,1,0,0:0:0:0:
320,192,65108,1,0,0:0:0:0:
448,192,65108,1,0,0:0:0:0:
192,192,65164,1,0,0:0:0:0:
64,192,65164,1,0,0:0:0:0:
320,192,65221,1,0,0:0:0:0:
64,192,65277,128,0,67996:0:0:0:0:
448,192,65277,128,0,67089:0:0:0:0:
192,192,65277,128,0,67769:0:0:0:0:
