osu file format v14

[General]
AudioFilename: audio.mp3
AudioLeadIn: 0
PreviewTime: 74610
Countdown: 0
SampleSet: Normal
StackLeniency: 0.7
Mode: 3
LetterboxInBreaks: 0
SpecialStyle: 0
WidescreenStoryboard: 0

[Editor]
Bookmarks: 80838,86227,90898
DistanceSpacing: 0.8
BeatDivisor: 6
GridSize: 4
TimelineZoom: 2.4

[Metadata]
Title:Murderous True Millennium Queen
TitleUnicode:殺戮の真千年女王
Artist:Shiraishi
ArtistUnicode:しらいし
Creator:Xingyue
Version:MASTER
Source:BMS
Tags:しらいし Shiraishi bms
BeatmapID:1609661
BeatmapSetID:765588

[Difficulty]
HPDrainRate:8.5
CircleSize:4
OverallDifficulty:7
ApproachRate:5
SliderMultiplier:1.4
SliderTickRate:1

[Events]
//Background and Video events
0,0,"sinSQ.jpg",0,0
//Break Periods
//Storyboard Layer 0 (Background)
//Storyboard Layer 1 (Fail)
//Storyboard Layer 2 (Pass)
//Storyboard Layer 3 (Foreground)
//Storyboard Sound Samples

[TimingPoints]
0,359.281437125748,4,1,0,25,1,0
24431,-100,4,1,0,25,0,1
34610,-133.333333333333,4,1,0,25,0,1
34850,-100,4,1,0,25,0,1
34910,-133.333333333333,4,1,0,25,0,1
35029,-100,4,1,0,25,0,1
35089,-133.333333333333,4,1,0,25,0,1
35209,-100,4,1,0,25,0,1
35269,-133.333333333333,4,1,0,25,0,1
35449,-100,4,1,0,25,0,1
35508,-133.333333333333,4,1,0,25,0,1
35748,-100,4,1,0,25,0,1
45928,-100,4,1,0,25,0,0
46047,-133.333333333333,4,1,0,25,0,0
46347,-100,4,1,0,25,0,0
46407,-133.333333333333,4,1,0,25,0,0
46447,-100,4,1,0,25,0,0
74730,-100,4,1,0,25,0,1
94850,-100,4,1,0,25,0,0

[HitObjects]
64,192,7185,5,0,0:0:0:0:
192,192,7185,1,0,0:0:0:0:
320,192,7185,1,0,0:0:0:0:
448,192,7185,1,0,0:0:0:0:
448,192,7305,1,0,0:0:0:0:
192,192,7305,1,0,0:0:0:0:
320,192,7425,1,0,0:0:0:0:
64,192,7425,1,0,0:0:0:0:
192,192,7544,1,0,0:0:0:0:
448,192,7544,1,0,0:0:0:0:
64,192,7664,1,0,0:0:0:0:
320,192,7664,1,0,0:0:0:0:
192,192,7784,1,0,0:0:0:0:
448,192,7784,1,0,0:0:0:0:
64,192,7904,1,0,0:0:0:0:
448,192,7904,1,0,0:0:0:0:
320,192,7904,1,0,0:0:0:0:
192,192,7904,1,0,0:0:0:0:
448,192,8023,1,0,0:0:0:0:
192,192,8023,1,0,0:0:0:0:
320,192,8143,1,0,0:0:0:0:
64,192,8143,1,0,0:0:0:0:
192,192,8263,1,0,0:0:0:0:
448,192,8263,1,0,0:0:0:0:
320,192,8383,1,0,0:0:0:0:
64,192,8383,1,0,0:0:0:0:
192,192,8502,1,0,0:0:0:0:
448,192,8502,1,0,0:0:0:0:
64,192,8622,1,0,0:0:0:0:
192,192,8622,1,0,0:0:0:0:
320,192,8622,1,0,0:0:0:0:
448,192,8622,1,0,0:0:0:0:
448,192,8742,1,0,0:0:0:0:
192,192,8742,1,0,0:0:0:0:
320,192,8862,1,0,0:0:0:0:
64,192,8862,1,0,0:0:0:0:
192,192,8982,1,0,0:0:0:0:
448,192,8982,1,0,0:0:0:0:
320,192,9101,1,0,0:0:0:0:
64,192,9101,1,0,0:0:0:0:
192,192,9221,1,0,0:0:0:0:
448,192,9221,1,0,0:0:0:0:
192,192,9341,1,0,0:0:0:0:
320,192,9341,1,0,0:0:0:0:
448,192,9341,1,0,0:0:0:0:
64,192,9341,1,0,0:0:0:0:
64,192,9461,1,0,0:0:0:0:
192,192,9461,1,0,0:0:0:0:
320,192,9461,1,0,0:0:0:0:
192,192,9580,1,0,0:0:0:0:
320,192,9580,1,0,0:0:0:0:
448,192,9580,1,0,0:0:0:0:
192,192,9700,1,0,0:0:0:0:
320,192,9700,1,0,0:0:0:0:
448,192,9700,1,0,0:0:0:0:
320,192,9820,1,0,0:0:0:0:
64,192,9820,1,0,0:0:0:0:
192,192,9820,1,0,0:0:0:0:
192,192,9940,1,0,0:0:0:0:
448,192,9940,1,0,0:0:0:0:
320,192,9940,1,0,0:0:0:0:
320,192,10059,1,0,0:0:0:0:
192,192,10059,1,0,0:0:0:0:
64,192,10059,1,0,0:0:0:0:
448,192,10059,1,0,0:0:0:0:
192,192,10179,1,0,0:0:0:0:
448,192,10179,1,0,0:0:0:0:
320,192,10299,1,0,0:0:0:0:
64,192,10299,1,0,0:0:0:0:
448,192,10419,1,0,0:0:0:0:
192,192,10419,1,0,0:0:0:0:
320,192,10538,1,0,0:0:0:0:
64,192,10538,1,0,0:0:0:0:
192,192,10658,1,0,0:0:0:0:
448,192,10658,1,0,0:0:0:0:
192,192,10778,1,0,0:0:0:0:
320,192,10778,1,0,0:0:0:0:
448,192,10778,1,0,0:0:0:0:
64,192,10778,1,0,0:0:0:0:
64,192,10898,1,0,0:0:0:0:
320,192,10898,1,0,0:0:0:0:
192,192,11017,1,0,0:0:0:0:
448,192,11017,1,0,0:0:0:0:
320,192,11137,1,0,0:0:0:0:
64,192,11137,1,0,0:0:0:0:
192,192,11257,1,0,0:0:0:0:
448,192,11257,1,0,0:0:0:0:
320,192,11377,1,0,0:0:0:0:
64,192,11377,1,0,0:0:0:0:
320,192,11497,1,0,0:0:0:0:
192,192,11497,1,0,0:0:0:0:
64,192,11497,1,0,0:0:0:0:
448,192,11497,1,0,0:0:0:0:
448,192,11616,1,0,0:0:0:0:
320,192,11616,1,0,0:0:0:0:
320,192,11736,1,0,0:0:0:0:
192,192,11736,1,0,0:0:0:0:
192,192,11856,1,0,0:0:0:0:
64,192,11856,1,0,0:0:0:0:
320,192,11976,1,0,0:0:0:0:
448,192,11976,1,0,0:0:0:0:
192,192,12095,1,0,0:0:0:0:
64,192,12095,1,0,0:0:0:0:
192,192,12215,1,0,0:0:0:0:
320,192,12215,1,0,0:0:0:0:
448,192,12215,1,0,0:0:0:0:
64,192,12215,1,0,0:0:0:0:
64,192,12335,1,0,0:0:0:0:
192,192,12335,1,0,0:0:0:0:
320,192,12335,1,0,0:0:0:0:
320,192,12455,1,0,0:0:0:0:
192,192,12455,1,0,0:0:0:0:
64,192,12455,1,0,0:0:0:0:
192,192,12574,1,0,0:0:0:0:
64,192,12574,1,0,0:0:0:0:
448,192,12574,1,0,0:0:0:0:
192,192,12694,1,0,0:0:0:0:
64,192,12694,1,0,0:0:0:0:
448,192,12694,1,0,0:0:0:0:
320,192,12814,1,0,0:0:0:0:
192,192,12814,1,0,0:0:0:0:
448,192,12814,1,0,0:0:0:0:
320,192,12934,1,0,0:0:0:0:
192,192,12934,1,0,0:0:0:0:
64,192,12934,1,0,0:0:0:0:
448,192,12934,1,0,0:0:0:0:
320,192,13053,1,0,0:0:0:0:
64,192,13053,1,0,0:0:0:0:
320,192,13173,1,0,0:0:0:0:
64,192,13173,1,0,0:0:0:0:
192,192,13293,1,0,0:0:0:0:
448,192,13293,1,0,0:0:0:0:
64,192,13413,1,0,0:0:0:0:
320,192,13413,1,0,0:0:0:0:
448,192,13532,1,0,0:0:0:0:
192,192,13532,1,0,0:0:0:0:
192,192,13652,1,0,0:0:0:0:
320,192,13652,1,0,0:0:0:0:
448,192,13652,1,0,0:0:0:0:
64,192,13652,1,0,0:0:0:0:
192,192,13772,1,0,0:0:0:0:
448,192,13772,1,0,0:0:0:0:
320,192,13892,1,0,0:0:0:0:
64,192,13892,1,0,0:0:0:0:
192,192,14011,1,0,0:0:0:0:
320,192,14011,1,0,0:0:0:0:
320,192,14131,1,0,0:0:0:0:
448,192,14131,1,0,0:0:0:0:
192,192,14251,1,0,0:0:0:0:
64,192,14251,1,0,0:0:0:0:
320,192,14371,1,0,0:0:0:0:
192,192,14371,1,0,0:0:0:0:
64,192,14371,1,0,0:0:0:0:
448,192,14371,1,0,0:0:0:0:
448,192,14491,1,0,0:0:0:0:
192,192,14491,1,0,0:0:0:0:
320,192,14610,1,0,0:0:0:0:
64,192,14610,1,0,0:0:0:0:
320,192,14730,1,0,0:0:0:0:
192,192,14730,1,0,0:0:0:0:
192,192,14850,1,0,0:0:0:0:
448,192,14850,1,0,0:0:0:0:
320,192,14970,1,0,0:0:0:0:
64,192,14970,1,0,0:0:0:0:
192,192,15089,1,0,0:0:0:0:
320,192,15089,1,0,0:0:0:0:
448,192,15089,1,0,0:0:0:0:
64,192,15089,1,0,0:0:0:0:
64,192,15209,1,0,0:0:0:0:
192,192,15209,1,0,0:0:0:0:
320,192,15209,1,0,0:0:0:0:
320,192,15329,1,0,0:0:0:0:
192,192,15329,1,0,0:0:0:0:
64,192,15329,1,0,0:0:0:0:
448,192,15449,1,0,0:0:0:0:
320,192,15449,1,0,0:0:0:0:
192,192,15449,1,0,0:0:0:0:
192,192,15568,1,0,0:0:0:0:
320,192,15568,1,0,0:0:0:0:
448,192,15568,1,0,0:0:0:0:
192,192,15688,1,0,0:0:0:0:
320,192,15688,1,0,0:0:0:0:
448,192,15688,1,0,0:0:0:0:
192,192,15808,1,0,0:0:0:0:
64,192,15808,1,0,0:0:0:0:
320,192,15808,1,0,0:0:0:0:
448,192,15808,1,0,0:0:0:0:
64,192,15928,1,0,0:0:0:0:
192,192,15928,1,0,0:0:0:0:
192,192,16047,1,0,0:0:0:0:
320,192,16047,1,0,0:0:0:0:
64,192,16167,1,0,0:0:0:0:
448,192,16167,1,0,0:0:0:0:
192,192,16287,1,0,0:0:0:0:
320,192,16287,1,0,0:0:0:0:
320,192,16407,1,0,0:0:0:0:
448,192,16407,1,0,0:0:0:0:
320,192,16526,1,0,0:0:0:0:
192,192,16526,1,0,0:0:0:0:
448,192,16526,1,0,0:0:0:0:
64,192,16526,1,0,0:0:0:0:
320,192,16646,1,0,0:0:0:0:
448,192,16646,1,0,0:0:0:0:
320,192,16766,1,0,0:0:0:0:
64,192,16766,1,0,0:0:0:0:
192,192,16886,1,0,0:0:0:0:
320,192,16886,1,0,0:0:0:0:
320,192,17005,1,0,0:0:0:0:
448,192,17005,1,0,0:0:0:0:
64,192,17125,1,0,0:0:0:0:
320,192,17125,1,0,0:0:0:0:
320,192,17245,1,0,0:0:0:0:
192,192,17245,1,0,0:0:0:0:
64,192,17245,1,0,0:0:0:0:
448,192,17245,1,0,0:0:0:0:
64,192,17365,1,0,0:0:0:0:
448,192,17365,1,0,0:0:0:0:
192,192,17485,1,0,0:0:0:0:
320,192,17485,1,0,0:0:0:0:
448,192,17604,1,0,0:0:0:0:
64,192,17604,1,0,0:0:0:0:
192,192,17724,1,0,0:0:0:0:
320,192,17724,1,0,0:0:0:0:
64,192,17844,1,0,0:0:0:0:
448,192,17844,1,0,0:0:0:0:
192,192,17964,1,0,0:0:0:0:
320,192,17964,1,0,0:0:0:0:
448,192,17964,1,0,0:0:0:0:
64,192,17964,1,0,0:0:0:0:
192,192,18083,1,0,0:0:0:0:
448,192,18083,1,0,0:0:0:0:
64,192,18203,1,0,0:0:0:0:
320,192,18203,1,0,0:0:0:0:
192,192,18323,1,0,0:0:0:0:
64,192,18323,1,0,0:0:0:0:
320,192,18443,1,0,0:0:0:0:
192,192,18443,1,0,0:0:0:0:
320,192,18562,1,0,0:0:0:0:
448,192,18562,1,0,0:0:0:0:
448,192,18682,1,0,0:0:0:0:
448,192,18802,1,0,0:0:0:0:
448,192,18922,1,0,0:0:0:0:
448,192,19041,1,0,0:0:0:0:
448,192,19161,1,0,0:0:0:0:
448,192,19281,1,0,0:0:0:0:
448,192,19401,1,0,0:0:0:0:
320,192,19401,1,0,0:0:0:0:
448,192,19520,1,0,0:0:0:0:
320,192,19520,1,0,0:0:0:0:
448,192,19640,1,0,0:0:0:0:
320,192,19640,1,0,0:0:0:0:
320,192,19760,1,0,0:0:0:0:
448,192,19760,1,0,0:0:0:0:
448,192,19880,1,0,0:0:0:0:
320,192,19880,1,0,0:0:0:0:
448,192,19999,1,0,0:0:0:0:
320,192,19999,1,0,0:0:0:0:
448,192,20119,1,0,0:0:0:0:
320,192,20119,1,0,0:0:0:0:
192,192,20119,1,0,0:0:0:0:
448,192,20239,1,0,0:0:0:0:
320,192,20239,1,0,0:0:0:0:
192,192,20239,1,0,0:0:0:0:
448,192,20359,1,0,0:0:0:0:
320,192,20359,1,0,0:0:0:0:
192,192,20359,1,0,0:0:0:0:
448,192,20479,1,0,0:0:0:0:
192,192,20479,1,0,0:0:0:0:
320,192,20479,1,0,0:0:0:0:
448,192,20598,1,0,0:0:0:0:
192,192,20598,1,0,0:0:0:0:
320,192,20598,1,0,0:0:0:0:
448,192,20718,1,0,0:0:0:0:
320,192,20718,1,0,0:0:0:0:
192,192,20718,1,0,0:0:0:0:
320,192,20838,1,0,0:0:0:0:
192,192,20838,1,0,0:0:0:0:
64,192,20838,1,0,0:0:0:0:
448,192,20838,1,0,0:0:0:0:
448,192,20958,1,0,0:0:0:0:
64,192,20958,1,0,0:0:0:0:
192,192,20958,1,0,0:0:0:0:
320,192,20958,1,0,0:0:0:0:
448,192,21077,1,0,0:0:0:0:
64,192,21077,1,0,0:0:0:0:
192,192,21077,1,0,0:0:0:0:
320,192,21077,1,0,0:0:0:0:
448,192,21197,1,0,0:0:0:0:
320,192,21197,1,0,0:0:0:0:
192,192,21197,1,0,0:0:0:0:
64,192,21197,1,0,0:0:0:0:
448,192,21317,1,0,0:0:0:0:
64,192,21317,1,0,0:0:0:0:
192,192,21317,1,0,0:0:0:0:
320,192,21317,1,0,0:0:0:0:
448,192,21437,1,0,0:0:0:0:
64,192,21437,1,0,0:0:0:0:
320,192,21437,1,0,0:0:0:0:
192,192,21437,1,0,0:0:0:0:
64,192,24431,1,0,0:0:0:0:
192,192,24431,1,0,0:0:0:0:
320,192,24491,1,0,0:0:0:0:
448,192,24550,1,0,0:0:0:0:
192,192,24610,1,0,0:0:0:0:
320,192,24610,1,0,0:0:0:0:
64,192,24670,1,0,0:0:0:0:
192,192,24730,1,0,0:0:0:0:
320,192,24790,1,0,0:0:0:0:
448,192,24790,1,0,0:0:0:0:
64,192,24850,1,0,0:0:0:0:
192,192,24910,1,0,0:0:0:0:
320,192,24970,1,0,0:0:0:0:
64,192,24970,1,0,0:0:0:0:
448,192,25029,1,0,0:0:0:0:
320,192,25089,1,0,0:0:0:0:
64,192,25149,1,0,0:0:0:0:
192,192,25149,1,0,0:0:0:0:
448,192,25209,1,0,0:0:0:0:
320,192,25269,1,0,0:0:0:0:
192,192,25329,1,0,0:0:0:0:
64,192,25329,1,0,0:0:0:0:
320,192,25389,1,0,0:0:0:0:
192,192,25449,1,0,0:0:0:0:
320,192,25508,1,0,0:0:0:0:
448,192,25508,1,0,0:0:0:0:
64,192,25568,1,0,0:0:0:0:
192,192,25628,1,0,0:0:0:0:
448,192,25688,1,0,0:0:0:0:
320,192,25688,1,0,0:0:0:0:
64,192,25748,1,0,0:0:0:0:
192,192,25808,1,0,0:0:0:0:
320,192,25868,1,0,0:0:0:0:
448,192,25868,1,0,0:0:0:0:
192,192,25928,1,0,0:0:0:0:
320,192,25988,1,0,0:0:0:0:
64,192,26047,1,0,0:0:0:0:
448,192,26047,1,0,0:0:0:0:
320,192,26107,1,0,0:0:0:0:
192,192,26167,1,0,0:0:0:0:
64,192,26227,1,0,0:0:0:0:
448,192,26227,1,0,0:0:0:0:
192,192,26287,1,0,0:0:0:0:
320,192,26347,1,0,0:0:0:0:
64,192,26407,1,0,0:0:0:0:
192,192,26407,1,0,0:0:0:0:
448,192,26467,1,0,0:0:0:0:
320,192,26526,1,0,0:0:0:0:
64,192,26586,1,0,0:0:0:0:
192,192,26586,1,0,0:0:0:0:
320,192,26646,1,0,0:0:0:0:
192,192,26706,1,0,0:0:0:0:
320,192,26766,1,0,0:0:0:0:
448,192,26766,1,0,0:0:0:0:
64,192,26826,1,0,0:0:0:0:
192,192,26886,1,0,0:0:0:0:
320,192,26946,1,0,0:0:0:0:
448,192,26946,1,0,0:0:0:0:
64,192,27005,1,0,0:0:0:0:
320,192,27065,1,0,0:0:0:0:
192,192,27125,1,0,0:0:0:0:
64,192,27125,1,0,0:0:0:0:
448,192,27185,1,0,0:0:0:0:
192,192,27245,1,0,0:0:0:0:
320,192,27305,1,0,0:0:0:0:
448,192,27305,1,0,0:0:0:0:
64,192,27365,1,0,0:0:0:0:
192,192,27425,1,0,0:0:0:0:
320,192,27485,1,0,0:0:0:0:
64,192,27485,1,0,0:0:0:0:
448,192,27544,1,0,0:0:0:0:
320,192,27604,1,0,0:0:0:0:
192,192,27664,1,0,0:0:0:0:
448,192,27664,1,0,0:0:0:0:
64,192,27724,1,0,0:0:0:0:
448,192,27784,1,0,0:0:0:0:
64,192,27844,1,0,0:0:0:0:
192,192,27844,1,0,0:0:0:0:
320,192,27904,1,0,0:0:0:0:
448,192,27964,1,0,0:0:0:0:
192,192,28023,1,0,0:0:0:0:
320,192,28023,1,0,0:0:0:0:
64,192,28083,1,0,0:0:0:0:
448,192,28143,1,0,0:0:0:0:
192,192,28203,1,0,0:0:0:0:
320,192,28203,1,0,0:0:0:0:
64,192,28263,1,0,0:0:0:0:
192,192,28323,1,0,0:0:0:0:
448,192,28383,1,0,0:0:0:0:
320,192,28383,1,0,0:0:0:0:
192,192,28443,1,0,0:0:0:0:
320,192,28502,1,0,0:0:0:0:
64,192,28562,1,0,0:0:0:0:
448,192,28562,1,0,0:0:0:0:
192,192,28622,1,0,0:0:0:0:
320,192,28682,1,0,0:0:0:0:
192,192,28742,1,0,0:0:0:0:
64,192,28742,1,0,0:0:0:0:
320,192,28802,1,0,0:0:0:0:
448,192,28862,1,0,0:0:0:0:
320,192,28922,1,0,0:0:0:0:
192,192,28922,1,0,0:0:0:0:
64,192,28982,1,0,0:0:0:0:
192,192,29041,1,0,0:0:0:0:
448,192,29101,1,0,0:0:0:0:
320,192,29101,1,0,0:0:0:0:
192,192,29161,1,0,0:0:0:0:
64,192,29221,1,0,0:0:0:0:
320,192,29281,1,0,0:0:0:0:
448,192,29281,1,0,0:0:0:0:
64,192,29341,1,0,0:0:0:0:
192,192,29401,1,0,0:0:0:0:
448,192,29461,1,0,0:0:0:0:
320,192,29461,1,0,0:0:0:0:
192,192,29520,1,0,0:0:0:0:
320,192,29580,1,0,0:0:0:0:
448,192,29640,1,0,0:0:0:0:
64,192,29640,1,0,0:0:0:0:
320,192,29700,1,0,0:0:0:0:
192,192,29760,1,0,0:0:0:0:
64,192,29820,1,0,0:0:0:0:
448,192,29820,1,0,0:0:0:0:
192,192,29880,1,0,0:0:0:0:
320,192,29940,1,0,0:0:0:0:
192,192,29999,1,0,0:0:0:0:
64,192,29999,1,0,0:0:0:0:
320,192,30059,1,0,0:0:0:0:
448,192,30119,1,0,0:0:0:0:
192,192,30179,1,0,0:0:0:0:
64,192,30179,1,0,0:0:0:0:
320,192,30179,1,0,0:0:0:0:
448,192,30239,1,0,0:0:0:0:
320,192,30299,1,0,0:0:0:0:
192,192,30359,1,0,0:0:0:0:
64,192,30359,1,0,0:0:0:0:
320,192,30419,1,0,0:0:0:0:
192,192,30479,1,0,0:0:0:0:
448,192,30538,1,0,0:0:0:0:
320,192,30538,1,0,0:0:0:0:
64,192,30598,1,0,0:0:0:0:
192,192,30658,1,0,0:0:0:0:
320,192,30718,1,0,0:0:0:0:
448,192,30718,1,0,0:0:0:0:
64,192,30778,1,0,0:0:0:0:
192,192,30838,1,0,0:0:0:0:
448,192,30898,1,0,0:0:0:0:
320,192,30898,1,0,0:0:0:0:
192,192,30958,1,0,0:0:0:0:
448,192,31017,1,0,0:0:0:0:
192,192,31077,1,0,0:0:0:0:
320,192,31077,1,0,0:0:0:0:
64,192,31137,1,0,0:0:0:0:
192,192,31197,1,0,0:0:0:0:
448,192,31257,1,0,0:0:0:0:
320,192,31257,1,0,0:0:0:0:
64,192,31317,1,0,0:0:0:0:
192,192,31377,1,0,0:0:0:0:
320,192,31437,1,0,0:0:0:0:
448,192,31437,1,0,0:0:0:0:
192,192,31497,1,0,0:0:0:0:
64,192,31556,1,0,0:0:0:0:
448,192,31616,1,0,0:0:0:0:
320,192,31616,1,0,0:0:0:0:
192,192,31676,1,0,0:0:0:0:
64,192,31736,1,0,0:0:0:0:
320,192,31796,1,0,0:0:0:0:
448,192,31796,1,0,0:0:0:0:
192,192,31856,1,0,0:0:0:0:
320,192,31916,1,0,0:0:0:0:
64,192,31976,1,0,0:0:0:0:
192,192,31976,1,0,0:0:0:0:
448,192,32035,1,0,0:0:0:0:
320,192,32095,1,0,0:0:0:0:
192,192,32155,1,0,0:0:0:0:
64,192,32155,1,0,0:0:0:0:
320,192,32215,1,0,0:0:0:0:
448,192,32275,1,0,0:0:0:0:
64,192,32335,1,0,0:0:0:0:
192,192,32335,1,0,0:0:0:0:
320,192,32395,1,0,0:0:0:0:
448,192,32455,1,0,0:0:0:0:
192,192,32514,1,0,0:0:0:0:
320,192,32514,1,0,0:0:0:0:
64,192,32574,1,0,0:0:0:0:
192,192,32634,1,0,0:0:0:0:
448,192,32694,1,0,0:0:0:0:
320,192,32694,1,0,0:0:0:0:
64,192,32754,1,0,0:0:0:0:
192,192,32814,1,0,0:0:0:0:
320,192,32874,1,0,0:0:0:0:
448,192,32874,1,0,0:0:0:0:
192,192,32934,1,0,0:0:0:0:
320,192,32994,1,0,0:0:0:0:
64,192,33053,1,0,0:0:0:0:
448,192,33053,1,0,0:0:0:0:
192,192,33113,1,0,0:0:0:0:
320,192,33173,1,0,0:0:0:0:
192,192,33233,1,0,0:0:0:0:
64,192,33233,1,0,0:0:0:0:
448,192,33293,1,0,0:0:0:0:
320,192,33353,1,0,0:0:0:0:
64,192,33413,1,0,0:0:0:0:
192,192,33413,1,0,0:0:0:0:
448,192,33473,1,0,0:0:0:0:
320,192,33532,1,0,0:0:0:0:
192,192,33592,1,0,0:0:0:0:
64,192,33592,1,0,0:0:0:0:
320,192,33652,1,0,0:0:0:0:
448,192,33712,1,0,0:0:0:0:
192,192,33772,1,0,0:0:0:0:
64,192,33772,1,0,0:0:0:0:
320,192,33832,1,0,0:0:0:0:
448,192,33892,1,0,0:0:0:0:
192,192,33952,1,0,0:0:0:0:
320,192,33952,1,0,0:0:0:0:
64,192,34011,1,0,0:0:0:0:
448,192,34071,1,0,0:0:0:0:
192,192,34131,1,0,0:0:0:0:
320,192,34131,1,0,0:0:0:0:
64,192,34191,1,0,0:0:0:0:
448,192,34251,1,0,0:0:0:0:
192,192,34311,1,0,0:0:0:0:
320,192,34311,1,0,0:0:0:0:
64,192,34371,1,0,0:0:0:0:
448,192,34431,1,0,0:0:0:0:
64,192,34491,1,0,0:0:0:0:
192,192,34491,1,0,0:0:0:0:
320,192,34491,1,0,0:0:0:0:
192,192,34850,1,0,0:0:0:0:
320,192,34850,1,0,0:0:0:0:
448,192,34850,1,0,0:0:0:0:
192,192,35029,1,0,0:0:0:0:
320,192,35029,1,0,0:0:0:0:
448,192,35029,1,0,0:0:0:0:
320,192,35209,1,0,0:0:0:0:
192,192,35209,1,0,0:0:0:0:
64,192,35209,1,0,0:0:0:0:
448,192,35449,1,0,0:0:0:0:
320,192,35449,1,0,0:0:0:0:
192,192,35449,1,0,0:0:0:0:
320,192,35748,1,0,0:0:0:0:
192,192,35748,1,0,0:0:0:0:
480,192,35928,1,0,0:0:0:0:
352,192,35928,1,0,0:0:0:0:
224,192,35988,1,0,0:0:0:0:
96,192,36047,1,0,0:0:0:0:
352,192,36107,1,0,0:0:0:0:
224,192,36107,1,0,0:0:0:0:
480,192,36167,1,0,0:0:0:0:
352,192,36227,1,0,0:0:0:0:
224,192,36287,1,0,0:0:0:0:
96,192,36287,1,0,0:0:0:0:
480,192,36347,1,0,0:0:0:0:
352,192,36407,1,0,0:0:0:0:
224,192,36467,1,0,0:0:0:0:
480,192,36467,1,0,0:0:0:0:
96,192,36526,1,0,0:0:0:0:
224,192,36586,1,0,0:0:0:0:
480,192,36646,1,0,0:0:0:0:
352,192,36646,1,0,0:0:0:0:
96,192,36706,1,0,0:0:0:0:
224,192,36766,1,0,0:0:0:0:
352,192,36826,1,0,0:0:0:0:
480,192,36826,1,0,0:0:0:0:
224,192,36886,1,0,0:0:0:0:
352,192,36946,1,0,0:0:0:0:
224,192,37005,1,0,0:0:0:0:
96,192,37005,1,0,0:0:0:0:
480,192,37065,1,0,0:0:0:0:
352,192,37125,1,0,0:0:0:0:
96,192,37185,1,0,0:0:0:0:
224,192,37185,1,0,0:0:0:0:
480,192,37245,1,0,0:0:0:0:
352,192,37305,1,0,0:0:0:0:
224,192,37365,1,0,0:0:0:0:
96,192,37365,1,0,0:0:0:0:
352,192,37425,1,0,0:0:0:0:
224,192,37485,1,0,0:0:0:0:
480,192,37544,1,0,0:0:0:0:
96,192,37544,1,0,0:0:0:0:
224,192,37604,1,0,0:0:0:0:
352,192,37664,1,0,0:0:0:0:
480,192,37724,1,0,0:0:0:0:
96,192,37724,1,0,0:0:0:0:
352,192,37784,1,0,0:0:0:0:
224,192,37844,1,0,0:0:0:0:
480,192,37904,1,0,0:0:0:0:
352,192,37904,1,0,0:0:0:0:
96,192,37964,1,0,0:0:0:0:
224,192,38023,1,0,0:0:0:0:
480,192,38083,1,0,0:0:0:0:
352,192,38083,1,0,0:0:0:0:
224,192,38143,1,0,0:0:0:0:
352,192,38203,1,0,0:0:0:0:
224,192,38263,1,0,0:0:0:0:
96,192,38263,1,0,0:0:0:0:
480,192,38323,1,0,0:0:0:0:
352,192,38383,1,0,0:0:0:0:
224,192,38443,1,0,0:0:0:0:
96,192,38443,1,0,0:0:0:0:
480,192,38502,1,0,0:0:0:0:
224,192,38562,1,0,0:0:0:0:
352,192,38622,1,0,0:0:0:0:
480,192,38622,1,0,0:0:0:0:
96,192,38682,1,0,0:0:0:0:
352,192,38742,1,0,0:0:0:0:
224,192,38802,1,0,0:0:0:0:
96,192,38802,1,0,0:0:0:0:
480,192,38862,1,0,0:0:0:0:
352,192,38922,1,0,0:0:0:0:
224,192,38982,1,0,0:0:0:0:
480,192,38982,1,0,0:0:0:0:
96,192,39041,1,0,0:0:0:0:
224,192,39101,1,0,0:0:0:0:
352,192,39161,1,0,0:0:0:0:
96,192,39161,1,0,0:0:0:0:
480,192,39221,1,0,0:0:0:0:
96,192,39281,1,0,0:0:0:0:
480,192,39341,1,0,0:0:0:0:
352,192,39341,1,0,0:0:0:0:
224,192,39401,1,0,0:0:0:0:
96,192,39461,1,0,0:0:0:0:
352,192,39520,1,0,0:0:0:0:
224,192,39520,1,0,0:0:0:0:
480,192,39580,1,0,0:0:0:0:
96,192,39640,1,0,0:0:0:0:
352,192,39700,1,0,0:0:0:0:
224,192,39700,1,0,0:0:0:0:
480,192,39760,1,0,0:0:0:0:
352,192,39820,1,0,0:0:0:0:
96,192,39880,1,0,0:0:0:0:
224,192,39880,1,0,0:0:0:0:
352,192,39940,1,0,0:0:0:0:
224,192,39999,1,0,0:0:0:0:
480,192,40059,1,0,0:0:0:0:
96,192,40059,1,0,0:0:0:0:
352,192,40119,1,0,0:0:0:0:
224,192,40179,1,0,0:0:0:0:
352,192,40239,1,0,0:0:0:0:
480,192,40239,1,0,0:0:0:0:
224,192,40299,1,0,0:0:0:0:
96,192,40359,1,0,0:0:0:0:
224,192,40419,1,0,0:0:0:0:
352,192,40419,1,0,0:0:0:0:
480,192,40479,1,0,0:0:0:0:
352,192,40538,1,0,0:0:0:0:
96,192,40598,1,0,0:0:0:0:
224,192,40598,1,0,0:0:0:0:
352,192,40658,1,0,0:0:0:0:
480,192,40718,1,0,0:0:0:0:
224,192,40778,1,0,0:0:0:0:
96,192,40778,1,0,0:0:0:0:
480,192,40838,1,0,0:0:0:0:
352,192,40898,1,0,0:0:0:0:
96,192,40958,1,0,0:0:0:0:
224,192,40958,1,0,0:0:0:0:
352,192,41017,1,0,0:0:0:0:
224,192,41077,1,0,0:0:0:0:
96,192,41137,1,0,0:0:0:0:
480,192,41137,1,0,0:0:0:0:
224,192,41197,1,0,0:0:0:0:
352,192,41257,1,0,0:0:0:0:
480,192,41317,1,0,0:0:0:0:
96,192,41317,1,0,0:0:0:0:
352,192,41377,1,0,0:0:0:0:
224,192,41437,1,0,0:0:0:0:
352,192,41497,1,0,0:0:0:0:
480,192,41497,1,0,0:0:0:0:
224,192,41556,1,0,0:0:0:0:
96,192,41616,1,0,0:0:0:0:
352,192,41676,1,0,0:0:0:0:
480,192,41676,1,0,0:0:0:0:
224,192,41676,1,0,0:0:0:0:
96,192,41736,1,0,0:0:0:0:
224,192,41796,1,0,0:0:0:0:
352,192,41856,1,0,0:0:0:0:
480,192,41856,1,0,0:0:0:0:
224,192,41916,1,0,0:0:0:0:
352,192,41976,1,0,0:0:0:0:
96,192,42035,1,0,0:0:0:0:
224,192,42035,1,0,0:0:0:0:
480,192,42095,1,0,0:0:0:0:
352,192,42155,1,0,0:0:0:0:
224,192,42215,1,0,0:0:0:0:
96,192,42215,1,0,0:0:0:0:
480,192,42275,1,0,0:0:0:0:
352,192,42335,1,0,0:0:0:0:
96,192,42395,1,0,0:0:0:0:
224,192,42395,1,0,0:0:0:0:
352,192,42455,1,0,0:0:0:0:
96,192,42514,1,0,0:0:0:0:
352,192,42574,1,0,0:0:0:0:
224,192,42574,1,0,0:0:0:0:
480,192,42634,1,0,0:0:0:0:
352,192,42694,1,0,0:0:0:0:
96,192,42754,1,0,0:0:0:0:
224,192,42754,1,0,0:0:0:0:
480,192,42814,1,0,0:0:0:0:
352,192,42874,1,0,0:0:0:0:
224,192,42934,1,0,0:0:0:0:
96,192,42934,1,0,0:0:0:0:
352,192,42994,1,0,0:0:0:0:
480,192,43053,1,0,0:0:0:0:
96,192,43113,1,0,0:0:0:0:
224,192,43113,1,0,0:0:0:0:
352,192,43173,1,0,0:0:0:0:
480,192,43233,1,0,0:0:0:0:
224,192,43293,1,0,0:0:0:0:
96,192,43293,1,0,0:0:0:0:
352,192,43353,1,0,0:0:0:0:
224,192,43413,1,0,0:0:0:0:
480,192,43473,1,0,0:0:0:0:
352,192,43473,1,0,0:0:0:0:
96,192,43532,1,0,0:0:0:0:
224,192,43592,1,0,0:0:0:0:
352,192,43652,1,0,0:0:0:0:
480,192,43652,1,0,0:0:0:0:
224,192,43712,1,0,0:0:0:0:
96,192,43772,1,0,0:0:0:0:
480,192,43832,1,0,0:0:0:0:
352,192,43832,1,0,0:0:0:0:
224,192,43892,1,0,0:0:0:0:
96,192,43952,1,0,0:0:0:0:
352,192,44011,1,0,0:0:0:0:
224,192,44011,1,0,0:0:0:0:
480,192,44071,1,0,0:0:0:0:
352,192,44131,1,0,0:0:0:0:
96,192,44191,1,0,0:0:0:0:
224,192,44191,1,0,0:0:0:0:
480,192,44251,1,0,0:0:0:0:
352,192,44311,1,0,0:0:0:0:
224,192,44371,1,0,0:0:0:0:
96,192,44371,1,0,0:0:0:0:
352,192,44431,1,0,0:0:0:0:
224,192,44491,1,0,0:0:0:0:
480,192,44550,1,0,0:0:0:0:
96,192,44550,1,0,0:0:0:0:
352,192,44610,1,0,0:0:0:0:
224,192,44670,1,0,0:0:0:0:
352,192,44730,1,0,0:0:0:0:
480,192,44730,1,0,0:0:0:0:
96,192,44790,1,0,0:0:0:0:
224,192,44850,1,0,0:0:0:0:
480,192,44910,1,0,0:0:0:0:
352,192,44910,1,0,0:0:0:0:
96,192,44970,1,0,0:0:0:0:
224,192,45029,1,0,0:0:0:0:
352,192,45089,1,0,0:0:0:0:
480,192,45089,1,0,0:0:0:0:
224,192,45149,1,0,0:0:0:0:
96,192,45209,1,0,0:0:0:0:
352,192,45269,1,0,0:0:0:0:
480,192,45269,1,0,0:0:0:0:
224,192,45329,1,0,0:0:0:0:
96,192,45389,1,0,0:0:0:0:
352,192,45449,1,0,0:0:0:0:
224,192,45449,1,0,0:0:0:0:
480,192,45508,1,0,0:0:0:0:
96,192,45568,1,0,0:0:0:0:
352,192,45628,1,0,0:0:0:0:
224,192,45628,1,0,0:0:0:0:
480,192,45688,1,0,0:0:0:0:
96,192,45748,1,0,0:0:0:0:
352,192,45808,1,0,0:0:0:0:
224,192,45808,1,0,0:0:0:0:
480,192,45868,1,0,0:0:0:0:
96,192,45928,1,0,0:0:0:0:
448,192,45988,1,0,0:0:0:0:
192,192,45988,1,0,0:0:0:0:
320,192,45988,1,0,0:0:0:0:
448,192,46347,1,0,0:0:0:0:
320,192,46347,1,0,0:0:0:0:
320,192,46526,1,0,0:0:0:0:
192,192,46526,1,0,0:0:0:0:
448,192,46526,1,0,0:0:0:0:
64,192,46706,1,0,0:0:0:0:
192,192,46706,1,0,0:0:0:0:
448,192,46751,1,0,0:0:0:0:
320,192,46796,1,0,0:0:0:0:
192,192,46841,1,0,0:0:0:0:
64,192,46931,1,0,0:0:0:0:
448,192,47065,1,0,0:0:0:0:
320,192,47065,1,0,0:0:0:0:
64,192,47110,1,0,0:0:0:0:
192,192,47155,1,0,0:0:0:0:
320,192,47200,1,0,0:0:0:0:
448,192,47245,1,0,0:0:0:0:
320,192,47425,1,0,0:0:0:0:
448,192,47425,1,0,0:0:0:0:
192,192,47425,1,0,0:0:0:0:
64,192,47425,1,0,0:0:0:0:
320,192,47544,1,0,0:0:0:0:
448,192,47544,1,0,0:0:0:0:
320,192,47664,1,0,0:0:0:0:
448,192,47664,1,0,0:0:0:0:
320,192,47784,1,0,0:0:0:0:
448,192,47784,1,0,0:0:0:0:
192,192,47904,1,0,0:0:0:0:
64,192,47904,1,0,0:0:0:0:
64,192,48023,1,0,0:0:0:0:
192,192,48023,1,0,0:0:0:0:
192,192,48143,1,0,0:0:0:0:
64,192,48143,1,0,0:0:0:0:
64,192,48263,1,0,0:0:0:0:
192,192,48263,1,0,0:0:0:0:
64,192,48383,1,0,0:0:0:0:
320,192,48383,1,0,0:0:0:0:
64,192,48502,1,0,0:0:0:0:
320,192,48502,1,0,0:0:0:0:
320,192,48622,1,0,0:0:0:0:
64,192,48622,1,0,0:0:0:0:
320,192,48742,1,0,0:0:0:0:
64,192,48742,1,0,0:0:0:0:
192,192,48862,1,0,0:0:0:0:
448,192,48862,1,0,0:0:0:0:
192,192,48982,1,0,0:0:0:0:
448,192,48982,1,0,0:0:0:0:
192,192,49101,1,0,0:0:0:0:
448,192,49101,1,0,0:0:0:0:
192,192,49221,1,0,0:0:0:0:
448,192,49221,1,0,0:0:0:0:
192,192,49341,1,0,0:0:0:0:
320,192,49341,1,0,0:0:0:0:
192,192,49461,1,0,0:0:0:0:
320,192,49461,1,0,0:0:0:0:
192,192,49580,1,0,0:0:0:0:
320,192,49580,1,0,0:0:0:0:
192,192,49700,1,0,0:0:0:0:
320,192,49700,1,0,0:0:0:0:
64,192,49820,1,0,0:0:0:0:
448,192,49820,1,0,0:0:0:0:
448,192,49940,1,0,0:0:0:0:
64,192,49940,1,0,0:0:0:0:
64,192,50059,1,0,0:0:0:0:
448,192,50059,1,0,0:0:0:0:
448,192,50179,1,0,0:0:0:0:
64,192,50179,1,0,0:0:0:0:
320,192,50299,1,0,0:0:0:0:
64,192,50299,1,0,0:0:0:0:
192,192,50299,1,0,0:0:0:0:
448,192,50299,1,0,0:0:0:0:
320,192,50419,1,0,0:0:0:0:
64,192,50419,1,0,0:0:0:0:
64,192,50538,1,0,0:0:0:0:
320,192,50538,1,0,0:0:0:0:
64,192,50658,1,0,0:0:0:0:
320,192,50658,1,0,0:0:0:0:
320,192,50778,1,0,0:0:0:0:
64,192,50778,1,0,0:0:0:0:
320,192,50898,1,0,0:0:0:0:
448,192,50898,1,0,0:0:0:0:
320,192,51017,1,0,0:0:0:0:
448,192,51017,1,0,0:0:0:0:
320,192,51137,1,0,0:0:0:0:
448,192,51137,1,0,0:0:0:0:
320,192,51257,1,0,0:0:0:0:
448,192,51257,1,0,0:0:0:0:
192,192,51377,1,0,0:0:0:0:
64,192,51377,1,0,0:0:0:0:
192,192,51497,1,0,0:0:0:0:
64,192,51497,1,0,0:0:0:0:
64,192,51616,1,0,0:0:0:0:
192,192,51616,1,0,0:0:0:0:
64,192,51736,1,0,0:0:0:0:
192,192,51736,1,0,0:0:0:0:
64,192,51856,1,0,0:0:0:0:
320,192,51856,1,0,0:0:0:0:
64,192,51976,1,0,0:0:0:0:
320,192,51976,1,0,0:0:0:0:
64,192,52095,1,0,0:0:0:0:
320,192,52095,1,0,0:0:0:0:
64,192,52215,1,0,0:0:0:0:
320,192,52215,1,0,0:0:0:0:
192,192,52335,1,0,0:0:0:0:
448,192,52335,1,0,0:0:0:0:
192,192,52455,1,0,0:0:0:0:
448,192,52455,1,0,0:0:0:0:
192,192,52574,1,0,0:0:0:0:
448,192,52574,1,0,0:0:0:0:
192,192,52694,1,0,0:0:0:0:
448,192,52694,1,0,0:0:0:0:
192,192,52814,1,0,0:0:0:0:
64,192,52814,1,0,0:0:0:0:
64,192,52934,1,0,0:0:0:0:
192,192,52934,1,0,0:0:0:0:
64,192,53053,1,0,0:0:0:0:
192,192,53053,1,0,0:0:0:0:
64,192,53173,1,0,0:0:0:0:
192,192,53173,1,0,0:0:0:0:
320,192,53173,1,0,0:0:0:0:
448,192,53173,1,0,0:0:0:0:
320,192,53293,1,0,0:0:0:0:
448,192,53293,1,0,0:0:0:0:
320,192,53413,1,0,0:0:0:0:
448,192,53413,1,0,0:0:0:0:
320,192,53532,1,0,0:0:0:0:
448,192,53532,1,0,0:0:0:0:
320,192,53652,1,0,0:0:0:0:
448,192,53652,1,0,0:0:0:0:
192,192,53772,1,0,0:0:0:0:
64,192,53772,1,0,0:0:0:0:
64,192,53892,1,0,0:0:0:0:
192,192,53892,1,0,0:0:0:0:
64,192,54011,1,0,0:0:0:0:
192,192,54011,1,0,0:0:0:0:
64,192,54131,1,0,0:0:0:0:
192,192,54131,1,0,0:0:0:0:
64,192,54251,1,0,0:0:0:0:
320,192,54251,1,0,0:0:0:0:
64,192,54371,1,0,0:0:0:0:
320,192,54371,1,0,0:0:0:0:
320,192,54491,1,0,0:0:0:0:
64,192,54491,1,0,0:0:0:0:
320,192,54610,1,0,0:0:0:0:
64,192,54610,1,0,0:0:0:0:
192,192,54730,1,0,0:0:0:0:
448,192,54730,1,0,0:0:0:0:
192,192,54850,1,0,0:0:0:0:
448,192,54850,1,0,0:0:0:0:
192,192,54970,1,0,0:0:0:0:
448,192,54970,1,0,0:0:0:0:
192,192,55089,1,0,0:0:0:0:
448,192,55089,1,0,0:0:0:0:
192,192,55209,1,0,0:0:0:0:
320,192,55209,1,0,0:0:0:0:
192,192,55329,1,0,0:0:0:0:
320,192,55329,1,0,0:0:0:0:
192,192,55449,1,0,0:0:0:0:
320,192,55449,1,0,0:0:0:0:
192,192,55568,1,0,0:0:0:0:
320,192,55568,1,0,0:0:0:0:
64,192,55688,1,0,0:0:0:0:
448,192,55688,1,0,0:0:0:0:
448,192,55808,1,0,0:0:0:0:
64,192,55808,1,0,0:0:0:0:
64,192,55928,1,0,0:0:0:0:
448,192,55928,1,0,0:0:0:0:
192,192,56047,1,0,0:0:0:0:
64,192,56047,1,0,0:0:0:0:
320,192,56047,1,0,0:0:0:0:
448,192,56047,1,0,0:0:0:0:
320,192,56167,1,0,0:0:0:0:
64,192,56167,1,0,0:0:0:0:
320,192,56287,1,0,0:0:0:0:
64,192,56287,1,0,0:0:0:0:
320,192,56407,1,0,0:0:0:0:
64,192,56407,1,0,0:0:0:0:
320,192,56526,1,0,0:0:0:0:
64,192,56526,1,0,0:0:0:0:
192,192,56646,1,0,0:0:0:0:
320,192,56646,1,0,0:0:0:0:
192,192,56766,1,0,0:0:0:0:
320,192,56766,1,0,0:0:0:0:
192,192,56886,1,0,0:0:0:0:
320,192,56886,1,0,0:0:0:0:
192,192,57005,1,0,0:0:0:0:
320,192,57005,1,0,0:0:0:0:
448,192,57125,1,0,0:0:0:0:
64,192,57125,1,0,0:0:0:0:
448,192,57245,1,0,0:0:0:0:
64,192,57245,1,0,0:0:0:0:
448,192,57365,1,0,0:0:0:0:
64,192,57365,1,0,0:0:0:0:
192,192,57485,1,0,0:0:0:0:
320,192,57485,1,0,0:0:0:0:
448,192,57485,1,0,0:0:0:0:
64,192,57485,1,0,0:0:0:0:
64,192,57604,1,0,0:0:0:0:
192,192,57604,1,0,0:0:0:0:
192,192,57724,1,0,0:0:0:0:
64,192,57724,1,0,0:0:0:0:
192,192,57844,1,0,0:0:0:0:
64,192,57844,1,0,0:0:0:0:
192,192,57964,1,0,0:0:0:0:
64,192,57964,1,0,0:0:0:0:
192,192,58083,1,0,0:0:0:0:
64,192,58083,1,0,0:0:0:0:
192,192,58203,1,0,0:0:0:0:
448,192,58203,1,0,0:0:0:0:
320,192,58203,1,0,0:0:0:0:
64,192,58203,1,0,0:0:0:0:
192,192,58323,1,0,0:0:0:0:
448,192,58323,1,0,0:0:0:0:
192,192,58443,1,0,0:0:0:0:
448,192,58443,1,0,0:0:0:0:
64,192,58562,1,0,0:0:0:0:
192,192,58562,1,0,0:0:0:0:
320,192,58562,1,0,0:0:0:0:
448,192,58562,1,0,0:0:0:0:
320,192,58682,1,0,0:0:0:0:
64,192,58682,1,0,0:0:0:0:
64,192,58802,1,0,0:0:0:0:
320,192,58802,1,0,0:0:0:0:
64,192,58922,1,0,0:0:0:0:
192,192,58922,1,0,0:0:0:0:
320,192,58952,1,0,0:0:0:0:
448,192,58982,1,0,0:0:0:0:
192,192,59011,1,0,0:0:0:0:
320,192,59041,1,0,0:0:0:0:
448,192,59071,1,0,0:0:0:0:
64,192,59101,1,0,0:0:0:0:
192,192,59101,1,0,0:0:0:0:
320,192,59461,1,0,0:0:0:0:
448,192,59461,1,0,0:0:0:0:
192,192,59491,1,0,0:0:0:0:
64,192,59520,1,0,0:0:0:0:
320,192,59550,1,0,0:0:0:0:
192,192,59580,1,0,0:0:0:0:
64,192,59610,1,0,0:0:0:0:
448,192,59640,1,0,0:0:0:0:
320,192,59640,1,0,0:0:0:0:
192,192,60359,1,0,0:0:0:0:
320,192,60359,1,0,0:0:0:0:
448,192,60359,1,0,0:0:0:0:
64,192,60419,1,0,0:0:0:0:
192,192,60479,1,0,0:0:0:0:
448,192,60538,1,0,0:0:0:0:
320,192,60538,1,0,0:0:0:0:
64,192,60598,1,0,0:0:0:0:
192,192,60658,1,0,0:0:0:0:
64,192,60718,1,0,0:0:0:0:
320,192,60718,1,0,0:0:0:0:
448,192,60718,1,0,0:0:0:0:
192,192,60778,1,0,0:0:0:0:
320,192,60838,1,0,0:0:0:0:
192,192,60898,1,0,0:0:0:0:
64,192,60898,1,0,0:0:0:0:
448,192,60958,1,0,0:0:0:0:
320,192,61017,1,0,0:0:0:0:
64,192,61077,1,0,0:0:0:0:
192,192,61077,1,0,0:0:0:0:
448,192,61077,1,0,0:0:0:0:
320,192,61137,1,0,0:0:0:0:
192,192,61197,1,0,0:0:0:0:
64,192,61257,1,0,0:0:0:0:
448,192,61257,1,0,0:0:0:0:
320,192,61317,1,0,0:0:0:0:
192,192,61377,1,0,0:0:0:0:
320,192,61437,1,0,0:0:0:0:
448,192,61437,1,0,0:0:0:0:
64,192,61437,1,0,0:0:0:0:
192,192,61497,1,0,0:0:0:0:
320,192,61556,1,0,0:0:0:0:
64,192,61616,1,0,0:0:0:0:
192,192,61616,1,0,0:0:0:0:
320,192,61676,1,0,0:0:0:0:
448,192,61736,1,0,0:0:0:0:
64,192,61796,1,0,0:0:0:0:
192,192,61796,1,0,0:0:0:0:
448,192,61826,1,0,0:0:0:0:
320,192,61856,1,0,0:0:0:0:
192,192,61886,1,0,0:0:0:0:
448,192,61916,1,0,0:0:0:0:
320,192,61946,1,0,0:0:0:0:
64,192,61976,1,0,0:0:0:0:
192,192,61976,1,0,0:0:0:0:
448,192,62335,1,0,0:0:0:0:
320,192,62335,1,0,0:0:0:0:
64,192,62365,1,0,0:0:0:0:
192,192,62395,1,0,0:0:0:0:
320,192,62425,1,0,0:0:0:0:
64,192,62455,1,0,0:0:0:0:
192,192,62485,1,0,0:0:0:0:
320,192,62514,1,0,0:0:0:0:
448,192,62514,1,0,0:0:0:0:
64,192,63233,1,0,0:0:0:0:
192,192,63233,1,0,0:0:0:0:
320,192,63233,1,0,0:0:0:0:
448,192,63293,1,0,0:0:0:0:
320,192,63353,1,0,0:0:0:0:
192,192,63413,1,0,0:0:0:0:
64,192,63413,1,0,0:0:0:0:
448,192,63473,1,0,0:0:0:0:
320,192,63532,1,0,0:0:0:0:
192,192,63592,1,0,0:0:0:0:
64,192,63592,1,0,0:0:0:0:
448,192,63592,1,0,0:0:0:0:
320,192,63652,1,0,0:0:0:0:
192,192,63712,1,0,0:0:0:0:
64,192,63772,1,0,0:0:0:0:
448,192,63772,1,0,0:0:0:0:
192,192,63832,1,0,0:0:0:0:
320,192,63892,1,0,0:0:0:0:
64,192,63952,1,0,0:0:0:0:
192,192,63952,1,0,0:0:0:0:
448,192,63952,1,0,0:0:0:0:
320,192,64011,1,0,0:0:0:0:
448,192,64071,1,0,0:0:0:0:
192,192,64131,1,0,0:0:0:0:
64,192,64131,1,0,0:0:0:0:
448,192,64191,1,0,0:0:0:0:
320,192,64251,1,0,0:0:0:0:
448,192,64311,1,0,0:0:0:0:
64,192,64311,1,0,0:0:0:0:
192,192,64371,1,0,0:0:0:0:
64,192,64431,1,0,0:0:0:0:
192,192,64491,1,0,0:0:0:0:
320,192,64491,1,0,0:0:0:0:
448,192,64550,1,0,0:0:0:0:
320,192,64610,1,0,0:0:0:0:
64,192,64670,1,0,0:0:0:0:
192,192,64670,1,0,0:0:0:0:
448,192,64700,1,0,0:0:0:0:
320,192,64730,1,0,0:0:0:0:
192,192,64760,1,0,0:0:0:0:
64,192,64790,1,0,0:0:0:0:
192,192,64820,1,0,0:0:0:0:
320,192,64850,1,0,0:0:0:0:
448,192,64850,1,0,0:0:0:0:
448,192,65209,1,0,0:0:0:0:
320,192,65209,1,0,0:0:0:0:
64,192,65239,1,0,0:0:0:0:
192,192,65269,1,0,0:0:0:0:
320,192,65299,1,0,0:0:0:0:
448,192,65329,1,0,0:0:0:0:
320,192,65359,1,0,0:0:0:0:
64,192,65389,1,0,0:0:0:0:
192,192,65389,1,0,0:0:0:0:
192,192,66107,1,0,0:0:0:0:
320,192,66107,1,0,0:0:0:0:
448,192,66107,1,0,0:0:0:0:
64,192,66167,1,0,0:0:0:0:
192,192,66227,1,0,0:0:0:0:
320,192,66287,1,0,0:0:0:0:
448,192,66287,1,0,0:0:0:0:
64,192,66347,1,0,0:0:0:0:
192,192,66407,1,0,0:0:0:0:
64,192,66467,1,0,0:0:0:0:
320,192,66467,1,0,0:0:0:0:
448,192,66467,1,0,0:0:0:0:
192,192,66526,1,0,0:0:0:0:
320,192,66586,1,0,0:0:0:0:
64,192,66646,1,0,0:0:0:0:
192,192,66646,1,0,0:0:0:0:
448,192,66706,1,0,0:0:0:0:
320,192,66766,1,0,0:0:0:0:
64,192,66826,1,0,0:0:0:0:
192,192,66826,1,0,0:0:0:0:
448,192,66826,1,0,0:0:0:0:
320,192,66886,1,0,0:0:0:0:
448,192,66946,1,0,0:0:0:0:
320,192,67005,1,0,0:0:0:0:
192,192,67005,1,0,0:0:0:0:
64,192,67065,1,0,0:0:0:0:
192,192,67125,1,0,0:0:0:0:
64,192,67185,1,0,0:0:0:0:
320,192,67185,1,0,0:0:0:0:
448,192,67185,1,0,0:0:0:0:
192,192,67245,1,0,0:0:0:0:
320,192,67305,1,0,0:0:0:0:
192,192,67365,1,0,0:0:0:0:
64,192,67365,1,0,0:0:0:0:
320,192,67425,1,0,0:0:0:0:
448,192,67485,1,0,0:0:0:0:
320,192,67544,1,0,0:0:0:0:
192,192,67544,1,0,0:0:0:0:
64,192,67544,1,0,0:0:0:0:
448,192,67604,1,0,0:0:0:0:
320,192,67664,1,0,0:0:0:0:
64,192,67724,1,0,0:0:0:0:
192,192,67724,1,0,0:0:0:0:
320,192,67784,1,0,0:0:0:0:
448,192,67844,1,0,0:0:0:0:
320,192,67904,1,0,0:0:0:0:
192,192,67904,1,0,0:0:0:0:
64,192,67964,1,0,0:0:0:0:
192,192,68023,1,0,0:0:0:0:
320,192,68083,1,0,0:0:0:0:
448,192,68083,1,0,0:0:0:0:
192,192,68143,1,0,0:0:0:0:
64,192,68203,1,0,0:0:0:0:
320,192,68263,1,0,0:0:0:0:
448,192,68263,1,0,0:0:0:0:
192,192,68323,1,0,0:0:0:0:
64,192,68323,1,0,0:0:0:0:
320,192,68383,1,0,0:0:0:0:
448,192,68383,1,0,0:0:0:0:
192,192,68443,1,0,0:0:0:0:
64,192,68443,1,0,0:0:0:0:
320,192,68502,1,0,0:0:0:0:
448,192,68502,1,0,0:0:0:0:
192,192,68562,1,0,0:0:0:0:
64,192,68562,1,0,0:0:0:0:
320,192,68622,1,0,0:0:0:0:
448,192,68622,1,0,0:0:0:0:
192,192,68682,1,0,0:0:0:0:
64,192,68682,1,0,0:0:0:0:
320,192,68742,1,0,0:0:0:0:
448,192,68742,1,0,0:0:0:0:
192,192,68802,1,0,0:0:0:0:
64,192,68802,1,0,0:0:0:0:
320,192,68862,1,0,0:0:0:0:
448,192,68862,1,0,0:0:0:0:
192,192,68922,1,0,0:0:0:0:
64,192,68922,1,0,0:0:0:0:
448,192,68982,128,0,74550:0:0:0:0:
192,192,68982,128,0,74550:0:0:0:0:
64,192,68982,128,0,74550:0:0:0:0:
320,192,69580,1,0,0:0:0:0:
320,192,69999,1,0,0:0:0:0:
320,192,70239,1,0,0:0:0:0:
320,192,70538,1,0,0:0:0:0:
320,192,70958,1,0,0:0:0:0:
320,192,71137,1,0,0:0:0:0:
320,192,71497,1,0,0:0:0:0:
320,192,72395,1,0,0:0:0:0:
320,192,73113,1,0,0:0:0:0:
320,192,73353,1,0,0:0:0:0:
320,192,73592,5,0,0:0:0:0:
320,192,73832,1,0,0:0:0:0:
320,192,74071,1,0,0:0:0:0:
320,192,74311,1,0,0:0:0:0:
64,192,74730,5,0,0:0:0:0:
192,192,74730,1,0,0:0:0:0:
320,192,74730,1,0,0:0:0:0:
448,192,74790,1,0,0:0:0:0:
320,192,74850,1,0,0:0:0:0:
64,192,74910,1,0,0:0:0:0:
192,192,74910,1,0,0:0:0:0:
448,192,74970,1,0,0:0:0:0:
320,192,75029,1,0,0:0:0:0:
64,192,75089,1,0,0:0:0:0:
192,192,75089,1,0,0:0:0:0:
320,192,75149,1,0,0:0:0:0:
192,192,75209,1,0,0:0:0:0:
64,192,75269,1,0,0:0:0:0:
448,192,75269,1,0,0:0:0:0:
320,192,75329,1,0,0:0:0:0:
192,192,75389,1,0,0:0:0:0:
448,192,75449,1,0,0:0:0:0:
320,192,75449,1,0,0:0:0:0:
192,192,75508,1,0,0:0:0:0:
64,192,75568,1,0,0:0:0:0:
192,192,75628,1,0,0:0:0:0:
320,192,75628,1,0,0:0:0:0:
448,192,75688,1,0,0:0:0:0:
320,192,75748,1,0,0:0:0:0:
64,192,75808,1,0,0:0:0:0:
192,192,75808,1,0,0:0:0:0:
448,192,75868,1,0,0:0:0:0:
320,192,75928,1,0,0:0:0:0:
64,192,75988,1,0,0:0:0:0:
192,192,75988,1,0,0:0:0:0:
320,192,76047,1,0,0:0:0:0:
192,192,76107,1,0,0:0:0:0:
64,192,76167,1,0,0:0:0:0:
448,192,76167,1,0,0:0:0:0:
192,192,76227,1,0,0:0:0:0:
320,192,76287,1,0,0:0:0:0:
64,192,76347,1,0,0:0:0:0:
448,192,76347,1,0,0:0:0:0:
192,192,76407,1,0,0:0:0:0:
320,192,76467,1,0,0:0:0:0:
192,192,76526,1,0,0:0:0:0:
64,192,76526,1,0,0:0:0:0:
448,192,76586,1,0,0:0:0:0:
320,192,76646,1,0,0:0:0:0:
64,192,76706,1,0,0:0:0:0:
192,192,76706,1,0,0:0:0:0:
448,192,76766,1,0,0:0:0:0:
320,192,76826,1,0,0:0:0:0:
192,192,76886,1,0,0:0:0:0:
64,192,76886,1,0,0:0:0:0:
448,192,76946,1,0,0:0:0:0:
320,192,77005,1,0,0:0:0:0:
192,192,77065,1,0,0:0:0:0:
448,192,77065,1,0,0:0:0:0:
64,192,77125,1,0,0:0:0:0:
192,192,77185,1,0,0:0:0:0:
448,192,77245,1,0,0:0:0:0:
320,192,77245,1,0,0:0:0:0:
192,192,77305,1,0,0:0:0:0:
320,192,77365,1,0,0:0:0:0:
64,192,77425,1,0,0:0:0:0:
448,192,77425,1,0,0:0:0:0:
192,192,77485,1,0,0:0:0:0:
320,192,77544,1,0,0:0:0:0:
192,192,77604,1,0,0:0:0:0:
64,192,77604,1,0,0:0:0:0:
448,192,77664,1,0,0:0:0:0:
320,192,77724,1,0,0:0:0:0:
64,192,77784,1,0,0:0:0:0:
192,192,77784,1,0,0:0:0:0:
448,192,77844,1,0,0:0:0:0:
320,192,77904,1,0,0:0:0:0:
192,192,77964,1,0,0:0:0:0:
64,192,77964,1,0,0:0:0:0:
320,192,78023,1,0,0:0:0:0:
448,192,78083,1,0,0:0:0:0:
192,192,78143,1,0,0:0:0:0:
64,192,78143,1,0,0:0:0:0:
320,192,78203,1,0,0:0:0:0:
192,192,78263,1,0,0:0:0:0:
448,192,78323,1,0,0:0:0:0:
64,192,78323,1,0,0:0:0:0:
192,192,78383,1,0,0:0:0:0:
320,192,78443,1,0,0:0:0:0:
448,192,78502,1,0,0:0:0:0:
64,192,78502,1,0,0:0:0:0:
320,192,78562,1,0,0:0:0:0:
192,192,78622,1,0,0:0:0:0:
64,192,78682,1,0,0:0:0:0:
448,192,78682,1,0,0:0:0:0:
192,192,78742,1,0,0:0:0:0:
320,192,78802,1,0,0:0:0:0:
64,192,78862,1,0,0:0:0:0:
448,192,78862,1,0,0:0:0:0:
192,192,78922,1,0,0:0:0:0:
320,192,78982,1,0,0:0:0:0:
192,192,79041,1,0,0:0:0:0:
64,192,79041,1,0,0:0:0:0:
448,192,79086,1,0,0:0:0:0:
320,192,79131,1,0,0:0:0:0:
192,192,79176,1,0,0:0:0:0:
448,192,79221,1,0,0:0:0:0:
64,192,79221,1,0,0:0:0:0:
192,192,79266,1,0,0:0:0:0:
320,192,79311,1,0,0:0:0:0:
448,192,79356,1,0,0:0:0:0:
64,192,79401,5,0,0:0:0:0:
192,192,79401,1,0,0:0:0:0:
448,192,79446,1,0,0:0:0:0:
320,192,79491,1,0,0:0:0:0:
192,192,79535,1,0,0:0:0:0:
448,192,79580,1,0,0:0:0:0:
64,192,79580,1,0,0:0:0:0:
320,192,79625,1,0,0:0:0:0:
192,192,79670,1,0,0:0:0:0:
64,192,79715,1,0,0:0:0:0:
448,192,79760,1,0,0:0:0:0:
320,192,79760,1,0,0:0:0:0:
64,192,79805,1,0,0:0:0:0:
192,192,79850,1,0,0:0:0:0:
320,192,79895,1,0,0:0:0:0:
192,192,79940,1,0,0:0:0:0:
64,192,79940,1,0,0:0:0:0:
448,192,79985,1,0,0:0:0:0:
320,192,80029,1,0,0:0:0:0:
192,192,80074,1,0,0:0:0:0:
64,192,80119,1,0,0:0:0:0:
448,192,80119,1,0,0:0:0:0:
192,192,80164,1,0,0:0:0:0:
320,192,80209,1,0,0:0:0:0:
448,192,80254,1,0,0:0:0:0:
192,192,80299,1,0,0:0:0:0:
64,192,80299,1,0,0:0:0:0:
320,192,80344,1,0,0:0:0:0:
192,192,80389,1,0,0:0:0:0:
64,192,80434,1,0,0:0:0:0:
448,192,80479,5,0,0:0:0:0:
192,192,80479,1,0,0:0:0:0:
320,192,80479,1,0,0:0:0:0:
64,192,80538,1,0,0:0:0:0:
192,192,80598,1,0,0:0:0:0:
448,192,80658,1,0,0:0:0:0:
320,192,80658,1,0,0:0:0:0:
64,192,80718,1,0,0:0:0:0:
192,192,80778,1,0,0:0:0:0:
320,192,80838,1,0,0:0:0:0:
448,192,80838,1,0,0:0:0:0:
192,192,80898,1,0,0:0:0:0:
64,192,80958,1,0,0:0:0:0:
320,192,81017,1,0,0:0:0:0:
448,192,81017,1,0,0:0:0:0:
192,192,81077,1,0,0:0:0:0:
64,192,81137,1,0,0:0:0:0:
448,192,81197,1,0,0:0:0:0:
320,192,81197,1,0,0:0:0:0:
192,192,81257,1,0,0:0:0:0:
320,192,81317,1,0,0:0:0:0:
192,192,81377,1,0,0:0:0:0:
64,192,81377,1,0,0:0:0:0:
448,192,81437,1,0,0:0:0:0:
320,192,81497,1,0,0:0:0:0:
64,192,81556,1,0,0:0:0:0:
192,192,81556,1,0,0:0:0:0:
448,192,81616,1,0,0:0:0:0:
320,192,81676,1,0,0:0:0:0:
64,192,81736,1,0,0:0:0:0:
192,192,81736,1,0,0:0:0:0:
320,192,81796,1,0,0:0:0:0:
192,192,81856,1,0,0:0:0:0:
64,192,81916,1,0,0:0:0:0:
448,192,81916,1,0,0:0:0:0:
192,192,81976,1,0,0:0:0:0:
320,192,82035,1,0,0:0:0:0:
64,192,82095,1,0,0:0:0:0:
448,192,82095,1,0,0:0:0:0:
192,192,82155,1,0,0:0:0:0:
320,192,82215,1,0,0:0:0:0:
192,192,82275,1,0,0:0:0:0:
64,192,82275,1,0,0:0:0:0:
448,192,82335,1,0,0:0:0:0:
320,192,82395,1,0,0:0:0:0:
64,192,82455,1,0,0:0:0:0:
192,192,82455,1,0,0:0:0:0:
448,192,82514,1,0,0:0:0:0:
320,192,82574,1,0,0:0:0:0:
192,192,82634,1,0,0:0:0:0:
64,192,82634,1,0,0:0:0:0:
448,192,82694,1,0,0:0:0:0:
320,192,82754,1,0,0:0:0:0:
192,192,82814,1,0,0:0:0:0:
448,192,82814,1,0,0:0:0:0:
64,192,82874,1,0,0:0:0:0:
192,192,82934,1,0,0:0:0:0:
448,192,82994,1,0,0:0:0:0:
320,192,82994,1,0,0:0:0:0:
192,192,83053,1,0,0:0:0:0:
320,192,83113,1,0,0:0:0:0:
64,192,83173,1,0,0:0:0:0:
448,192,83173,1,0,0:0:0:0:
192,192,83233,1,0,0:0:0:0:
320,192,83293,1,0,0:0:0:0:
192,192,83353,1,0,0:0:0:0:
64,192,83353,1,0,0:0:0:0:
448,192,83413,1,0,0:0:0:0:
320,192,83473,1,0,0:0:0:0:
64,192,83532,1,0,0:0:0:0:
192,192,83532,1,0,0:0:0:0:
448,192,83592,1,0,0:0:0:0:
320,192,83652,1,0,0:0:0:0:
192,192,83712,1,0,0:0:0:0:
64,192,83712,1,0,0:0:0:0:
320,192,83772,1,0,0:0:0:0:
448,192,83832,1,0,0:0:0:0:
192,192,83892,1,0,0:0:0:0:
64,192,83892,1,0,0:0:0:0:
320,192,83952,1,0,0:0:0:0:
192,192,84011,1,0,0:0:0:0:
448,192,84071,1,0,0:0:0:0:
64,192,84071,1,0,0:0:0:0:
192,192,84131,1,0,0:0:0:0:
320,192,84191,1,0,0:0:0:0:
448,192,84251,1,0,0:0:0:0:
64,192,84251,1,0,0:0:0:0:
320,192,84311,1,0,0:0:0:0:
192,192,84371,1,0,0:0:0:0:
64,192,84431,1,0,0:0:0:0:
448,192,84431,1,0,0:0:0:0:
192,192,84491,1,0,0:0:0:0:
320,192,84550,1,0,0:0:0:0:
64,192,84610,1,0,0:0:0:0:
448,192,84610,1,0,0:0:0:0:
192,192,84670,1,0,0:0:0:0:
320,192,84730,1,0,0:0:0:0:
192,192,84790,1,0,0:0:0:0:
448,192,84790,1,0,0:0:0:0:
64,192,84835,1,0,0:0:0:0:
192,192,84880,1,0,0:0:0:0:
320,192,84925,1,0,0:0:0:0:
448,192,84970,1,0,0:0:0:0:
64,192,84970,1,0,0:0:0:0:
192,192,85014,1,0,0:0:0:0:
320,192,85059,5,0,0:0:0:0:
448,192,85104,1,0,0:0:0:0:
192,192,85149,1,0,0:0:0:0:
64,192,85149,1,0,0:0:0:0:
448,192,85194,1,0,0:0:0:0:
320,192,85239,1,0,0:0:0:0:
192,192,85284,1,0,0:0:0:0:
448,192,85329,1,0,0:0:0:0:
64,192,85329,1,0,0:0:0:0:
192,192,85374,1,0,0:0:0:0:
320,192,85419,1,0,0:0:0:0:
448,192,85464,1,0,0:0:0:0:
64,192,85508,5,0,0:0:0:0:
192,192,85508,1,0,0:0:0:0:
448,192,85553,1,0,0:0:0:0:
320,192,85598,1,0,0:0:0:0:
192,192,85643,1,0,0:0:0:0:
448,192,85688,1,0,0:0:0:0:
64,192,85688,1,0,0:0:0:0:
320,192,85733,1,0,0:0:0:0:
192,192,85778,1,0,0:0:0:0:
64,192,85823,1,0,0:0:0:0:
448,192,85868,1,0,0:0:0:0:
320,192,85868,1,0,0:0:0:0:
64,192,85913,1,0,0:0:0:0:
192,192,85958,1,0,0:0:0:0:
320,192,86002,1,0,0:0:0:0:
64,192,86047,1,0,0:0:0:0:
448,192,86047,1,0,0:0:0:0:
320,192,86092,1,0,0:0:0:0:
192,192,86137,1,0,0:0:0:0:
64,192,86182,1,0,0:0:0:0:
448,192,86227,5,0,0:0:0:0:
320,192,86227,1,0,0:0:0:0:
192,192,86227,1,0,0:0:0:0:
64,192,86287,1,0,0:0:0:0:
192,192,86347,1,0,0:0:0:0:
320,192,86407,1,0,0:0:0:0:
448,192,86407,1,0,0:0:0:0:
64,192,86467,1,0,0:0:0:0:
192,192,86526,1,0,0:0:0:0:
320,192,86586,1,0,0:0:0:0:
448,192,86586,1,0,0:0:0:0:
192,192,86646,1,0,0:0:0:0:
320,192,86706,1,0,0:0:0:0:
448,192,86766,1,0,0:0:0:0:
64,192,86766,1,0,0:0:0:0:
192,192,86826,1,0,0:0:0:0:
320,192,86886,1,0,0:0:0:0:
64,192,86946,1,0,0:0:0:0:
192,192,86946,1,0,0:0:0:0:
320,192,87005,1,0,0:0:0:0:
448,192,87065,1,0,0:0:0:0:
64,192,87125,1,0,0:0:0:0:
192,192,87125,1,0,0:0:0:0:
320,192,87185,1,0,0:0:0:0:
448,192,87245,1,0,0:0:0:0:
192,192,87305,1,0,0:0:0:0:
64,192,87305,1,0,0:0:0:0:
320,192,87365,1,0,0:0:0:0:
192,192,87425,1,0,0:0:0:0:
448,192,87485,1,0,0:0:0:0:
64,192,87485,1,0,0:0:0:0:
320,192,87544,1,0,0:0:0:0:
192,192,87604,1,0,0:0:0:0:
448,192,87664,1,0,0:0:0:0:
64,192,87664,1,0,0:0:0:0:
320,192,87724,1,0,0:0:0:0:
192,192,87784,1,0,0:0:0:0:
448,192,87844,1,0,0:0:0:0:
64,192,87844,1,0,0:0:0:0:
192,192,87904,1,0,0:0:0:0:
320,192,87964,1,0,0:0:0:0:
64,192,88023,1,0,0:0:0:0:
192,192,88023,1,0,0:0:0:0:
448,192,88083,1,0,0:0:0:0:
320,192,88143,1,0,0:0:0:0:
192,192,88203,1,0,0:0:0:0:
64,192,88203,1,0,0:0:0:0:
320,192,88263,1,0,0:0:0:0:
192,192,88323,1,0,0:0:0:0:
448,192,88383,1,0,0:0:0:0:
320,192,88383,1,0,0:0:0:0:
64,192,88443,1,0,0:0:0:0:
192,192,88502,1,0,0:0:0:0:
448,192,88562,1,0,0:0:0:0:
320,192,88562,1,0,0:0:0:0:
64,192,88622,1,0,0:0:0:0:
192,192,88682,1,0,0:0:0:0:
320,192,88742,1,0,0:0:0:0:
448,192,88742,1,0,0:0:0:0:
192,192,88802,1,0,0:0:0:0:
320,192,88862,1,0,0:0:0:0:
448,192,88922,1,0,0:0:0:0:
64,192,88922,1,0,0:0:0:0:
192,192,88982,1,0,0:0:0:0:
320,192,89041,1,0,0:0:0:0:
64,192,89101,1,0,0:0:0:0:
192,192,89101,1,0,0:0:0:0:
448,192,89161,1,0,0:0:0:0:
320,192,89221,1,0,0:0:0:0:
192,192,89281,1,0,0:0:0:0:
64,192,89281,1,0,0:0:0:0:
448,192,89341,1,0,0:0:0:0:
320,192,89401,1,0,0:0:0:0:
64,192,89461,1,0,0:0:0:0:
192,192,89461,1,0,0:0:0:0:
320,192,89520,1,0,0:0:0:0:
448,192,89580,1,0,0:0:0:0:
64,192,89640,1,0,0:0:0:0:
192,192,89640,1,0,0:0:0:0:
320,192,89700,1,0,0:0:0:0:
192,192,89760,1,0,0:0:0:0:
64,192,89820,1,0,0:0:0:0:
448,192,89820,1,0,0:0:0:0:
192,192,89880,1,0,0:0:0:0:
320,192,89940,1,0,0:0:0:0:
64,192,89999,1,0,0:0:0:0:
448,192,89999,1,0,0:0:0:0:
320,192,90059,1,0,0:0:0:0:
192,192,90119,1,0,0:0:0:0:
448,192,90179,1,0,0:0:0:0:
64,192,90179,1,0,0:0:0:0:
192,192,90239,1,0,0:0:0:0:
320,192,90299,1,0,0:0:0:0:
448,192,90359,1,0,0:0:0:0:
64,192,90359,1,0,0:0:0:0:
192,192,90419,1,0,0:0:0:0:
320,192,90479,1,0,0:0:0:0:
64,192,90538,1,0,0:0:0:0:
192,192,90538,1,0,0:0:0:0:
448,192,90583,1,0,0:0:0:0:
320,192,90628,1,0,0:0:0:0:
192,192,90673,1,0,0:0:0:0:
448,192,90718,1,0,0:0:0:0:
64,192,90718,1,0,0:0:0:0:
320,192,90763,1,0,0:0:0:0:
192,192,90808,5,0,0:0:0:0:
64,192,90853,1,0,0:0:0:0:
320,192,90898,5,0,0:0:0:0:
448,192,90898,1,0,0:0:0:0:
64,192,90943,1,0,0:0:0:0:
192,192,90988,1,0,0:0:0:0:
320,192,91032,1,0,0:0:0:0:
448,192,91077,1,0,0:0:0:0:
192,192,91077,1,0,0:0:0:0:
64,192,91122,1,0,0:0:0:0:
192,192,91167,1,0,0:0:0:0:
320,192,91212,1,0,0:0:0:0:
448,192,91257,1,0,0:0:0:0:
64,192,91257,1,0,0:0:0:0:
320,192,91302,1,0,0:0:0:0:
192,192,91347,1,0,0:0:0:0:
64,192,91392,1,0,0:0:0:0:
448,192,91437,1,0,0:0:0:0:
320,192,91437,1,0,0:0:0:0:
64,192,91482,1,0,0:0:0:0:
192,192,91526,1,0,0:0:0:0:
320,192,91571,1,0,0:0:0:0:
448,192,91616,1,0,0:0:0:0:
64,192,91616,1,0,0:0:0:0:
320,192,91661,1,0,0:0:0:0:
192,192,91706,1,0,0:0:0:0:
64,192,91751,1,0,0:0:0:0:
448,192,91796,1,0,0:0:0:0:
320,192,91796,1,0,0:0:0:0:
192,192,91841,1,0,0:0:0:0:
320,192,91886,1,0,0:0:0:0:
448,192,91931,1,0,0:0:0:0:
64,192,91976,5,0,0:0:0:0:
192,192,91976,1,0,0:0:0:0:
320,192,91976,1,0,0:0:0:0:
448,192,92035,1,0,0:0:0:0:
320,192,92095,1,0,0:0:0:0:
64,192,92155,1,0,0:0:0:0:
192,192,92155,1,0,0:0:0:0:
448,192,92215,1,0,0:0:0:0:
320,192,92275,1,0,0:0:0:0:
64,192,92335,1,0,0:0:0:0:
192,192,92335,1,0,0:0:0:0:
320,192,92395,1,0,0:0:0:0:
192,192,92455,1,0,0:0:0:0:
64,192,92514,1,0,0:0:0:0:
448,192,92514,1,0,0:0:0:0:
320,192,92574,1,0,0:0:0:0:
192,192,92634,1,0,0:0:0:0:
448,192,92694,1,0,0:0:0:0:
320,192,92694,1,0,0:0:0:0:
64,192,92754,1,0,0:0:0:0:
192,192,92814,1,0,0:0:0:0:
320,192,92874,1,0,0:0:0:0:
448,192,92874,1,0,0:0:0:0:
192,192,92934,1,0,0:0:0:0:
64,192,92994,1,0,0:0:0:0:
448,192,93053,1,0,0:0:0:0:
192,192,93053,1,0,0:0:0:0:
320,192,93113,1,0,0:0:0:0:
192,192,93173,1,0,0:0:0:0:
448,192,93233,1,0,0:0:0:0:
64,192,93233,1,0,0:0:0:0:
320,192,93293,1,0,0:0:0:0:
192,192,93353,1,0,0:0:0:0:
64,192,93413,1,0,0:0:0:0:
448,192,93413,1,0,0:0:0:0:
192,192,93473,1,0,0:0:0:0:
320,192,93532,1,0,0:0:0:0:
64,192,93592,1,0,0:0:0:0:
448,192,93592,1,0,0:0:0:0:
192,192,93652,1,0,0:0:0:0:
320,192,93712,1,0,0:0:0:0:
192,192,93772,1,0,0:0:0:0:
64,192,93772,1,0,0:0:0:0:
448,192,93832,1,0,0:0:0:0:
320,192,93892,1,0,0:0:0:0:
64,192,93952,1,0,0:0:0:0:
192,192,93952,1,0,0:0:0:0:
448,192,94011,1,0,0:0:0:0:
320,192,94071,1,0,0:0:0:0:
192,192,94131,1,0,0:0:0:0:
64,192,94131,1,0,0:0:0:0:
448,192,94191,1,0,0:0:0:0:
320,192,94251,1,0,0:0:0:0:
192,192,94311,1,0,0:0:0:0:
448,192,94311,1,0,0:0:0:0:
64,192,94371,1,0,0:0:0:0:
192,192,94431,1,0,0:0:0:0:
448,192,94491,1,0,0:0:0:0:
320,192,94491,1,0,0:0:0:0:
64,192,94550,1,0,0:0:0:0:
192,192,94610,1,0,0:0:0:0:
448,192,94670,1,0,0:0:0:0:
320,192,94670,1,0,0:0:0:0:
64,192,94730,1,0,0:0:0:0:
192,192,94790,1,0,0:0:0:0:
320,192,94850,5,0,0:0:0:0:
448,192,94850,1,0,0:0:0:0:
64,192,94910,1,0,0:0:0:0:
192,192,94910,1,0,0:0:0:0:
320,192,94970,1,0,0:0:0:0:
448,192,94970,1,0,0:0:0:0:
192,192,95029,1,0,0:0:0:0:
64,192,95029,1,0,0:0:0:0:
448,192,95209,1,0,0:0:0:0:
320,192,95209,1,0,0:0:0:0:
192,192,95269,1,0,0:0:0:0:
64,192,95269,1,0,0:0:0:0:
448,192,95329,1,0,0:0:0:0:
320,192,95329,1,0,0:0:0:0:
64,192,95389,1,0,0:0:0:0:
192,192,95389,1,0,0:0:0:0:
448,192,95568,1,0,0:0:0:0:
320,192,95568,1,0,0:0:0:0:
192,192,95628,1,0,0:0:0:0:
64,192,95628,1,0,0:0:0:0:
448,192,95688,1,0,0:0:0:0:
320,192,95688,1,0,0:0:0:0:
192,192,95748,1,0,0:0:0:0:
64,192,95748,1,0,0:0:0:0:
448,192,95838,1,0,0:0:0:0:
320,192,95928,1,0,0:0:0:0:
192,192,95928,1,0,0:0:0:0:
64,192,96017,1,0,0:0:0:0:
448,192,96107,1,0,0:0:0:0:
320,192,96107,1,0,0:0:0:0:
448,192,96287,1,0,0:0:0:0:
320,192,96287,1,0,0:0:0:0:
192,192,96347,1,0,0:0:0:0:
64,192,96347,1,0,0:0:0:0:
320,192,96407,1,0,0:0:0:0:
448,192,96407,1,0,0:0:0:0:
192,192,96467,1,0,0:0:0:0:
64,192,96467,1,0,0:0:0:0:
320,192,96526,1,0,0:0:0:0:
448,192,96526,1,0,0:0:0:0:
192,192,96586,1,0,0:0:0:0:
64,192,96586,1,0,0:0:0:0:
320,192,96646,1,0,0:0:0:0:
448,192,96646,1,0,0:0:0:0:
192,192,96706,1,0,0:0:0:0:
64,192,96706,1,0,0:0:0:0:
320,192,96766,1,0,0:0:0:0:
448,192,96766,1,0,0:0:0:0:
192,192,96826,1,0,0:0:0:0:
64,192,96826,1,0,0:0:0:0:
320,192,96916,1,0,0:0:0:0:
192,192,97005,1,0,0:0:0:0:
320,192,97095,1,0,0:0:0:0:
64,192,97185,1,0,0:0:0:0:
192,192,97230,1,0,0:0:0:0:
448,192,97230,1,0,0:0:0:0:
320,192,97275,1,0,0:0:0:0:
448,192,97320,1,0,0:0:0:0:
64,192,97365,1,0,0:0:0:0:
448,192,97544,1,0,0:0:0:0:
320,192,97589,1,0,0:0:0:0:
64,192,97589,1,0,0:0:0:0:
192,192,97634,1,0,0:0:0:0:
64,192,97679,1,0,0:0:0:0:
448,192,97724,1,0,0:0:0:0:
192,192,97784,1,0,0:0:0:0:
320,192,97844,1,0,0:0:0:0:
448,192,97904,1,0,0:0:0:0:
320,192,97964,1,0,0:0:0:0:
192,192,98023,1,0,0:0:0:0:
64,192,98083,1,0,0:0:0:0:
448,192,98083,1,0,0:0:0:0:
192,192,98143,1,0,0:0:0:0:
320,192,98203,1,0,0:0:0:0:
192,192,98263,1,0,0:0:0:0:
64,192,98323,1,0,0:0:0:0:
192,192,98383,1,0,0:0:0:0:
320,192,98443,1,0,0:0:0:0:
448,192,98502,1,0,0:0:0:0:
320,192,98562,1,0,0:0:0:0:
192,192,98622,1,0,0:0:0:0:
64,192,98682,1,0,0:0:0:0:
192,192,98742,1,0,0:0:0:0:
320,192,98802,1,0,0:0:0:0:
448,192,98802,1,0,0:0:0:0:
192,192,98862,1,0,0:0:0:0:
64,192,98922,1,0,0:0:0:0:
192,192,98982,1,0,0:0:0:0:
320,192,99041,1,0,0:0:0:0:
448,192,99101,1,0,0:0:0:0:
320,192,99161,1,0,0:0:0:0:
192,192,99221,1,0,0:0:0:0:
64,192,99281,1,0,0:0:0:0:
192,192,99341,1,0,0:0:0:0:
320,192,99401,1,0,0:0:0:0:
448,192,99461,1,0,0:0:0:0:
64,192,99520,1,0,0:0:0:0:
192,192,99520,1,0,0:0:0:0:
320,192,99580,1,0,0:0:0:0:
192,192,99640,1,0,0:0:0:0:
64,192,99700,1,0,0:0:0:0:
192,192,99760,1,0,0:0:0:0:
320,192,99820,1,0,0:0:0:0:
192,192,99880,1,0,0:0:0:0:
64,192,99940,1,0,0:0:0:0:
192,192,99999,1,0,0:0:0:0:
320,192,100059,1,0,0:0:0:0:
448,192,100119,1,0,0:0:0:0:
320,192,100179,1,0,0:0:0:0:
192,192,100239,1,0,0:0:0:0:
64,192,100239,1,0,0:0:0:0:
448,192,100299,1,0,0:0:0:0:
320,192,100359,1,0,0:0:0:0:
192,192,100419,1,0,0:0:0:0:
320,192,100479,1,0,0:0:0:0:
448,192,100538,1,0,0:0:0:0:
320,192,100598,1,0,0:0:0:0:
192,192,100658,1,0,0:0:0:0:
64,192,100718,1,0,0:0:0:0:
192,192,100778,1,0,0:0:0:0:
320,192,100838,1,0,0:0:0:0:
448,192,100898,1,0,0:0:0:0:
320,192,100958,1,0,0:0:0:0:
64,192,100958,1,0,0:0:0:0:
192,192,101017,1,0,0:0:0:0:
320,192,101077,1,0,0:0:0:0:
448,192,101137,1,0,0:0:0:0:
320,192,101197,1,0,0:0:0:0:
192,192,101257,1,0,0:0:0:0:
64,192,101317,1,0,0:0:0:0:
192,192,101377,1,0,0:0:0:0:
320,192,101437,1,0,0:0:0:0:
192,192,101497,1,0,0:0:0:0:
64,192,101556,1,0,0:0:0:0:
192,192,101616,1,0,0:0:0:0:
448,192,101676,1,0,0:0:0:0:
320,192,101676,1,0,0:0:0:0:
192,192,101736,1,0,0:0:0:0:
320,192,101796,1,0,0:0:0:0:
192,192,101856,1,0,0:0:0:0:
64,192,101916,1,0,0:0:0:0:
192,192,101976,1,0,0:0:0:0:
320,192,102035,1,0,0:0:0:0:
448,192,102080,1,0,0:0:0:0:
320,192,102125,1,0,0:0:0:0:
192,192,102170,1,0,0:0:0:0:
64,192,102215,1,0,0:0:0:0:
192,192,102260,1,0,0:0:0:0:
320,192,102305,1,0,0:0:0:0:
448,192,102350,1,0,0:0:0:0:
64,192,102395,1,0,0:0:0:0:
192,192,102395,1,0,0:0:0:0:
448,192,102440,1,0,0:0:0:0:
320,192,102485,1,0,0:0:0:0:
192,192,102529,1,0,0:0:0:0:
64,192,102574,1,0,0:0:0:0:
192,192,102619,1,0,0:0:0:0:
320,192,102664,1,0,0:0:0:0:
448,192,102709,1,0,0:0:0:0:
320,192,102754,1,0,0:0:0:0:
192,192,102799,1,0,0:0:0:0:
64,192,102844,1,0,0:0:0:0:
192,192,102889,1,0,0:0:0:0:
320,192,102934,1,0,0:0:0:0:
448,192,102979,1,0,0:0:0:0:
320,192,103023,1,0,0:0:0:0:
192,192,103068,1,0,0:0:0:0:
64,192,103113,1,0,0:0:0:0:
448,192,103113,1,0,0:0:0:0:
192,192,103158,1,0,0:0:0:0:
320,192,103203,1,0,0:0:0:0:
448,192,103248,1,0,0:0:0:0:
320,192,103293,1,0,0:0:0:0:
192,192,103338,1,0,0:0:0:0:
64,192,103383,1,0,0:0:0:0:
192,192,103428,1,0,0:0:0:0:
320,192,103473,1,0,0:0:0:0:
448,192,103532,1,0,0:0:0:0:
320,192,103592,1,0,0:0:0:0:
192,192,103652,1,0,0:0:0:0:
64,192,103712,1,0,0:0:0:0:
192,192,103772,1,0,0:0:0:0:
320,192,103832,1,0,0:0:0:0:
448,192,103832,1,0,0:0:0:0:
192,192,103892,1,0,0:0:0:0:
64,192,103952,1,0,0:0:0:0:
192,192,104011,1,0,0:0:0:0:
320,192,104071,1,0,0:0:0:0:
448,192,104131,1,0,0:0:0:0:
320,192,104191,1,0,0:0:0:0:
192,192,104251,1,0,0:0:0:0:
64,192,104311,1,0,0:0:0:0:
192,192,104371,1,0,0:0:0:0:
320,192,104431,1,0,0:0:0:0:
192,192,104491,1,0,0:0:0:0:
448,192,104550,1,0,0:0:0:0:
64,192,104550,1,0,0:0:0:0:
192,192,104610,1,0,0:0:0:0:
320,192,104670,1,0,0:0:0:0:
192,192,104730,1,0,0:0:0:0:
64,192,104790,1,0,0:0:0:0:
192,192,104850,1,0,0:0:0:0:
320,192,104910,1,0,0:0:0:0:
448,192,104970,1,0,0:0:0:0:
320,192,105029,1,0,0:0:0:0:
192,192,105089,1,0,0:0:0:0:
64,192,105149,1,0,0:0:0:0:
192,192,105209,1,0,0:0:0:0:
320,192,105269,1,0,0:0:0:0:
448,192,105269,1,0,0:0:0:0:
192,192,105329,1,0,0:0:0:0:
64,192,105389,1,0,0:0:0:0:
192,192,105449,1,0,0:0:0:0:
320,192,105508,1,0,0:0:0:0:
448,192,105568,1,0,0:0:0:0:
320,192,105628,1,0,0:0:0:0:
192,192,105688,1,0,0:0:0:0:
64,192,105748,1,0,0:0:0:0:
192,192,105808,1,0,0:0:0:0:
320,192,105868,1,0,0:0:0:0:
192,192,105928,1,0,0:0:0:0:
320,192,105988,1,0,0:0:0:0:
448,192,105988,1,0,0:0:0:0:
64,192,106047,1,0,0:0:0:0:
192,192,106107,1,0,0:0:0:0:
320,192,106167,1,0,0:0:0:0:
448,192,106227,1,0,0:0:0:0:
320,192,106287,1,0,0:0:0:0:
192,192,106347,1,0,0:0:0:0:
64,192,106407,1,0,0:0:0:0:
192,192,106467,1,0,0:0:0:0:
320,192,106526,1,0,0:0:0:0:
448,192,106586,1,0,0:0:0:0:
320,192,106646,1,0,0:0:0:0:
64,192,106706,1,0,0:0:0:0:
448,192,106706,1,0,0:0:0:0:
320,192,106766,1,0,0:0:0:0:
192,192,106826,1,0,0:0:0:0:
64,192,106886,1,0,0:0:0:0:
192,192,106946,1,0,0:0:0:0:
320,192,107005,1,0,0:0:0:0:
448,192,107065,1,0,0:0:0:0:
320,192,107125,1,0,0:0:0:0:
192,192,107185,1,0,0:0:0:0:
64,192,107245,1,0,0:0:0:0:
192,192,107305,1,0,0:0:0:0:
320,192,107365,1,0,0:0:0:0:
64,192,107425,1,0,0:0:0:0:
448,192,107425,1,0,0:0:0:0:
192,192,107485,1,0,0:0:0:0:
64,192,107544,1,0,0:0:0:0:
192,192,107604,1,0,0:0:0:0:
320,192,107664,1,0,0:0:0:0:
448,192,107724,1,0,0:0:0:0:
320,192,107784,1,0,0:0:0:0:
192,192,107829,1,0,0:0:0:0:
64,192,107874,1,0,0:0:0:0:
192,192,107919,1,0,0:0:0:0:
320,192,107964,1,0,0:0:0:0:
448,192,108008,1,0,0:0:0:0:
320,192,108053,1,0,0:0:0:0:
192,192,108098,1,0,0:0:0:0:
64,192,108143,1,0,0:0:0:0:
448,192,108143,1,0,0:0:0:0:
192,192,108188,1,0,0:0:0:0:
320,192,108233,1,0,0:0:0:0:
448,192,108278,1,0,0:0:0:0:
320,192,108323,1,0,0:0:0:0:
192,192,108368,1,0,0:0:0:0:
64,192,108413,1,0,0:0:0:0:
192,192,108458,1,0,0:0:0:0:
320,192,108502,1,0,0:0:0:0:
448,192,108547,1,0,0:0:0:0:
320,192,108592,1,0,0:0:0:0:
192,192,108637,1,0,0:0:0:0:
64,192,108682,1,0,0:0:0:0:
448,192,108682,1,0,0:0:0:0:
192,192,108727,1,0,0:0:0:0:
320,192,108772,1,0,0:0:0:0:
448,192,108817,1,0,0:0:0:0:
64,192,108862,1,0,0:0:0:0:
64,192,109041,1,0,0:0:0:0:
448,192,109041,1,0,0:0:0:0:
192,192,109086,1,0,0:0:0:0:
320,192,109131,1,0,0:0:0:0:
448,192,109176,1,0,0:0:0:0:
64,192,109221,1,0,0:0:0:0:
192,192,109221,1,0,0:0:0:0:
320,192,109221,1,0,0:0:0:0:
448,192,109341,1,0,0:0:0:0:
192,192,109341,1,0,0:0:0:0:
320,192,109461,1,0,0:0:0:0:
64,192,109461,1,0,0:0:0:0:
192,192,109580,1,0,0:0:0:0:
448,192,109580,1,0,0:0:0:0:
64,192,109700,1,0,0:0:0:0:
320,192,109700,1,0,0:0:0:0:
192,192,109820,1,0,0:0:0:0:
448,192,109820,1,0,0:0:0:0:
64,192,109940,1,0,0:0:0:0:
448,192,109940,1,0,0:0:0:0:
320,192,109940,1,0,0:0:0:0:
192,192,109940,1,0,0:0:0:0:
448,192,110059,1,0,0:0:0:0:
192,192,110059,1,0,0:0:0:0:
320,192,110179,1,0,0:0:0:0:
64,192,110179,1,0,0:0:0:0:
192,192,110299,1,0,0:0:0:0:
448,192,110299,1,0,0:0:0:0:
320,192,110419,1,0,0:0:0:0:
64,192,110419,1,0,0:0:0:0:
192,192,110538,1,0,0:0:0:0:
448,192,110538,1,0,0:0:0:0:
64,192,110658,1,0,0:0:0:0:
192,192,110658,1,0,0:0:0:0:
320,192,110658,1,0,0:0:0:0:
448,192,110658,1,0,0:0:0:0:
448,192,110778,1,0,0:0:0:0:
192,192,110778,1,0,0:0:0:0:
320,192,110898,1,0,0:0:0:0:
64,192,110898,1,0,0:0:0:0:
192,192,111017,1,0,0:0:0:0:
448,192,111017,1,0,0:0:0:0:
320,192,111137,1,0,0:0:0:0:
64,192,111137,1,0,0:0:0:0:
192,192,111257,1,0,0:0:0:0:
448,192,111257,1,0,0:0:0:0:
192,192,111377,1,0,0:0:0:0:
320,192,111377,1,0,0:0:0:0:
448,192,111377,1,0,0:0:0:0:
64,192,111377,1,0,0:0:0:0:
64,192,111497,1,0,0:0:0:0:
192,192,111497,1,0,0:0:0:0:
320,192,111497,1,0,0:0:0:0:
192,192,111616,1,0,0:0:0:0:
320,192,111616,1,0,0:0:0:0:
448,192,111616,1,0,0:0:0:0:
192,192,111736,1,0,0:0:0:0:
320,192,111736,1,0,0:0:0:0:
448,192,111736,1,0,0:0:0:0:
320,192,111856,1,0,0:0:0:0:
64,192,111856,1,0,0:0:0:0:
192,192,111856,1,0,0:0:0:0:
192,192,111976,1,0,0:0:0:0:
448,192,111976,1,0,0:0:0:0:
320,192,111976,1,0,0:0:0:0:
320,192,112095,1,0,0:0:0:0:
192,192,112095,1,0,0:0:0:0:
64,192,112095,1,0,0:0:0:0:
448,192,112095,1,0,0:0:0:0:
192,192,112215,1,0,0:0:0:0:
448,192,112215,1,0,0:0:0:0:
320,192,112335,1,0,0:0:0:0:
64,192,112335,1,0,0:0:0:0:
448,192,112455,1,0,0:0:0:0:
192,192,112455,1,0,0:0:0:0:
320,192,112574,1,0,0:0:0:0:
64,192,112574,1,0,0:0:0:0:
192,192,112694,1,0,0:0:0:0:
448,192,112694,1,0,0:0:0:0:
192,192,112814,1,0,0:0:0:0:
320,192,112814,1,0,0:0:0:0:
448,192,112814,1,0,0:0:0:0:
64,192,112814,1,0,0:0:0:0:
64,192,112934,1,0,0:0:0:0:
320,192,112934,1,0,0:0:0:0:
192,192,113053,1,0,0:0:0:0:
448,192,113053,1,0,0:0:0:0:
320,192,113173,1,0,0:0:0:0:
64,192,113173,1,0,0:0:0:0:
192,192,113293,1,0,0:0:0:0:
448,192,113293,1,0,0:0:0:0:
320,192,113413,1,0,0:0:0:0:
64,192,113413,1,0,0:0:0:0:
320,192,113532,1,0,0:0:0:0:
192,192,113532,1,0,0:0:0:0:
64,192,113532,1,0,0:0:0:0:
448,192,113532,1,0,0:0:0:0:
448,192,113652,1,0,0:0:0:0:
320,192,113652,1,0,0:0:0:0:
320,192,113772,1,0,0:0:0:0:
192,192,113772,1,0,0:0:0:0:
192,192,113892,1,0,0:0:0:0:
64,192,113892,1,0,0:0:0:0:
320,192,114011,1,0,0:0:0:0:
448,192,114011,1,0,0:0:0:0:
192,192,114131,1,0,0:0:0:0:
64,192,114131,1,0,0:0:0:0:
192,192,114251,1,0,0:0:0:0:
320,192,114251,1,0,0:0:0:0:
448,192,114251,1,0,0:0:0:0:
64,192,114251,1,0,0:0:0:0:
64,192,114371,1,0,0:0:0:0:
192,192,114371,1,0,0:0:0:0:
320,192,114371,1,0,0:0:0:0:
320,192,114491,1,0,0:0:0:0:
192,192,114491,1,0,0:0:0:0:
64,192,114491,1,0,0:0:0:0:
192,192,114610,1,0,0:0:0:0:
64,192,114610,1,0,0:0:0:0:
448,192,114610,1,0,0:0:0:0:
192,192,114730,1,0,0:0:0:0:
64,192,114730,1,0,0:0:0:0:
448,192,114730,1,0,0:0:0:0:
320,192,114850,1,0,0:0:0:0:
192,192,114850,1,0,0:0:0:0:
448,192,114850,1,0,0:0:0:0:
320,192,114970,1,0,0:0:0:0:
192,192,114970,1,0,0:0:0:0:
64,192,114970,1,0,0:0:0:0:
448,192,114970,1,0,0:0:0:0:
320,192,115089,1,0,0:0:0:0:
64,192,115089,1,0,0:0:0:0:
320,192,115209,1,0,0:0:0:0:
64,192,115209,1,0,0:0:0:0:
192,192,115329,1,0,0:0:0:0:
448,192,115329,1,0,0:0:0:0:
64,192,115449,1,0,0:0:0:0:
320,192,115449,1,0,0:0:0:0:
448,192,115568,1,0,0:0:0:0:
192,192,115568,1,0,0:0:0:0:
192,192,115688,1,0,0:0:0:0:
320,192,115688,1,0,0:0:0:0:
448,192,115688,1,0,0:0:0:0:
64,192,115688,1,0,0:0:0:0:
192,192,115808,1,0,0:0:0:0:
448,192,115808,1,0,0:0:0:0:
320,192,115928,1,0,0:0:0:0:
64,192,115928,1,0,0:0:0:0:
192,192,116047,1,0,0:0:0:0:
320,192,116047,1,0,0:0:0:0:
320,192,116167,1,0,0:0:0:0:
448,192,116167,1,0,0:0:0:0:
192,192,116287,1,0,0:0:0:0:
64,192,116287,1,0,0:0:0:0:
320,192,116407,1,0,0:0:0:0:
192,192,116407,1,0,0:0:0:0:
64,192,116407,1,0,0:0:0:0:
448,192,116407,1,0,0:0:0:0:
448,192,116526,1,0,0:0:0:0:
192,192,116526,1,0,0:0:0:0:
320,192,116646,1,0,0:0:0:0:
64,192,116646,1,0,0:0:0:0:
320,192,116766,1,0,0:0:0:0:
192,192,116766,1,0,0:0:0:0:
192,192,116886,1,0,0:0:0:0:
448,192,116886,1,0,0:0:0:0:
320,192,117005,1,0,0:0:0:0:
64,192,117005,1,0,0:0:0:0:
192,192,117125,1,0,0:0:0:0:
320,192,117125,1,0,0:0:0:0:
448,192,117125,1,0,0:0:0:0:
64,192,117125,1,0,0:0:0:0:
64,192,117245,1,0,0:0:0:0:
192,192,117245,1,0,0:0:0:0:
320,192,117245,1,0,0:0:0:0:
320,192,117365,1,0,0:0:0:0:
192,192,117365,1,0,0:0:0:0:
64,192,117365,1,0,0:0:0:0:
448,192,117485,1,0,0:0:0:0:
320,192,117485,1,0,0:0:0:0:
192,192,117485,1,0,0:0:0:0:
192,192,117604,1,0,0:0:0:0:
320,192,117604,1,0,0:0:0:0:
448,192,117604,1,0,0:0:0:0:
192,192,117724,1,0,0:0:0:0:
320,192,117724,1,0,0:0:0:0:
448,192,117724,1,0,0:0:0:0:
192,192,117844,1,0,0:0:0:0:
64,192,117844,1,0,0:0:0:0:
320,192,117844,1,0,0:0:0:0:
448,192,117844,1,0,0:0:0:0:
64,192,117964,1,0,0:0:0:0:
192,192,117964,1,0,0:0:0:0:
192,192,118083,1,0,0:0:0:0:
320,192,118083,1,0,0:0:0:0:
64,192,118203,1,0,0:0:0:0:
448,192,118203,1,0,0:0:0:0:
192,192,118323,1,0,0:0:0:0:
320,192,118323,1,0,0:0:0:0:
320,192,118443,1,0,0:0:0:0:
448,192,118443,1,0,0:0:0:0:
320,192,118562,1,0,0:0:0:0:
192,192,118562,1,0,0:0:0:0:
448,192,118562,1,0,0:0:0:0:
64,192,118562,1,0,0:0:0:0:
320,192,118682,1,0,0:0:0:0:
448,192,118682,1,0,0:0:0:0:
320,192,118802,1,0,0:0:0:0:
64,192,118802,1,0,0:0:0:0:
192,192,118922,1,0,0:0:0:0:
320,192,118922,1,0,0:0:0:0:
320,192,119041,1,0,0:0:0:0:
448,192,119041,1,0,0:0:0:0:
64,192,119161,1,0,0:0:0:0:
320,192,119161,1,0,0:0:0:0:
320,192,119281,1,0,0:0:0:0:
192,192,119281,1,0,0:0:0:0:
64,192,119281,1,0,0:0:0:0:
448,192,119281,1,0,0:0:0:0:
64,192,119401,1,0,0:0:0:0:
448,192,119401,1,0,0:0:0:0:
192,192,119520,5,0,0:0:0:0:
320,192,119520,1,0,0:0:0:0:
448,192,119640,1,0,0:0:0:0:
64,192,119640,1,0,0:0:0:0:
192,192,119760,1,0,0:0:0:0:
320,192,119760,1,0,0:0:0:0:
64,192,119880,1,0,0:0:0:0:
448,192,119880,1,0,0:0:0:0:
192,192,119999,1,0,0:0:0:0:
320,192,119999,1,0,0:0:0:0:
448,192,119999,1,0,0:0:0:0:
64,192,119999,1,0,0:0:0:0:
192,192,120119,1,0,0:0:0:0:
448,192,120119,1,0,0:0:0:0:
64,192,120239,1,0,0:0:0:0:
320,192,120239,1,0,0:0:0:0:
192,192,120359,1,0,0:0:0:0:
64,192,120359,1,0,0:0:0:0:
320,192,120479,1,0,0:0:0:0:
192,192,120479,1,0,0:0:0:0:
320,192,120598,1,0,0:0:0:0:
448,192,120598,1,0,0:0:0:0:
448,192,120718,5,0,0:0:0:0:
448,192,120838,1,0,0:0:0:0:
448,192,120958,1,0,0:0:0:0:
448,192,121077,1,0,0:0:0:0:
448,192,121197,1,0,0:0:0:0:
448,192,121317,1,0,0:0:0:0:
448,192,121437,1,0,0:0:0:0:
320,192,121437,1,0,0:0:0:0:
448,192,121556,1,0,0:0:0:0:
320,192,121556,1,0,0:0:0:0:
448,192,121676,1,0,0:0:0:0:
320,192,121676,1,0,0:0:0:0:
320,192,121796,1,0,0:0:0:0:
448,192,121796,1,0,0:0:0:0:
448,192,121916,1,0,0:0:0:0:
320,192,121916,1,0,0:0:0:0:
448,192,122035,1,0,0:0:0:0:
320,192,122035,1,0,0:0:0:0:
448,192,122155,1,0,0:0:0:0:
320,192,122155,1,0,0:0:0:0:
192,192,122155,1,0,0:0:0:0:
448,192,122275,1,0,0:0:0:0:
320,192,122275,1,0,0:0:0:0:
192,192,122275,1,0,0:0:0:0:
448,192,122395,1,0,0:0:0:0:
320,192,122395,1,0,0:0:0:0:
192,192,122395,1,0,0:0:0:0:
448,192,122514,1,0,0:0:0:0:
192,192,122514,1,0,0:0:0:0:
320,192,122514,1,0,0:0:0:0:
448,192,122634,1,0,0:0:0:0:
192,192,122634,1,0,0:0:0:0:
320,192,122634,1,0,0:0:0:0:
448,192,122754,1,0,0:0:0:0:
320,192,122754,1,0,0:0:0:0:
192,192,122754,1,0,0:0:0:0:
320,192,122874,1,0,0:0:0:0:
192,192,122874,1,0,0:0:0:0:
64,192,122874,1,0,0:0:0:0:
448,192,122874,1,0,0:0:0:0:
448,192,122994,1,0,0:0:0:0:
64,192,122994,1,0,0:0:0:0:
192,192,122994,1,0,0:0:0:0:
320,192,122994,1,0,0:0:0:0:
448,192,123113,1,0,0:0:0:0:
64,192,123113,1,0,0:0:0:0:
192,192,123113,1,0,0:0:0:0:
320,192,123113,1,0,0:0:0:0:
448,192,123233,1,0,0:0:0:0:
320,192,123233,1,0,0:0:0:0:
192,192,123233,1,0,0:0:0:0:
64,192,123233,1,0,0:0:0:0:
448,192,123353,1,0,0:0:0:0:
64,192,123353,1,0,0:0:0:0:
192,192,123353,1,0,0:0:0:0:
320,192,123353,1,0,0:0:0:0:
448,192,123473,1,0,0:0:0:0:
64,192,123473,1,0,0:0:0:0:
320,192,123473,1,0,0:0:0:0:
192,192,123473,1,0,0:0:0:0:
