osu file format v14

[General]
AudioFilename: Shiraishi - Shinsekai.mp3
AudioLeadIn: 0
PreviewTime: 47540
Countdown: 0
SampleSet: Normal
StackLeniency: 0.7
Mode: 1
LetterboxInBreaks: 0
WidescreenStoryboard: 0

[Editor]
Bookmarks: 1608,10312,25234,30209,40157,47618,57566,72488,79949,93628
DistanceSpacing: 1
BeatDivisor: 4
GridSize: 32
TimelineZoom: 2.799999

[Metadata]
Title:Chouzetsugikou Renshuukyoku Daiichiban "Shinsekai"
TitleUnicode:超絶技巧練習曲第一番「新世界」
Artist:Shiraishi
ArtistUnicode:しらいし
Creator:_DUSK_
Version:Inner Oni
Source:BMS
Tags:new world
BeatmapID:850685
BeatmapSetID:379666

[Difficulty]
HPDrainRate:6
CircleSize:4
OverallDifficulty:6.5
ApproachRate:9
SliderMultiplier:1.4
SliderTickRate:1

[Events]
//Background and Video events
0,0,"ShinsekaiBG.jpg",0,-130
//Break Periods
//Storyboard Layer 0 (Background)
//Storyboard Layer 1 (Fail)
//Storyboard Layer 2 (Pass)
//Storyboard Layer 3 (Foreground)
//Storyboard Sound Samples

[TimingPoints]
1608,310.880829015544,4,1,0,60,1,0
1763,-102.040816326531,4,1,0,60,0,0
1918,-104.166666666667,4,1,0,60,0,0
2074,-106.382978723404,4,1,0,60,0,0
2540,-108.695652173913,4,1,0,60,0,0
2851,-111.111111111111,4,1,0,60,0,0
3317,-113.636363636364,4,1,0,60,0,0
4095,-117.647058823529,4,1,0,60,0,0
9069,-111.111111111111,4,1,0,60,0,0
9380,-108.695652173913,4,1,0,70,0,0
9846,-104.166666666667,4,1,0,70,0,0
10312,-100,4,1,0,85,0,0
29043,-99.009900990099,4,1,0,85,0,0
29120,-98.0392156862745,4,1,0,85,0,0
29198,-97.0873786407767,4,1,0,85,0,0
29276,-96.1538461538461,4,1,0,85,0,0
29354,-95.2380952380952,4,1,0,85,0,0
29431,-94.3396226415094,4,1,0,85,0,0
29509,-93.4579439252336,4,1,0,85,0,0
29587,-92.5925925925926,4,1,0,85,0,0
29664,-91.743119266055,4,1,0,85,0,0
29742,-90.9090909090909,4,1,0,85,0,0
29820,-90.0900900900901,4,1,0,85,0,0
29898,-89.2857142857143,4,1,0,85,0,0
29975,-88.4955752212389,4,1,0,85,0,0
30053,-87.719298245614,4,1,0,85,0,0
30209,-100,4,1,0,85,0,0
39380,-101.010101010101,4,1,0,85,0,0
39457,-102.040816326531,4,1,0,85,0,0
39535,-103.092783505155,4,1,0,85,0,0
39613,-104.166666666667,4,1,0,85,0,0
39690,-105.263157894737,4,1,0,85,0,0
39768,-106.382978723404,4,1,0,85,0,0
39846,-107.52688172043,4,1,0,85,0,0
39924,-108.695652173913,4,1,0,85,0,0
40001,-109.89010989011,4,1,0,85,0,0
40157,-111.111111111111,4,1,0,85,0,0
46530,-109.89010989011,4,1,0,85,0,0
46685,-108.695652173913,4,1,0,85,0,0
46841,-107.52688172043,4,1,0,85,0,0
46996,-106.382978723404,4,1,0,85,0,0
47152,-105.263157894737,4,1,0,85,0,0
47203,-104.166666666667,4,1,0,85,0,0
47255,-103.092783505155,4,1,0,85,0,0
47307,-102.040816326531,4,1,0,85,0,0
47462,-101.010101010101,4,1,0,85,0,0
47618,-100,4,1,0,85,0,0
57177,-99.009900990099,4,1,0,85,0,0
57255,-98.0392156862745,4,1,0,85,0,0
57333,-97.0873786407767,4,1,0,85,0,0
57411,-96.1538461538461,4,1,0,85,0,0
57566,-95.2380952380952,4,1,0,85,0,1
72488,-95.2380952380952,4,1,0,85,0,0
72799,-103.092783505155,4,1,0,85,0,0
73421,-106.382978723404,4,1,0,85,0,0
73887,-109.89010989011,4,1,0,85,0,0
74509,-113.636363636364,4,1,0,85,0,0
75131,-114.942528735632,4,1,0,85,0,0
75442,-116.279069767442,4,1,0,85,0,0
75753,-117.647058823529,4,1,0,85,0,0
79172,-116.279069767442,4,1,0,85,0,0
79250,-114.942528735632,4,1,0,85,0,0
79328,-113.636363636364,4,1,0,85,0,0
79405,-112.359550561798,4,1,0,85,0,0
79483,-111.111111111111,4,1,0,85,0,0
79561,-109.89010989011,4,1,0,85,0,0
79639,-108.695652173913,4,1,0,85,0,0
79716,-107.52688172043,4,1,0,85,0,0
79794,-106.382978723404,4,1,0,85,0,0
79846,-104.166666666667,4,1,0,85,0,0
79898,-102.040816326531,4,1,0,85,0,0
79949,-100,4,1,0,85,0,0
89975,-100,4,1,0,40,0,0

[HitObjects]
256,192,1608,5,4,0:0:0:0:
256,192,1763,1,0,0:0:0:0:
256,192,1918,1,0,0:0:0:0:
256,192,2074,1,8,0:0:0:0:
256,192,2540,1,8,0:0:0:0:
256,192,2851,1,0,0:0:0:0:
256,192,3317,1,0,0:0:0:0:
256,192,4095,1,12,0:0:0:0:
256,192,4716,1,8,0:0:0:0:
256,192,4872,1,8,0:0:0:0:
256,192,5027,1,0,0:0:0:0:
256,192,5183,1,0,0:0:0:0:
256,192,5338,1,8,0:0:0:0:
256,192,5649,1,0,0:0:0:0:
256,192,5804,1,8,0:0:0:0:
256,192,6271,1,0,0:0:0:0:
256,192,6582,1,12,0:0:0:0:
256,192,7359,1,0,0:0:0:0:
256,192,7514,1,8,0:0:0:0:
256,192,7670,1,8,0:0:0:0:
256,192,7825,1,4,0:0:0:0:
256,192,9380,1,4,0:0:0:0:
256,192,9846,1,12,0:0:0:0:
256,192,10312,1,8,0:0:0:0:
256,192,10390,1,0,0:0:0:0:
256,192,10467,1,0,0:0:0:0:
256,192,10545,1,8,0:0:0:0:
256,192,10623,1,8,0:0:0:0:
256,192,10701,1,0,0:0:0:0:
256,192,10778,1,8,0:0:0:0:
256,192,10856,1,0,0:0:0:0:
256,192,10934,1,8,0:0:0:0:
256,192,11011,1,0,0:0:0:0:
256,192,11089,1,8,0:0:0:0:
256,192,11167,1,8,0:0:0:0:
256,192,11245,1,8,0:0:0:0:
256,192,11322,1,0,0:0:0:0:
256,192,11400,1,8,0:0:0:0:
256,192,11478,1,0,0:0:0:0:
256,192,11555,1,8,0:0:0:0:
256,192,11633,1,0,0:0:0:0:
256,192,11711,1,0,0:0:0:0:
256,192,11789,1,0,0:0:0:0:
256,192,11866,1,8,0:0:0:0:
256,192,11944,1,0,0:0:0:0:
256,192,12022,1,8,0:0:0:0:
256,192,12099,1,8,0:0:0:0:
256,192,12177,1,0,0:0:0:0:
256,192,12255,1,8,0:0:0:0:
256,192,12333,1,0,0:0:0:0:
256,192,12411,1,8,0:0:0:0:
256,192,12488,1,8,0:0:0:0:
256,192,12566,1,0,0:0:0:0:
256,192,12644,1,8,0:0:0:0:
256,192,12721,1,0,0:0:0:0:
256,192,12799,1,0,0:0:0:0:
256,192,12877,1,0,0:0:0:0:
256,192,12955,1,8,0:0:0:0:
256,192,13032,1,0,0:0:0:0:
256,192,13110,1,0,0:0:0:0:
256,192,13188,1,8,0:0:0:0:
256,192,13266,1,8,0:0:0:0:
256,192,13343,1,0,0:0:0:0:
256,192,13421,1,8,0:0:0:0:
256,192,13498,1,8,0:0:0:0:
256,192,13576,1,8,0:0:0:0:
256,192,13654,1,0,0:0:0:0:
256,192,13732,1,8,0:0:0:0:
256,192,13809,1,8,0:0:0:0:
256,192,13887,1,0,0:0:0:0:
256,192,13965,1,0,0:0:0:0:
256,192,14043,1,8,0:0:0:0:
256,192,14120,1,0,0:0:0:0:
256,192,14198,1,0,0:0:0:0:
256,192,14276,1,8,0:0:0:0:
256,192,14353,1,8,0:0:0:0:
256,192,14431,1,8,0:0:0:0:
256,192,14509,1,0,0:0:0:0:
256,192,14587,1,0,0:0:0:0:
256,192,14664,1,8,0:0:0:0:
256,192,14742,1,8,0:0:0:0:
256,192,14820,1,0,0:0:0:0:
256,192,14898,1,8,0:0:0:0:
256,192,14975,1,8,0:0:0:0:
256,192,15053,1,0,0:0:0:0:
256,192,15131,1,8,0:0:0:0:
256,192,15208,1,0,0:0:0:0:
256,192,15286,1,8,0:0:0:0:
256,192,15364,1,0,0:0:0:0:
256,192,15441,1,8,0:0:0:0:
256,192,15519,1,8,0:0:0:0:
256,192,15597,1,0,0:0:0:0:
256,192,15675,1,8,0:0:0:0:
256,192,15752,1,0,0:0:0:0:
256,192,15830,1,0,0:0:0:0:
256,192,15908,1,0,0:0:0:0:
256,192,15986,1,8,0:0:0:0:
256,192,16063,1,0,0:0:0:0:
256,192,16141,1,8,0:0:0:0:
256,192,16219,1,0,0:0:0:0:
256,192,16296,1,0,0:0:0:0:
256,192,16374,1,8,0:0:0:0:
256,192,16452,1,0,0:0:0:0:
256,192,16530,1,8,0:0:0:0:
256,192,16607,1,8,0:0:0:0:
256,192,16685,1,8,0:0:0:0:
256,192,16763,1,0,0:0:0:0:
256,192,16841,1,0,0:0:0:0:
256,192,16918,1,0,0:0:0:0:
256,192,16996,1,8,0:0:0:0:
256,192,17073,1,0,0:0:0:0:
256,192,17151,1,8,0:0:0:0:
256,192,17228,1,8,0:0:0:0:
256,192,17307,1,0,0:0:0:0:
256,192,17384,1,8,0:0:0:0:
256,192,17462,1,8,0:0:0:0:
256,192,17540,1,0,0:0:0:0:
256,192,17618,1,8,0:0:0:0:
256,192,17695,1,0,0:0:0:0:
256,192,17773,1,0,0:0:0:0:
256,192,17851,1,8,0:0:0:0:
256,192,17929,1,8,0:0:0:0:
256,192,18007,1,8,0:0:0:0:
256,192,18084,1,0,0:0:0:0:
256,192,18162,1,8,0:0:0:0:
256,192,18240,1,0,0:0:0:0:
256,192,18317,1,0,0:0:0:0:
256,192,18395,1,8,0:0:0:0:
256,192,18473,1,8,0:0:0:0:
256,192,18551,1,0,0:0:0:0:
256,192,18628,1,8,0:0:0:0:
256,192,18706,1,8,0:0:0:0:
256,192,18784,1,0,0:0:0:0:
256,192,18861,1,8,0:0:0:0:
256,192,18939,1,8,0:0:0:0:
256,192,19017,1,0,0:0:0:0:
256,192,19095,1,0,0:0:0:0:
256,192,19172,1,0,0:0:0:0:
256,192,19250,1,8,0:0:0:0:
256,192,19327,1,8,0:0:0:0:
256,192,19405,1,8,0:0:0:0:
256,192,19483,1,0,0:0:0:0:
256,192,19561,1,8,0:0:0:0:
256,192,19638,1,8,0:0:0:0:
256,192,19716,1,8,0:0:0:0:
256,192,19793,1,0,0:0:0:0:
256,192,19871,1,0,0:0:0:0:
256,192,19949,1,8,0:0:0:0:
256,192,20026,1,8,0:0:0:0:
256,192,20104,1,0,0:0:0:0:
256,192,20182,1,0,0:0:0:0:
256,192,20260,1,8,0:0:0:0:
256,192,20337,1,0,0:0:0:0:
256,192,20416,1,8,0:0:0:0:
256,192,20494,1,8,0:0:0:0:
256,192,20571,1,0,0:0:0:0:
256,192,20649,1,8,0:0:0:0:
256,192,20726,1,8,0:0:0:0:
256,192,20804,1,8,0:0:0:0:
256,192,20882,1,0,0:0:0:0:
256,192,20959,1,8,0:0:0:0:
256,192,21037,1,8,0:0:0:0:
256,192,21115,1,0,0:0:0:0:
256,192,21192,1,0,0:0:0:0:
256,192,21270,1,0,0:0:0:0:
256,192,21348,1,8,0:0:0:0:
256,192,21425,1,0,0:0:0:0:
256,192,21504,1,8,0:0:0:0:
256,192,21581,1,0,0:0:0:0:
256,192,21659,1,0,0:0:0:0:
256,192,21736,1,0,0:0:0:0:
256,192,21814,1,8,0:0:0:0:
256,192,21892,1,0,0:0:0:0:
256,192,21970,1,8,0:0:0:0:
256,192,22047,1,8,0:0:0:0:
256,192,22126,1,0,0:0:0:0:
256,192,22203,1,8,0:0:0:0:
256,192,22281,1,0,0:0:0:0:
256,192,22359,1,0,0:0:0:0:
256,192,22436,1,8,0:0:0:0:
256,192,22514,1,8,0:0:0:0:
256,192,22592,1,0,0:0:0:0:
256,192,22670,1,8,0:0:0:0:
256,192,22747,1,8,0:0:0:0:
256,192,22825,1,8,0:0:0:0:
256,192,22902,1,0,0:0:0:0:
256,192,22980,1,8,0:0:0:0:
256,192,23057,1,8,0:0:0:0:
256,192,23135,1,0,0:0:0:0:
256,192,23213,1,8,0:0:0:0:
256,192,23291,1,0,0:0:0:0:
256,192,23369,1,8,0:0:0:0:
256,192,23447,1,8,0:0:0:0:
256,192,23524,1,0,0:0:0:0:
256,192,23602,1,0,0:0:0:0:
256,192,23680,1,8,0:0:0:0:
256,192,23758,1,0,0:0:0:0:
256,192,23835,1,0,0:0:0:0:
256,192,23913,1,8,0:0:0:0:
256,192,23991,1,8,0:0:0:0:
256,192,24068,1,8,0:0:0:0:
256,192,24146,1,0,0:0:0:0:
256,192,24224,1,8,0:0:0:0:
256,192,24301,1,0,0:0:0:0:
256,192,24379,1,8,0:0:0:0:
256,192,24457,1,0,0:0:0:0:
256,192,24535,1,8,0:0:0:0:
256,192,24612,1,0,0:0:0:0:
256,192,24690,1,0,0:0:0:0:
256,192,24767,1,8,0:0:0:0:
256,192,24846,1,0,0:0:0:0:
256,192,24923,1,8,0:0:0:0:
256,192,25001,1,8,0:0:0:0:
256,192,25079,1,0,0:0:0:0:
256,192,25234,1,4,0:0:0:0:
256,192,25390,1,0,0:0:0:0:
256,192,25468,1,0,0:0:0:0:
256,192,25545,1,8,0:0:0:0:
256,192,25623,1,0,0:0:0:0:
256,192,25778,1,8,0:0:0:0:
256,192,25856,1,0,0:0:0:0:
256,192,26012,1,8,0:0:0:0:
256,192,26089,1,0,0:0:0:0:
256,192,26167,1,0,0:0:0:0:
256,192,26245,1,8,0:0:0:0:
256,192,26400,1,0,0:0:0:0:
256,192,26478,1,8,0:0:0:0:
256,192,26633,1,0,0:0:0:0:
256,192,26789,1,0,0:0:0:0:
256,192,26866,1,0,0:0:0:0:
256,188,26944,1,8,0:0:0:0:
256,192,27022,1,8,0:0:0:0:
256,192,27100,1,8,0:0:0:0:
256,192,27177,1,0,0:0:0:0:
256,188,27255,1,8,0:0:0:0:
256,192,27333,1,0,0:0:0:0:
256,192,27411,1,8,0:0:0:0:
256,192,27488,1,8,0:0:0:0:
256,192,27566,1,0,0:0:0:0:
256,192,27644,1,0,0:0:0:0:
256,192,27721,1,12,0:0:0:0:
256,192,27877,1,0,0:0:0:0:
256,192,28032,1,8,0:0:0:0:
256,192,28110,1,8,0:0:0:0:
256,192,28188,1,0,0:0:0:0:
256,192,28266,1,0,0:0:0:0:
256,192,28343,1,8,0:0:0:0:
256,192,28421,1,8,0:0:0:0:
256,192,28499,1,0,0:0:0:0:
256,192,28576,1,0,0:0:0:0:
256,192,28654,1,8,0:0:0:0:
256,192,28732,1,8,0:0:0:0:
256,192,28810,1,0,0:0:0:0:
256,192,28887,1,8,0:0:0:0:
256,192,28965,1,0,0:0:0:0:
256,192,29043,1,0,0:0:0:0:
256,192,29120,1,8,0:0:0:0:
256,192,29198,1,0,0:0:0:0:
256,192,29276,1,8,0:0:0:0:
256,192,29354,1,8,0:0:0:0:
256,192,29431,1,0,0:0:0:0:
256,192,29509,1,8,0:0:0:0:
256,192,29587,1,0,0:0:0:0:
256,192,29664,1,0,0:0:0:0:
256,192,29742,1,8,0:0:0:0:
256,192,29820,1,0,0:0:0:0:
256,192,29898,1,0,0:0:0:0:
256,192,29975,1,8,0:0:0:0:
256,192,30053,1,0,0:0:0:0:
256,192,30209,1,12,0:0:0:0:
256,192,30364,1,0,0:0:0:0:
256,192,30442,1,0,0:0:0:0:
256,192,30519,1,8,0:0:0:0:
256,192,30597,1,0,0:0:0:0:
256,192,30753,1,8,0:0:0:0:
256,192,30830,1,0,0:0:0:0:
256,192,30908,1,0,0:0:0:0:
256,192,30986,1,8,0:0:0:0:
256,192,31141,1,8,0:0:0:0:
256,192,31219,1,0,0:0:0:0:
256,192,31297,1,8,0:0:0:0:
256,192,31374,1,8,0:0:0:0:
256,192,31452,1,0,0:0:0:0:
256,192,31530,1,8,0:0:0:0:
256,192,31685,1,0,0:0:0:0:
256,192,31763,1,0,0:0:0:0:
256,192,31841,1,0,0:0:0:0:
256,192,31918,1,8,0:0:0:0:
256,192,31996,1,8,0:0:0:0:
256,192,32074,1,0,0:0:0:0:
256,192,32152,1,8,0:0:0:0:
256,192,32307,1,8,0:0:0:0:
256,192,32385,1,0,0:0:0:0:
256,192,32462,1,0,0:0:0:0:
256,192,32540,1,8,0:0:0:0:
256,192,32618,1,8,0:0:0:0:
256,192,32696,1,0,0:0:0:0:
256,192,32851,1,8,0:0:0:0:
256,192,32929,1,0,0:0:0:0:
256,192,33006,1,8,0:0:0:0:
256,192,33084,1,8,0:0:0:0:
256,192,33240,1,8,0:0:0:0:
256,192,33317,1,0,0:0:0:0:
256,192,33395,1,0,0:0:0:0:
256,192,33473,1,8,0:0:0:0:
256,192,33551,1,8,0:0:0:0:
256,192,33628,1,0,0:0:0:0:
256,192,33706,1,0,0:0:0:0:
256,192,33784,1,8,0:0:0:0:
256,192,33861,1,8,0:0:0:0:
256,192,33939,1,0,0:0:0:0:
256,192,34095,1,8,0:0:0:0:
256,192,34173,1,0,0:0:0:0:
256,192,34251,1,8,0:0:0:0:
256,192,34328,1,0,0:0:0:0:
256,192,34483,1,8,0:0:0:0:
256,192,34561,1,0,0:0:0:0:
256,192,34639,1,0,0:0:0:0:
256,192,34716,1,8,0:0:0:0:
256,192,34872,1,8,0:0:0:0:
256,192,34949,1,0,0:0:0:0:
256,192,35027,1,8,0:0:0:0:
256,192,35105,1,8,0:0:0:0:
256,192,35183,1,0,0:0:0:0:
256,192,35338,1,0,0:0:0:0:
256,192,35416,1,0,0:0:0:0:
256,192,35494,1,8,0:0:0:0:
256,192,35571,1,0,0:0:0:0:
256,192,35727,1,0,0:0:0:0:
256,192,35804,1,8,0:0:0:0:
256,192,35882,1,8,0:0:0:0:
256,192,35960,1,0,0:0:0:0:
256,192,36115,1,8,0:0:0:0:
256,192,36193,1,0,0:0:0:0:
256,192,36271,1,8,0:0:0:0:
256,192,36348,1,8,0:0:0:0:
256,192,36426,1,0,0:0:0:0:
256,192,36504,1,8,0:0:0:0:
256,192,36659,1,0,0:0:0:0:
256,192,36737,1,8,0:0:0:0:
256,192,36815,1,0,0:0:0:0:
256,192,36892,1,8,0:0:0:0:
256,192,36970,1,8,0:0:0:0:
256,192,37048,1,0,0:0:0:0:
256,192,37126,1,8,0:0:0:0:
256,192,37203,1,0,0:0:0:0:
256,192,37281,1,8,0:0:0:0:
256,192,37359,1,0,0:0:0:0:
256,192,37437,1,0,0:0:0:0:
256,192,37514,1,8,0:0:0:0:
256,192,37592,1,8,0:0:0:0:
256,192,37670,1,0,0:0:0:0:
256,192,37825,1,8,0:0:0:0:
256,192,37903,1,0,0:0:0:0:
256,192,37981,1,0,0:0:0:0:
256,192,38058,1,8,0:0:0:0:
256,192,38214,1,8,0:0:0:0:
256,192,38291,1,8,0:0:0:0:
256,192,38369,1,8,0:0:0:0:
256,192,38447,1,0,0:0:0:0:
256,192,38525,1,8,0:0:0:0:
256,192,38602,1,0,0:0:0:0:
256,192,38680,1,8,0:0:0:0:
256,192,38835,1,0,0:0:0:0:
256,192,38913,5,8,0:0:0:0:
256,192,38991,1,0,0:0:0:0:
256,192,39069,1,8,0:0:0:0:
256,192,39146,1,8,0:0:0:0:
256,192,39224,1,0,0:0:0:0:
256,192,39302,1,0,0:0:0:0:
256,192,39380,1,8,0:0:0:0:
256,192,39457,1,0,0:0:0:0:
256,192,39535,1,8,0:0:0:0:
256,192,39613,1,0,0:0:0:0:
256,192,39690,1,8,0:0:0:0:
256,192,39768,1,8,0:0:0:0:
256,192,39846,1,0,0:0:0:0:
256,192,39924,1,8,0:0:0:0:
256,192,40001,1,0,0:0:0:0:
256,192,40157,1,4,0:0:0:0:
256,192,40312,1,0,0:0:0:0:
256,192,40390,1,0,0:0:0:0:
256,192,40468,1,8,0:0:0:0:
256,192,40545,1,8,0:0:0:0:
256,192,40701,1,0,0:0:0:0:
256,192,40778,1,8,0:0:0:0:
256,192,40856,1,8,0:0:0:0:
256,192,40934,1,8,0:0:0:0:
256,192,41012,1,8,0:0:0:0:
256,192,41089,1,0,0:0:0:0:
256,192,41167,1,0,0:0:0:0:
256,192,41245,1,8,0:0:0:0:
256,192,41400,1,4,0:0:0:0:
256,192,41556,1,8,0:0:0:0:
256,192,41633,1,0,0:0:0:0:
256,192,41711,1,0,0:0:0:0:
256,192,41789,1,8,0:0:0:0:
256,192,41944,1,0,0:0:0:0:
256,192,42022,1,8,0:0:0:0:
256,192,42100,1,8,0:0:0:0:
256,192,42177,1,0,0:0:0:0:
256,192,42255,1,0,0:0:0:0:
256,192,42333,1,8,0:0:0:0:
256,192,42411,1,0,0:0:0:0:
256,192,42488,1,8,0:0:0:0:
256,192,42644,1,4,0:0:0:0:
256,192,42799,1,0,0:0:0:0:
256,192,42877,1,0,0:0:0:0:
256,192,42955,1,8,0:0:0:0:
256,192,43032,1,0,0:0:0:0:
256,192,43110,1,8,0:0:0:0:
256,192,43266,1,4,0:0:0:0:
256,192,43421,1,0,0:0:0:0:
256,192,43499,1,8,0:0:0:0:
256,192,43576,1,0,0:0:0:0:
256,192,43654,1,0,0:0:0:0:
256,192,43732,1,8,0:0:0:0:
256,192,43887,1,4,0:0:0:0:
256,192,44043,1,0,0:0:0:0:
256,192,44120,1,0,0:0:0:0:
256,192,44198,1,8,0:0:0:0:
256,192,44276,1,8,0:0:0:0:
256,192,44354,1,0,0:0:0:0:
256,192,44509,1,4,0:0:0:0:
256,192,44664,1,8,0:0:0:0:
256,192,44742,1,0,0:0:0:0:
256,192,44820,1,8,0:0:0:0:
256,192,44898,1,8,0:0:0:0:
256,192,44975,1,0,0:0:0:0:
256,192,45131,1,4,0:0:0:0:
256,192,45442,1,4,0:0:0:0:
256,192,45753,5,4,0:0:0:0:
256,192,46063,1,4,0:0:0:0:
256,192,46374,1,4,0:0:0:0:
256,192,46530,1,4,0:0:0:0:
256,192,46685,1,12,0:0:0:0:
256,192,46841,1,12,0:0:0:0:
256,192,46996,1,4,0:0:0:0:
256,192,47152,1,0,0:0:0:0:
256,192,47203,1,0,0:0:0:0:
256,192,47255,1,0,0:0:0:0:
256,192,47307,1,8,0:0:0:0:
256,192,47462,1,8,0:0:0:0:
256,192,47514,1,0,0:0:0:0:
256,192,47566,1,0,0:0:0:0:
256,192,47618,1,8,0:0:0:0:
256,192,47696,1,0,0:0:0:0:
256,192,47773,1,0,0:0:0:0:
256,192,47851,1,8,0:0:0:0:
256,192,47929,1,8,0:0:0:0:
256,192,48006,1,0,0:0:0:0:
256,192,48084,1,8,0:0:0:0:
256,192,48162,1,0,0:0:0:0:
256,192,48240,1,8,0:0:0:0:
256,192,48317,1,8,0:0:0:0:
256,192,48395,1,0,0:0:0:0:
256,192,48473,1,8,0:0:0:0:
256,192,48551,1,8,0:0:0:0:
256,192,48628,1,0,0:0:0:0:
256,192,48706,1,8,0:0:0:0:
256,192,48784,1,0,0:0:0:0:
256,192,48861,1,8,0:0:0:0:
256,192,48939,1,0,0:0:0:0:
256,192,49017,1,8,0:0:0:0:
256,192,49095,1,8,0:0:0:0:
256,192,49172,1,0,0:0:0:0:
256,192,49250,1,8,0:0:0:0:
256,192,49328,1,0,0:0:0:0:
256,192,49405,1,0,0:0:0:0:
256,192,49483,1,0,0:0:0:0:
256,192,49561,1,8,0:0:0:0:
256,192,49639,1,0,0:0:0:0:
256,192,49715,1,8,0:0:0:0:
256,192,49793,1,8,0:0:0:0:
256,192,49871,1,0,0:0:0:0:
256,192,49949,1,8,0:0:0:0:
256,192,50027,1,0,0:0:0:0:
256,192,50105,1,8,0:0:0:0:
256,192,50182,1,0,0:0:0:0:
256,192,50260,1,0,0:0:0:0:
256,192,50337,1,8,0:0:0:0:
256,192,50415,1,8,0:0:0:0:
256,192,50494,1,0,0:0:0:0:
256,192,50571,1,0,0:0:0:0:
256,192,50649,1,8,0:0:0:0:
256,192,50726,1,0,0:0:0:0:
256,192,50804,1,8,0:0:0:0:
256,192,50882,1,8,0:0:0:0:
256,192,50960,1,8,0:0:0:0:
256,192,51038,1,0,0:0:0:0:
256,192,51115,1,0,0:0:0:0:
256,192,51193,1,8,0:0:0:0:
256,192,51271,1,0,0:0:0:0:
256,192,51348,1,8,0:0:0:0:
256,192,51426,1,8,0:0:0:0:
256,192,51505,1,0,0:0:0:0:
256,192,51582,1,8,0:0:0:0:
256,192,51660,1,8,0:0:0:0:
256,192,51737,1,0,0:0:0:0:
256,192,51816,1,8,0:0:0:0:
256,192,51893,1,0,0:0:0:0:
256,192,51970,1,0,0:0:0:0:
256,192,52048,1,8,0:0:0:0:
256,192,52126,1,8,0:0:0:0:
256,192,52203,1,0,0:0:0:0:
256,192,52281,1,8,0:0:0:0:
256,192,52359,1,0,0:0:0:0:
256,192,52437,1,8,0:0:0:0:
256,192,52592,1,8,0:0:0:0:
256,192,52670,1,0,0:0:0:0:
256,192,52747,1,8,0:0:0:0:
256,192,52825,1,8,0:0:0:0:
256,192,52903,1,8,0:0:0:0:
256,192,52980,1,0,0:0:0:0:
256,192,53058,1,8,0:0:0:0:
256,192,53136,1,0,0:0:0:0:
256,192,53214,1,8,0:0:0:0:
256,192,53291,1,8,0:0:0:0:
256,192,53369,1,0,0:0:0:0:
256,192,53447,1,0,0:0:0:0:
256,192,53525,1,8,0:0:0:0:
256,192,53602,1,8,0:0:0:0:
256,192,53680,1,0,0:0:0:0:
256,192,53757,1,0,0:0:0:0:
256,192,53835,1,8,0:0:0:0:
256,192,53913,1,0,0:0:0:0:
256,192,53991,1,0,0:0:0:0:
256,192,54069,1,0,0:0:0:0:
256,192,54147,1,8,0:0:0:0:
256,192,54224,1,0,0:0:0:0:
256,192,54302,1,8,0:0:0:0:
256,192,54380,1,8,0:0:0:0:
256,192,54457,1,8,0:0:0:0:
256,192,54535,1,0,0:0:0:0:
256,192,54613,1,0,0:0:0:0:
256,192,54690,1,0,0:0:0:0:
256,192,54768,1,8,0:0:0:0:
256,192,54846,1,8,0:0:0:0:
256,192,54924,1,0,0:0:0:0:
256,192,55001,1,8,0:0:0:0:
256,192,55079,1,0,0:0:0:0:
256,192,55157,1,0,0:0:0:0:
256,192,55235,1,0,0:0:0:0:
256,192,55312,1,8,0:0:0:0:
256,192,55391,1,0,0:0:0:0:
256,192,55468,1,0,0:0:0:0:
256,192,55546,1,8,0:0:0:0:
256,192,55623,1,8,0:0:0:0:
256,192,55701,1,0,0:0:0:0:
256,192,55779,1,0,0:0:0:0:
256,192,55856,1,8,0:0:0:0:
256,192,55934,1,8,0:0:0:0:
256,192,56012,1,8,0:0:0:0:
256,192,56089,1,0,0:0:0:0:
256,192,56167,1,0,0:0:0:0:
256,192,56245,1,0,0:0:0:0:
256,192,56323,1,8,0:0:0:0:
256,192,56400,1,0,0:0:0:0:
256,192,56478,1,8,0:0:0:0:
256,192,56556,1,8,0:0:0:0:
256,192,56633,1,0,0:0:0:0:
256,192,56711,1,8,0:0:0:0:
256,192,56789,1,8,0:0:0:0:
256,192,56867,1,0,0:0:0:0:
256,192,56944,1,8,0:0:0:0:
256,192,57022,1,8,0:0:0:0:
256,192,57100,1,0,0:0:0:0:
256,192,57177,1,8,0:0:0:0:
256,192,57255,1,8,0:0:0:0:
256,192,57333,1,0,0:0:0:0:
256,192,57411,1,8,0:0:0:0:
256,192,57566,1,12,0:0:0:0:
256,192,57721,1,8,0:0:0:0:
256,192,57799,1,8,0:0:0:0:
256,192,57877,1,0,0:0:0:0:
256,192,57954,1,8,0:0:0:0:
256,192,58032,1,8,0:0:0:0:
256,192,58110,1,0,0:0:0:0:
256,192,58188,1,8,0:0:0:0:
256,192,58265,1,0,0:0:0:0:
256,192,58343,1,8,0:0:0:0:
256,192,58421,1,8,0:0:0:0:
256,192,58498,1,0,0:0:0:0:
256,192,58576,1,8,0:0:0:0:
256,192,58654,1,8,0:0:0:0:
256,192,58732,1,0,0:0:0:0:
256,192,58809,1,8,0:0:0:0:
256,192,58887,1,0,0:0:0:0:
256,192,58965,1,8,0:0:0:0:
256,192,59042,1,8,0:0:0:0:
256,192,59120,1,0,0:0:0:0:
256,192,59198,1,8,0:0:0:0:
256,192,59276,1,8,0:0:0:0:
256,192,59353,1,0,0:0:0:0:
256,192,59431,1,8,0:0:0:0:
256,192,59509,1,0,0:0:0:0:
256,192,59586,1,8,0:0:0:0:
256,192,59664,1,8,0:0:0:0:
256,192,59742,1,0,0:0:0:0:
256,192,59819,1,8,0:0:0:0:
256,192,59897,1,8,0:0:0:0:
256,192,59975,1,8,0:0:0:0:
256,192,60053,1,0,0:0:0:0:
256,192,60131,1,8,0:0:0:0:
256,192,60208,1,0,0:0:0:0:
256,192,60286,1,0,0:0:0:0:
256,192,60363,1,8,0:0:0:0:
256,192,60441,1,0,0:0:0:0:
256,192,60519,1,8,0:0:0:0:
256,192,60597,1,0,0:0:0:0:
256,192,60674,1,8,0:0:0:0:
256,192,60752,1,8,0:0:0:0:
256,192,60829,1,8,0:0:0:0:
256,192,60907,1,0,0:0:0:0:
256,192,60986,1,8,0:0:0:0:
256,192,61063,1,0,0:0:0:0:
256,192,61140,1,8,0:0:0:0:
256,192,61218,1,8,0:0:0:0:
256,192,61297,1,8,0:0:0:0:
256,192,61374,1,0,0:0:0:0:
256,192,61451,1,8,0:0:0:0:
256,192,61530,1,0,0:0:0:0:
256,192,61606,1,8,0:0:0:0:
256,192,61685,1,8,0:0:0:0:
256,192,61762,1,0,0:0:0:0:
256,192,61841,1,0,0:0:0:0:
256,192,61917,1,8,0:0:0:0:
256,192,61995,1,0,0:0:0:0:
256,192,62075,1,8,0:0:0:0:
256,192,62152,1,8,0:0:0:0:
256,192,62230,1,0,0:0:0:0:
256,192,62308,1,8,0:0:0:0:
256,192,62385,1,0,0:0:0:0:
256,192,62462,1,0,0:0:0:0:
256,192,62541,1,8,0:0:0:0:
256,192,62619,1,8,0:0:0:0:
256,192,62696,1,0,0:0:0:0:
256,192,62772,1,0,0:0:0:0:
256,192,62851,1,8,0:0:0:0:
256,192,62928,1,8,0:0:0:0:
256,192,63006,1,8,0:0:0:0:
256,192,63083,1,0,0:0:0:0:
256,192,63162,1,0,0:0:0:0:
256,192,63240,1,0,0:0:0:0:
256,192,63317,1,8,0:0:0:0:
256,192,63395,1,0,0:0:0:0:
256,192,63473,1,8,0:0:0:0:
256,192,63551,1,8,0:0:0:0:
256,192,63628,1,0,0:0:0:0:
256,192,63706,1,0,0:0:0:0:
256,192,63784,1,8,0:0:0:0:
256,192,63861,1,8,0:0:0:0:
256,192,63939,1,8,0:0:0:0:
256,192,64017,1,0,0:0:0:0:
256,192,64095,1,8,0:0:0:0:
256,192,64172,1,8,0:0:0:0:
256,192,64250,1,0,0:0:0:0:
256,192,64328,1,0,0:0:0:0:
256,192,64405,1,8,0:0:0:0:
256,192,64483,1,0,0:0:0:0:
256,192,64561,1,0,0:0:0:0:
256,192,64639,1,0,0:0:0:0:
256,192,64716,1,8,0:0:0:0:
256,192,64794,1,0,0:0:0:0:
256,192,64872,1,8,0:0:0:0:
256,192,64949,1,0,0:0:0:0:
256,192,65026,1,8,0:0:0:0:
256,192,65104,1,8,0:0:0:0:
256,192,65182,1,8,0:0:0:0:
264,192,65260,1,0,0:0:0:0:
256,192,65337,1,8,0:0:0:0:
256,192,65415,1,8,0:0:0:0:
256,192,65493,1,0,0:0:0:0:
256,192,65571,1,0,0:0:0:0:
256,192,65648,1,8,0:0:0:0:
256,192,65727,1,8,0:0:0:0:
256,192,65804,1,0,0:0:0:0:
256,192,65882,1,0,0:0:0:0:
256,192,65959,1,8,0:0:0:0:
256,192,66037,1,0,0:0:0:0:
256,192,66115,1,0,0:0:0:0:
256,192,66193,1,8,0:0:0:0:
256,192,66270,1,8,0:0:0:0:
256,192,66347,1,0,0:0:0:0:
256,192,66425,1,0,0:0:0:0:
256,192,66503,1,8,0:0:0:0:
256,192,66581,1,8,0:0:0:0:
256,192,66658,1,8,0:0:0:0:
256,192,66736,1,0,0:0:0:0:
256,192,66814,1,8,0:0:0:0:
256,192,66892,1,0,0:0:0:0:
256,192,66969,1,8,0:0:0:0:
256,192,67047,1,8,0:0:0:0:
256,192,67125,1,0,0:0:0:0:
256,192,67203,1,0,0:0:0:0:
256,192,67280,1,8,0:0:0:0:
256,192,67358,1,8,0:0:0:0:
256,192,67436,1,0,0:0:0:0:
256,192,67514,1,8,0:0:0:0:
256,192,67670,1,8,0:0:0:0:
256,192,67747,1,0,0:0:0:0:
256,192,67826,1,8,0:0:0:0:
256,192,67903,1,8,0:0:0:0:
256,192,67981,1,0,0:0:0:0:
256,192,68136,1,8,0:0:0:0:
256,192,68291,1,8,0:0:0:0:
256,192,68369,1,8,0:0:0:0:
256,192,68447,1,0,0:0:0:0:
256,192,68525,1,8,0:0:0:0:
256,192,68602,1,8,0:0:0:0:
256,192,68758,1,8,0:0:0:0:
256,192,68913,1,8,0:0:0:0:
256,192,68991,1,0,0:0:0:0:
256,192,69069,1,0,0:0:0:0:
256,192,69224,1,0,0:0:0:0:
256,192,69302,1,0,0:0:0:0:
256,192,69380,1,8,0:0:0:0:
256,192,69458,1,8,0:0:0:0:
256,192,69535,1,8,0:0:0:0:
256,192,69613,1,8,0:0:0:0:
256,192,69690,1,0,0:0:0:0:
256,192,69846,1,0,0:0:0:0:
256,192,69924,1,0,0:0:0:0:
256,192,70001,1,8,0:0:0:0:
256,192,70157,1,8,0:0:0:0:
256,192,70234,1,8,0:0:0:0:
256,192,70312,1,0,0:0:0:0:
256,192,70390,1,0,0:0:0:0:
256,192,70468,1,8,0:0:0:0:
256,192,70623,1,8,0:0:0:0:
256,192,70701,1,8,0:0:0:0:
256,192,70779,1,8,0:0:0:0:
256,192,70856,1,0,0:0:0:0:
256,192,70934,1,8,0:0:0:0:
256,192,71089,1,0,0:0:0:0:
256,192,71245,1,8,0:0:0:0:
256,192,71400,1,0,0:0:0:0:
256,192,71478,1,0,0:0:0:0:
256,192,71556,1,0,0:0:0:0:
256,192,71633,1,8,0:0:0:0:
256,192,71711,1,0,0:0:0:0:
256,192,71788,1,0,0:0:0:0:
256,192,71866,1,8,0:0:0:0:
256,192,71944,1,0,0:0:0:0:
256,192,72022,1,8,0:0:0:0:
256,192,72100,1,8,0:0:0:0:
256,192,72177,1,0,0:0:0:0:
256,192,72255,1,0,0:0:0:0:
256,192,72333,1,8,0:0:0:0:
256,192,72411,1,8,0:0:0:0:
256,192,72488,1,4,0:0:0:0:
256,192,73110,5,4,0:0:0:0:
256,192,73732,5,4,0:0:0:0:
256,192,74354,5,4,0:0:0:0:
256,192,74975,5,12,0:0:0:0:
256,192,75286,1,12,0:0:0:0:
256,192,75597,1,12,0:0:0:0:
256,192,75908,1,12,0:0:0:0:
256,192,76219,1,0,0:0:0:0:
256,192,76374,1,0,0:0:0:0:
256,192,76530,1,0,0:0:0:0:
256,192,76685,1,0,0:0:0:0:
256,192,76841,1,0,0:0:0:0:
256,192,76996,1,0,0:0:0:0:
256,192,77152,1,8,0:0:0:0:
256,192,77229,1,8,0:0:0:0:
256,192,77307,1,0,0:0:0:0:
256,192,77462,1,8,0:0:0:0:
256,192,77540,1,0,0:0:0:0:
256,192,77618,1,8,0:0:0:0:
256,192,77696,1,8,0:0:0:0:
256,192,77773,1,8,0:0:0:0:
256,192,77851,1,0,0:0:0:0:
256,192,77929,1,8,0:0:0:0:
256,192,78007,1,8,0:0:0:0:
256,192,78085,1,0,0:0:0:0:
256,192,78163,1,8,0:0:0:0:
256,192,78240,1,0,0:0:0:0:
256,192,78318,1,0,0:0:0:0:
256,192,78396,1,8,0:0:0:0:
256,192,78473,1,0,0:0:0:0:
256,192,78551,1,8,0:0:0:0:
256,192,78629,1,8,0:0:0:0:
256,192,78707,1,0,0:0:0:0:
256,192,78784,1,0,0:0:0:0:
256,192,78862,1,8,0:0:0:0:
256,192,78940,1,8,0:0:0:0:
256,192,79018,1,0,0:0:0:0:
256,192,79095,1,0,0:0:0:0:
256,192,79172,1,8,0:0:0:0:
256,192,79250,1,8,0:0:0:0:
256,192,79328,1,0,0:0:0:0:
256,192,79405,1,8,0:0:0:0:
256,192,79483,1,0,0:0:0:0:
256,192,79561,1,0,0:0:0:0:
256,192,79639,1,8,0:0:0:0:
256,192,79716,1,8,0:0:0:0:
256,192,79794,1,0,0:0:0:0:
256,192,79846,1,0,0:0:0:0:
256,192,79898,1,0,0:0:0:0:
256,192,79949,1,8,0:0:0:0:
256,192,80105,1,8,0:0:0:0:
256,192,80183,1,8,0:0:0:0:
256,192,80260,1,0,0:0:0:0:
256,192,80416,1,8,0:0:0:0:
256,192,80572,1,0,0:0:0:0:
256,192,80649,1,8,0:0:0:0:
256,192,80804,1,0,0:0:0:0:
256,192,80882,1,8,0:0:0:0:
256,192,80960,1,8,0:0:0:0:
256,192,81037,1,0,0:0:0:0:
256,192,81115,1,0,0:0:0:0:
256,192,81193,1,8,0:0:0:0:
256,192,81270,1,0,0:0:0:0:
256,192,81348,1,0,0:0:0:0:
256,192,81426,1,8,0:0:0:0:
256,192,81503,1,8,0:0:0:0:
256,192,81581,1,0,0:0:0:0:
256,192,81659,1,8,0:0:0:0:
256,192,81737,1,8,0:0:0:0:
256,192,81815,1,0,0:0:0:0:
256,192,81892,1,8,0:0:0:0:
256,192,81970,1,8,0:0:0:0:
256,192,82048,1,0,0:0:0:0:
256,192,82126,1,8,0:0:0:0:
256,192,82204,1,0,0:0:0:0:
256,192,82282,1,8,0:0:0:0:
256,192,82359,1,0,0:0:0:0:
256,192,82437,1,8,0:0:0:0:
256,192,82592,1,0,0:0:0:0:
256,192,82670,1,0,0:0:0:0:
256,192,82747,1,8,0:0:0:0:
256,192,82825,1,8,0:0:0:0:
256,192,82903,1,0,0:0:0:0:
256,192,82981,1,8,0:0:0:0:
256,192,83058,1,0,0:0:0:0:
256,192,83213,1,8,0:0:0:0:
256,192,83291,1,8,0:0:0:0:
256,192,83368,1,0,0:0:0:0:
256,192,83446,1,0,0:0:0:0:
256,192,83524,1,8,0:0:0:0:
256,192,83602,1,0,0:0:0:0:
256,192,83679,1,8,0:0:0:0:
256,192,83758,1,0,0:0:0:0:
256,192,83913,1,0,0:0:0:0:
256,192,83991,1,8,0:0:0:0:
256,192,84146,1,8,0:0:0:0:
256,192,84224,1,8,0:0:0:0:
256,192,84380,1,8,0:0:0:0:
256,192,84457,1,0,0:0:0:0:
256,192,84535,1,0,0:0:0:0:
256,192,84613,1,8,0:0:0:0:
256,192,84768,1,0,0:0:0:0:
256,192,84924,1,8,0:0:0:0:
256,192,85002,1,0,0:0:0:0:
256,192,85079,1,8,0:0:0:0:
256,192,85157,1,8,0:0:0:0:
256,192,85235,1,0,0:0:0:0:
256,192,85312,1,8,0:0:0:0:
256,192,85390,1,0,0:0:0:0:
256,192,85468,1,0,0:0:0:0:
256,192,85545,1,8,0:0:0:0:
256,192,85701,1,0,0:0:0:0:
256,192,85779,1,0,0:0:0:0:
256,192,85856,1,8,0:0:0:0:
256,192,85934,1,0,0:0:0:0:
256,192,86011,1,0,0:0:0:0:
256,192,86089,1,0,0:0:0:0:
256,192,86167,1,8,0:0:0:0:
256,192,86323,1,0,0:0:0:0:
256,192,86400,1,8,0:0:0:0:
256,192,86478,1,0,0:0:0:0:
256,192,86633,1,8,0:0:0:0:
256,192,86789,1,0,0:0:0:0:
256,192,86867,1,8,0:0:0:0:
256,192,86944,1,8,0:0:0:0:
256,192,87100,1,8,0:0:0:0:
256,192,87256,1,8,0:0:0:0:
256,192,87333,1,0,0:0:0:0:
256,192,87411,1,0,0:0:0:0:
256,192,87566,1,0,0:0:0:0:
256,192,87721,1,0,0:0:0:0:
256,192,87876,1,8,0:0:0:0:
256,192,88032,1,8,0:0:0:0:
256,192,88110,1,8,0:0:0:0:
256,192,88188,1,8,0:0:0:0:
256,192,88266,1,0,0:0:0:0:
256,192,88343,1,8,0:0:0:0:
256,192,88421,1,8,0:0:0:0:
256,192,88498,1,8,0:0:0:0:
256,192,88576,1,0,0:0:0:0:
256,192,88653,1,8,0:0:0:0:
256,192,88810,1,0,0:0:0:0:
256,192,88887,1,0,0:0:0:0:
256,192,88965,1,8,0:0:0:0:
256,192,89120,1,0,0:0:0:0:
256,192,89276,1,8,0:0:0:0:
256,192,89354,1,0,0:0:0:0:
256,192,89431,1,8,0:0:0:0:
256,192,89509,1,8,0:0:0:0:
256,192,89586,1,0,0:0:0:0:
256,192,89665,1,0,0:0:0:0:
256,192,89742,1,8,0:0:0:0:
256,192,89898,1,12,0:0:0:0:
256,192,90053,12,0,93628,0:0:0:0:
