osu file format v14

[General]
AudioFilename: Shiraishi - Shinsekai.mp3
AudioLeadIn: 0
PreviewTime: 47540
Countdown: 0
SampleSet: Normal
StackLeniency: 0.7
Mode: 1
LetterboxInBreaks: 0
WidescreenStoryboard: 0

[Editor]
Bookmarks: 1608,10312,25234,30209,40157,47618,57566,72488,79949,93628
DistanceSpacing: 1
BeatDivisor: 2
GridSize: 32
TimelineZoom: 2.799999

[Metadata]
Title:Chouzetsugikou Renshuukyoku Daiichiban "Shinsekai"
TitleUnicode:超絶技巧練習曲第一番「新世界」
Artist:Shiraishi
ArtistUnicode:しらいし
Creator:_DUSK_
Version:Futsuu
Source:BMS
Tags:new world
BeatmapID:2023666
BeatmapSetID:379666

[Difficulty]
HPDrainRate:7
CircleSize:4
OverallDifficulty:4
ApproachRate:9
SliderMultiplier:1.4
SliderTickRate:1

[Events]
//Background and Video events
0,0,"ShinsekaiBG.jpg",0,-130
//Break Periods
//Storyboard Layer 0 (Background)
//Storyboard Layer 1 (Fail)
//Storyboard Layer 2 (Pass)
//Storyboard Layer 3 (Foreground)
//Storyboard Sound Samples

[TimingPoints]
1608,310.880829015544,4,1,0,60,1,0
1608,-111.111111111111,4,1,0,60,0,0
9380,-111.111111111111,4,1,0,70,0,0
10312,-111.111111111111,4,1,0,85,0,0
57566,-111.111111111111,4,1,0,85,0,1
72488,-111.111111111111,4,1,0,85,0,0
89975,-111.111111111111,4,1,0,40,0,0

[HitObjects]
256,192,1608,5,4,0:0:0:0:
256,192,2074,1,8,0:0:0:0:
256,192,2851,1,0,0:0:0:0:
256,192,4095,1,4,0:0:0:0:
256,192,4716,1,0,0:0:0:0:
256,192,5338,1,8,0:0:0:0:
256,192,5804,1,8,0:0:0:0:
256,192,6582,1,8,0:0:0:0:
256,192,7514,1,8,0:0:0:0:
256,192,7825,1,4,0:0:0:0:
256,192,9380,1,12,0:0:0:0:
256,192,9846,1,12,0:0:0:0:
256,192,10312,1,4,0:0:0:0:
256,192,10623,1,8,0:0:0:0:
256,192,10934,1,0,0:0:0:0:
256,192,11556,1,0,0:0:0:0:
256,192,11867,1,0,0:0:0:0:
256,192,12177,1,8,0:0:0:0:
256,192,12333,1,8,0:0:0:0:
256,192,12488,1,8,0:0:0:0:
256,192,12799,1,0,0:0:0:0:
256,192,13421,1,8,0:0:0:0:
256,192,14043,1,0,0:0:0:0:
256,192,14354,1,0,0:0:0:0:
256,192,14664,1,8,0:0:0:0:
256,192,14820,1,8,0:0:0:0:
256,192,14975,1,8,0:0:0:0:
256,192,15286,1,8,0:0:0:0:
256,192,15908,1,0,0:0:0:0:
256,192,16530,1,0,0:0:0:0:
256,192,16841,1,0,0:0:0:0:
256,192,17152,1,8,0:0:0:0:
256,192,17462,1,8,0:0:0:0:
256,192,17773,1,0,0:0:0:0:
256,192,18395,1,0,0:0:0:0:
256,192,19017,1,0,0:0:0:0:
256,192,19328,1,8,0:0:0:0:
256,192,19639,1,0,0:0:0:0:
256,192,19794,1,0,0:0:0:0:
256,192,19949,1,8,0:0:0:0:
256,192,20260,1,4,0:0:0:0:
256,192,20882,1,8,0:0:0:0:
256,192,21504,1,0,0:0:0:0:
256,192,21815,1,0,0:0:0:0:
256,192,21970,1,0,0:0:0:0:
256,192,22126,1,8,0:0:0:0:
256,192,22747,1,8,0:0:0:0:
256,192,23058,1,0,0:0:0:0:
256,192,23369,1,0,0:0:0:0:
256,192,23991,1,8,0:0:0:0:
256,192,24302,1,8,0:0:0:0:
256,192,24613,1,0,0:0:0:0:
256,192,24768,1,0,0:0:0:0:
256,192,24924,1,0,0:0:0:0:
256,192,25234,1,12,0:0:0:0:
256,192,25856,1,12,0:0:0:0:
256,192,26478,1,12,0:0:0:0:
256,192,27721,1,12,0:0:0:0:
256,192,28343,1,0,0:0:0:0:
256,192,28965,1,0,0:0:0:0:
256,192,29276,1,8,0:0:0:0:
256,192,29587,1,0,0:0:0:0:
256,192,29898,1,0,0:0:0:0:
256,192,30053,1,0,0:0:0:0:
256,192,30209,1,12,0:0:0:0:
256,192,30519,1,0,0:0:0:0:
256,192,31452,1,0,0:0:0:0:
256,192,31763,1,0,0:0:0:0:
256,192,32696,1,8,0:0:0:0:
256,192,33006,1,0,0:0:0:0:
256,192,33939,1,8,0:0:0:0:
256,192,34095,1,8,0:0:0:0:
256,192,34250,1,0,0:0:0:0:
256,192,34561,1,0,0:0:0:0:
256,192,34872,1,0,0:0:0:0:
256,192,35183,1,12,0:0:0:0:
256,192,35494,1,0,0:0:0:0:
256,192,36426,1,0,0:0:0:0:
256,192,36737,1,0,0:0:0:0:
256,192,37670,1,8,0:0:0:0:
256,192,37981,1,0,0:0:0:0:
256,192,38913,1,8,0:0:0:0:
256,192,39069,1,8,0:0:0:0:
256,192,39224,1,8,0:0:0:0:
256,192,39535,1,0,0:0:0:0:
256,192,39846,1,8,0:0:0:0:
256,192,40157,1,4,0:0:0:0:
256,192,40778,1,8,0:0:0:0:
256,192,41400,1,4,0:0:0:0:
256,192,42022,1,8,0:0:0:0:
256,192,42644,1,4,0:0:0:0:
256,192,43266,1,4,0:0:0:0:
256,192,43887,1,4,0:0:0:0:
256,192,44509,1,4,0:0:0:0:
256,192,45131,1,4,0:0:0:0:
256,192,45442,1,4,0:0:0:0:
256,192,45753,1,4,0:0:0:0:
256,192,46063,1,4,0:0:0:0:
256,192,46374,1,4,0:0:0:0:
256,192,46996,1,8,0:0:0:0:
256,192,47307,1,8,0:0:0:0:
256,192,47462,1,8,0:0:0:0:
256,192,47618,1,8,0:0:0:0:
256,192,47929,1,8,0:0:0:0:
256,192,48240,1,0,0:0:0:0:
256,192,48551,1,8,0:0:0:0:
256,192,48861,1,0,0:0:0:0:
256,192,49172,1,8,0:0:0:0:
256,192,49328,1,8,0:0:0:0:
256,192,49483,1,0,0:0:0:0:
256,192,50105,1,0,0:0:0:0:
256,192,50416,1,8,0:0:0:0:
256,192,50727,1,8,0:0:0:0:
256,192,51038,1,0,0:0:0:0:
256,192,51348,1,8,0:0:0:0:
256,192,51659,1,8,0:0:0:0:
256,192,51815,1,0,0:0:0:0:
256,192,51970,1,8,0:0:0:0:
256,192,52281,1,8,0:0:0:0:
256,192,52592,1,4,0:0:0:0:
256,192,53214,1,8,0:0:0:0:
256,192,53835,1,0,0:0:0:0:
256,192,54146,1,0,0:0:0:0:
256,192,54302,1,0,0:0:0:0:
256,192,54457,1,8,0:0:0:0:
256,192,54768,1,8,0:0:0:0:
256,192,55079,1,0,0:0:0:0:
256,192,55390,1,8,0:0:0:0:
256,192,55701,1,0,0:0:0:0:
256,192,56323,1,0,0:0:0:0:
256,192,56633,1,0,0:0:0:0:
256,192,56944,1,8,0:0:0:0:
256,192,57255,1,8,0:0:0:0:
256,192,57411,1,0,0:0:0:0:
256,192,57566,1,12,0:0:0:0:
256,192,58188,1,8,0:0:0:0:
256,192,58810,1,8,0:0:0:0:
256,192,59431,1,0,0:0:0:0:
256,192,59742,1,8,0:0:0:0:
256,192,59898,1,0,0:0:0:0:
256,192,60053,1,8,0:0:0:0:
256,192,60364,1,8,0:0:0:0:
256,192,60675,1,8,0:0:0:0:
256,192,61297,1,0,0:0:0:0:
256,192,61607,1,8,0:0:0:0:
256,192,61918,1,0,0:0:0:0:
256,192,62229,1,0,0:0:0:0:
256,192,62385,1,0,0:0:0:0:
256,192,62540,1,8,0:0:0:0:
256,192,63162,1,0,0:0:0:0:
256,192,63473,1,0,0:0:0:0:
256,192,63784,1,8,0:0:0:0:
256,192,64405,1,0,0:0:0:0:
256,192,64716,1,0,0:0:0:0:
256,192,65027,1,8,0:0:0:0:
256,192,65338,1,8,0:0:0:0:
256,192,65494,1,0,0:0:0:0:
256,192,65649,1,8,0:0:0:0:
256,192,66271,1,0,0:0:0:0:
256,192,66582,1,0,0:0:0:0:
256,192,66892,1,8,0:0:0:0:
256,192,67203,1,8,0:0:0:0:
256,192,67359,1,8,0:0:0:0:
256,192,67514,1,0,0:0:0:0:
256,192,68136,1,8,0:0:0:0:
256,192,68758,1,0,0:0:0:0:
256,192,69380,1,8,0:0:0:0:
256,192,69690,1,8,0:0:0:0:
256,192,69846,1,8,0:0:0:0:
256,192,70001,1,0,0:0:0:0:
256,192,70623,1,8,0:0:0:0:
256,192,71245,1,0,0:0:0:0:
256,192,71556,1,0,0:0:0:0:
256,192,71867,1,0,0:0:0:0:
256,192,72022,1,8,0:0:0:0:
256,192,72177,1,0,0:0:0:0:
256,192,72488,1,12,0:0:0:0:
256,192,73110,1,12,0:0:0:0:
256,192,73732,1,12,0:0:0:0:
256,192,74354,1,12,0:0:0:0:
256,192,74975,1,12,0:0:0:0:
256,192,75286,1,12,0:0:0:0:
256,192,75597,1,12,0:0:0:0:
256,192,75908,1,12,0:0:0:0:
256,192,76219,1,4,0:0:0:0:
256,192,76841,1,0,0:0:0:0:
256,192,76996,1,0,0:0:0:0:
256,192,77152,1,0,0:0:0:0:
256,192,77307,1,0,0:0:0:0:
256,192,77462,12,0,79794,0:0:0:0:
256,192,79949,1,4,0:0:0:0:
256,192,80260,1,8,0:0:0:0:
256,192,80571,1,0,0:0:0:0:
256,192,81193,1,0,0:0:0:0:
256,192,81504,1,0,0:0:0:0:
256,192,81814,1,8,0:0:0:0:
256,192,81970,1,8,0:0:0:0:
256,192,82125,1,8,0:0:0:0:
256,192,82436,1,0,0:0:0:0:
256,192,83058,1,8,0:0:0:0:
256,192,83680,1,0,0:0:0:0:
256,192,83991,1,0,0:0:0:0:
256,192,84301,1,8,0:0:0:0:
256,192,84457,1,8,0:0:0:0:
256,192,84612,1,8,0:0:0:0:
256,192,84923,1,8,0:0:0:0:
256,192,85545,1,0,0:0:0:0:
256,192,86167,1,0,0:0:0:0:
256,192,86478,1,0,0:0:0:0:
256,192,86789,1,8,0:0:0:0:
256,192,87099,1,8,0:0:0:0:
256,192,87410,1,0,0:0:0:0:
256,192,88032,5,0,0:0:0:0:
256,192,88654,1,0,0:0:0:0:
256,192,88965,1,0,0:0:0:0:
256,192,89120,1,0,0:0:0:0:
256,192,89276,1,0,0:0:0:0:
256,192,89587,1,0,0:0:0:0:
256,192,89742,1,0,0:0:0:0:
256,192,89898,1,12,0:0:0:0:
256,192,90053,12,0,93628,0:0:0:0:
