osu file format v14

[General]
AudioFilename: audio.mp3
AudioLeadIn: 0
PreviewTime: 46012
Countdown: 0
SampleSet: Soft
StackLeniency: 0.7
Mode: 3
LetterboxInBreaks: 0
SpecialStyle: 0
WidescreenStoryboard: 1

[Editor]
DistanceSpacing: 0.9
BeatDivisor: 2
GridSize: 8
TimelineZoom: 1.5

[Metadata]
Title:Chouzetsu Gikou Renshuukyoku Daiichiban "Shinsekai"
TitleUnicode:超絶技巧練習曲第一番「新世界」
Artist:Shiraishi
ArtistUnicode:しらいし
Creator:secXcscX
Version:Easy
Source:
Tags:new world bms instrumental electronic piano denyi rhythm game shinsekai transcendental etude number one no.1
BeatmapID:3722645
BeatmapSetID:1814681

[Difficulty]
HPDrainRate:6.8
CircleSize:4
OverallDifficulty:6.8
ApproachRate:5
SliderMultiplier:1.4
SliderTickRate:1

[Events]
//Background and Video events
0,0,"BG.jpg",0,0
//Break Periods
//Storyboard Layer 0 (Background)
//Storyboard Layer 1 (Fail)
//Storyboard Layer 2 (Pass)
//Storyboard Layer 3 (Foreground)
//Storyboard Layer 4 (Overlay)
//Storyboard Sound Samples

[TimingPoints]
1246,310.880829015544,4,2,1,30,1,0

[HitObjects]
448,192,1246,128,0,1712:0:0:0:65:C#4S_Db4S.wav
64,192,1712,1,0,0:0:0:65:D#5S_Eb5S.wav
448,192,2178,1,0,0:0:0:65:D#5S_Eb5S.wav
192,192,2489,1,0,0:0:0:65:C#5S_Db5S.wav
320,192,2955,128,0,3733:0:0:0:65:G3S.wav
64,192,3733,128,0,4354:0:0:0:40:G#4S_Ab4S.wav
448,192,4354,1,0,0:0:0:65:G#4S_Ab4S.wav
320,192,4665,1,0,0:0:0:65:B4S.wav
192,192,4976,1,0,0:0:0:65:D#5S_Eb5S.wav
448,192,5442,1,0,0:0:0:65:D#5S_Eb5S.wav
64,192,5909,1,0,0:0:0:40:B3S.wav
192,192,6220,128,0,6997:0:0:0:65:F#5S_Gb5S.wav
448,192,6997,128,0,7463:0:0:0:70:kick.wav
320,192,7463,128,0,8707:0:0:0:65:G#4S_Ab4S.wav
64,192,9018,1,0,0:0:0:65:A#5S_Bb5S.wav
448,192,9484,1,0,0:0:0:65:B5S.wav
320,192,9950,128,0,10261:0:0:0:65:G#6S_Ab6S.wav
64,192,10261,1,0,0:0:0:65:A#6S_Bb6S.wav
192,192,10572,128,0,10883:0:0:0:65:D#6S_Eb6S.wav
448,192,10883,1,0,0:0:0:65:D#6S_Eb6S.wav
320,192,11194,128,0,11505:0:0:0:65:B5S.wav
64,192,11505,1,0,0:0:0:65:D#6S_Eb6S.wav
192,192,11815,128,0,12126:0:0:0:65:D#6S_Eb6S.wav
448,192,12126,1,0,0:0:0:65:C#7S_Db7S.wav
64,192,12437,1,0,0:0:0:65:G#6S_Ab6S.wav
192,192,12593,1,0,0:0:0:65:B6S.wav
320,192,12748,1,0,0:0:0:65:G#6S_Ab6S.wav
64,192,13059,1,0,0:0:0:65:G#6S_Ab6S.wav
192,192,13214,1,0,0:0:0:65:D#7S_Eb7S.wav
320,192,13370,1,0,0:0:0:65:C#7S_Db7S.wav
64,192,13681,128,0,13992:0:0:0:65:G#6S_Ab6S.wav
448,192,13992,1,0,0:0:0:65:C#7S_Db7S.wav
192,192,14302,1,0,0:0:0:65:G#7S_Ab7S.wav
320,192,14458,1,0,0:0:0:65:D#7S_Eb7S.wav
64,192,14613,1,0,0:0:0:65:C#8S_Db8S.wav
448,192,14924,128,0,15235:0:0:0:65:D#7S_Eb7S.wav
192,192,15235,1,0,0:0:0:65:B6S.wav
64,192,15546,128,0,15857:0:0:0:65:G#6S_Ab6S.wav
320,192,15857,1,0,0:0:0:65:D#6S_Eb6S.wav
448,192,16168,128,0,16479:0:0:0:65:B5S.wav
192,192,16479,1,0,0:0:0:65:G#5S_Ab5S.wav
64,192,16790,128,0,17100:0:0:0:65:F#5S_Gb5S.wav
320,192,17100,1,0,0:0:0:65:F6S.wav
448,192,17411,1,0,0:0:0:65:A#6S_Bb6S.wav
320,192,17567,1,0,0:0:0:65:C#7S_Db7S.wav
192,192,17722,1,0,0:0:0:65:C#7S_Db7S.wav
448,192,18033,1,0,0:0:0:65:G#7S_Ab7S.wav
320,192,18189,1,0,0:0:0:65:B7S.wav
192,192,18344,1,0,0:0:0:65:C#8S_Db8S.wav
448,192,18655,128,0,18966:0:0:0:65:G#7S_Ab7S.wav
64,192,18966,1,0,0:0:0:65:A#7S_Bb7S.wav
320,192,19277,1,0,0:0:0:65:C#7S_Db7S.wav
192,192,19432,1,0,0:0:0:65:B6S.wav
448,192,19587,1,0,0:0:0:65:A#6S_Bb6S.wav
192,192,19898,128,0,20209:0:0:0:65:G#6S_Ab6S.wav
64,192,20209,1,0,0:0:0:65:B6S.wav
320,192,20520,128,0,20831:0:0:0:65:A#6S_Bb6S.wav
448,192,20831,1,0,0:0:0:65:F#6S_Gb6S.wav
192,192,21142,128,0,21453:0:0:0:65:B6S.wav
64,192,21453,1,0,0:0:0:65:C#7S_Db7S.wav
320,192,21764,128,0,22075:0:0:0:65:D#7S_Eb7S.wav
448,192,22075,1,0,0:0:0:65:F#7S_Gb7S.wav
64,192,22385,1,0,0:0:0:65:G#7S_Ab7S.wav
192,192,22541,1,0,0:0:0:65:D#7S_Eb7S.wav
320,192,22696,1,0,0:0:0:65:A#7S_Bb7S.wav
64,192,23007,1,0,0:0:0:65:C#7S_Db7S.wav
192,192,23163,1,0,0:0:0:65:B6S.wav
320,192,23318,1,0,0:0:0:65:A#6S_Bb6S.wav
192,192,23629,128,0,23940:0:0:0:65:F#6S_Gb6S.wav
448,192,23940,1,0,0:0:0:65:D#6S_Eb6S.wav
64,192,24251,1,0,0:0:0:65:B5S.wav
320,192,24406,1,0,0:0:0:65:A#5S_Bb5S.wav
192,192,24562,1,0,0:0:0:65:G#5S_Ab5S.wav
320,192,24872,1,0,0:0:0:65:B6S.wav
448,192,24872,1,0,0:0:0:55:cymbal.wav
192,192,25494,1,0,0:0:0:65:C#7S_Db7S.wav
320,192,25494,1,0,0:0:0:40:E4S.wav
64,192,26116,1,0,0:0:0:65:D#7S_Eb7S.wav
192,192,26116,1,0,0:0:0:40:F#4S_Gb4S.wav
320,192,27204,1,0,0:0:0:65:F#7S_Gb7S.wav
64,192,27359,1,0,0:0:0:40:D#5S_Eb5S.wav
192,192,27359,128,0,27670:0:0:0:65:B7S.wav
448,192,27670,1,0,0:0:0:65:F#7S_Gb7S.wav
320,192,27981,1,0,0:0:0:65:C#7S_Db7S.wav
64,192,28137,1,0,0:0:0:65:C#7S_Db7S.wav
192,192,28292,1,0,0:0:0:65:C#7S_Db7S.wav
448,192,28603,1,0,0:0:0:65:A#6S_Bb6S.wav
192,192,28758,1,0,0:0:0:65:G#6S_Ab6S.wav
320,192,28914,1,0,0:0:0:65:D#6S_Eb6S.wav
448,192,29069,1,0,0:0:0:65:D#6S_Eb6S.wav
64,192,29225,1,0,0:0:0:65:D#6S_Eb6S.wav
192,192,29536,1,0,0:0:0:65:B5S.wav
64,192,29847,1,0,0:0:0:65:G#5S_Ab5S.wav
448,192,29847,128,0,30157:0:0:0:55:cymbal.wav
320,192,30157,1,0,0:0:0:65:C#6S_Db6S.wav
64,192,30468,1,0,0:0:0:65:B6S.wav
192,192,30624,1,0,0:0:0:65:B6S.wav
320,192,30779,1,0,0:0:0:65:F#6S_Gb6S.wav
448,192,31090,128,0,31401:0:0:0:65:D#6S_Eb6S.wav
320,192,31401,1,0,0:0:0:65:G6S.wav
64,192,31712,1,0,0:0:0:65:C#7S_Db7S.wav
192,192,31867,1,0,0:0:0:65:D#7S_Eb7S.wav
320,192,32023,1,0,0:0:0:65:B6S.wav
448,192,32334,128,0,32644:0:0:0:65:G#5S_Ab5S.wav
320,192,32644,1,0,0:0:0:65:C#6S_Db6S.wav
64,192,32955,1,0,0:0:0:65:B6S.wav
192,192,33111,1,0,0:0:0:65:B6S.wav
320,192,33266,1,0,0:0:0:65:C#7S_Db7S.wav
64,192,33577,128,0,33888:0:0:0:65:F#7S_Gb7S.wav
448,192,33888,128,0,34199:0:0:0:65:C#7S_Db7S.wav
192,192,34199,1,0,0:0:0:65:F#6S_Gb6S.wav
64,192,34354,1,0,0:0:0:65:D#6S_Eb6S.wav
320,192,34510,1,0,0:0:0:65:C#6S_Db6S.wav
64,192,34821,128,0,35132:0:0:0:65:G#5S_Ab5S.wav
448,192,34821,1,0,0:0:0:55:cymbal.wav
192,192,35132,1,0,0:0:0:65:C#6S_Db6S.wav
448,192,35442,1,0,0:0:0:65:B6S.wav
320,192,35598,1,0,0:0:0:65:B6S.wav
192,192,35753,1,0,0:0:0:65:F#6S_Gb6S.wav
64,192,36064,128,0,36375:0:0:0:65:D#6S_Eb6S.wav
192,192,36375,1,0,0:0:0:65:G6S.wav
448,192,36686,1,0,0:0:0:65:C#7S_Db7S.wav
320,192,36841,1,0,0:0:0:65:D#7S_Eb7S.wav
192,192,36997,1,0,0:0:0:65:B6S.wav
64,192,37308,128,0,37619:0:0:0:65:G#5S_Ab5S.wav
192,192,37619,1,0,0:0:0:65:C#6S_Db6S.wav
448,192,37929,1,0,0:0:0:65:B6S.wav
320,192,38085,1,0,0:0:0:65:B6S.wav
192,192,38240,1,0,0:0:0:65:C#7S_Db7S.wav
448,192,38551,128,0,38862:0:0:0:65:F#7S_Gb7S.wav
64,192,38862,128,0,39173:0:0:0:65:C#7S_Db7S.wav
320,192,39173,1,0,0:0:0:65:F#6S_Gb6S.wav
448,192,39328,1,0,0:0:0:65:D#6S_Eb6S.wav
192,192,39484,1,0,0:0:0:65:C#6S_Db6S.wav
320,192,39795,1,0,0:0:0:65:G#5S_Ab5S.wav
448,192,39795,128,0,40106:0:0:0:55:cymbal.wav
64,192,40106,1,0,0:0:0:65:C#6S_Db6S.wav
192,192,40416,1,0,0:0:0:65:B6S.wav
320,192,40572,1,0,0:0:0:65:B6S.wav
448,192,40727,1,0,0:0:0:65:F#6S_Gb6S.wav
64,192,41038,128,0,41349:0:0:0:65:G#5S_Ab5S.wav
192,192,41038,1,0,0:0:0:55:cymbal.wav
448,192,41349,1,0,0:0:0:65:C#6S_Db6S.wav
320,192,41660,1,0,0:0:0:65:B6S.wav
192,192,41815,1,0,0:0:0:65:B6S.wav
64,192,41971,1,0,0:0:0:65:F#6S_Gb6S.wav
320,192,42282,1,0,0:0:0:65:G#5S_Ab5S.wav
448,192,42282,128,0,42593:0:0:0:55:cymbal.wav
320,192,42904,1,0,0:0:0:65:G#5S_Ab5S.wav
448,192,42904,128,0,43214:0:0:0:55:cymbal.wav
64,192,43525,128,0,43836:0:0:0:65:G#5S_Ab5S.wav
192,192,43525,1,0,0:0:0:55:cymbal.wav
64,192,44147,128,0,44458:0:0:0:65:G#5S_Ab5S.wav
192,192,44147,1,0,0:0:0:55:cymbal.wav
320,192,44769,128,0,45080:0:0:0:65:G#5S_Ab5S.wav
448,192,44769,1,0,0:0:0:55:cymbal.wav
64,192,45080,1,0,0:0:0:65:G#5S_Ab5S.wav
192,192,45391,128,0,45701:0:0:0:65:G#5S_Ab5S.wav
320,192,45391,1,0,0:0:0:55:cymbal.wav
448,192,45701,1,0,0:0:0:65:G#5S_Ab5S.wav
64,192,46012,128,0,46634:0:0:0:65:G#5S_Ab5S.wav
192,192,46012,1,0,0:0:0:40:G#4S_Ab4S.wav
448,192,46634,128,0,47256:0:0:0:65:C6S.wav
192,192,47256,1,0,0:0:0:65:D#7S_Eb7S.wav
64,192,47567,1,0,0:0:0:65:A#6S_Bb6S.wav
320,192,47567,1,0,0:0:0:40:G#4S_Ab4S.wav
448,192,47878,1,0,0:0:0:65:F#6S_Gb6S.wav
320,192,48033,1,0,0:0:0:65:B6S.wav
192,192,48189,1,0,0:0:0:65:D#6S_Eb6S.wav
448,192,48499,1,0,0:0:0:65:B6S.wav
64,192,48810,1,0,0:0:0:65:E6S.wav
192,192,48810,1,0,0:0:0:40:A#4S_Bb4S.wav
320,192,49121,1,0,0:0:0:65:C#6S_Db6S.wav
64,192,49277,1,0,0:0:0:65:G#6S_Ab6S.wav
192,192,49432,1,0,0:0:0:65:A#6S_Bb6S.wav
448,192,49743,1,0,0:0:0:65:G#6S_Ab6S.wav
64,192,50054,1,0,0:0:0:65:C#6S_Db6S.wav
192,192,50054,1,0,0:0:0:40:A#4S_Bb4S.wav
320,192,50365,1,0,0:0:0:65:E6S.wav
192,192,50520,1,0,0:0:0:65:D#7S_Eb7S.wav
448,192,50676,1,0,0:0:0:65:B6S.wav
320,192,50986,1,0,0:0:0:65:G#6S_Ab6S.wav
192,192,51297,1,0,0:0:0:65:F#7S_Gb7S.wav
448,192,51297,1,0,0:0:0:70:snare.wav
64,192,51608,1,0,0:0:0:65:D#7S_Eb7S.wav
192,192,51764,1,0,0:0:0:65:A#7S_Bb7S.wav
320,192,51919,1,0,0:0:0:65:F#7S_Gb7S.wav
64,192,52230,1,0,0:0:0:65:G#6S_Ab6S.wav
448,192,52230,1,0,0:0:0:55:cymbal.wav
192,192,52541,1,0,0:0:0:65:A#6S_Bb6S.wav
320,192,52541,1,0,0:0:0:40:G#4S_Ab4S.wav
64,192,52852,1,0,0:0:0:65:B6S.wav
448,192,53007,1,0,0:0:0:65:G#6S_Ab6S.wav
320,192,53163,1,0,0:0:0:65:C#7S_Db7S.wav
192,192,53473,1,0,0:0:0:65:D#7S_Eb7S.wav
64,192,53784,1,0,0:0:0:65:E7S.wav
320,192,53784,1,0,0:0:0:40:A#4S_Bb4S.wav
448,192,54095,1,0,0:0:0:65:F#7S_Gb7S.wav
192,192,54251,1,0,0:0:0:65:D#7S_Eb7S.wav
320,192,54406,1,0,0:0:0:65:G#7S_Ab7S.wav
64,192,54717,1,0,0:0:0:65:C#7S_Db7S.wav
320,192,55028,1,0,0:0:0:65:D#7S_Eb7S.wav
448,192,55028,1,0,0:0:0:40:A#4S_Bb4S.wav
192,192,55339,1,0,0:0:0:65:G#6S_Ab6S.wav
448,192,55494,1,0,0:0:0:65:G#6S_Ab6S.wav
64,192,55650,1,0,0:0:0:65:A#6S_Bb6S.wav
320,192,55961,1,0,0:0:0:65:F#6S_Gb6S.wav
64,192,56271,1,0,0:0:0:65:D#6S_Eb6S.wav
448,192,56271,1,0,0:0:0:70:snare.wav
192,192,56582,1,0,0:0:0:65:C#6S_Db6S.wav
320,192,56738,1,0,0:0:0:65:D#6S_Eb6S.wav
448,192,56893,1,0,0:0:0:65:D#7S_Eb7S.wav
64,192,57049,1,0,0:0:0:65:F#7S_Gb7S.wav
320,192,57204,1,0,0:0:0:65:B7S.wav
448,192,57204,128,0,57515:0:0:0:55:cymbal.wav
192,192,57515,1,0,0:0:0:65:C#7S_Db7S.wav
448,192,57826,1,0,0:0:0:65:B7S.wav
320,192,57981,1,0,0:0:0:65:G#7S_Ab7S.wav
192,192,58137,1,0,0:0:0:65:C#7S_Db7S.wav
64,192,58292,1,0,0:0:0:65:F#7S_Gb7S.wav
320,192,58448,1,0,0:0:0:65:B7S.wav
448,192,58448,128,0,58758:0:0:0:55:cymbal.wav
192,192,58758,1,0,0:0:0:65:C#7S_Db7S.wav
448,192,59069,1,0,0:0:0:65:B7S.wav
64,192,59225,1,0,0:0:0:65:G#7S_Ab7S.wav
192,192,59380,1,0,0:0:0:65:C#7S_Db7S.wav
320,192,59536,1,0,0:0:0:65:C#8S_Db8S.wav
64,192,59691,128,0,60002:0:0:0:65:A#7S_Bb7S.wav
448,192,59691,1,0,0:0:0:55:cymbal.wav
192,192,60002,1,0,0:0:0:65:F#7S_Gb7S.wav
64,192,60313,1,0,0:0:0:65:G#7S_Ab7S.wav
192,192,60468,1,0,0:0:0:65:G#7S_Ab7S.wav
320,192,60624,1,0,0:0:0:65:G#7S_Ab7S.wav
448,192,60779,1,0,0:0:0:65:B7S.wav
64,192,60935,128,0,61245:0:0:0:65:D#8S_Eb8S.wav
192,192,60935,1,0,0:0:0:55:cymbal.wav
320,192,61245,1,0,0:0:0:65:F#7S_Gb7S.wav
64,192,61556,1,0,0:0:0:65:C#7S_Db7S.wav
448,192,61712,1,0,0:0:0:65:E7S.wav
320,192,61867,1,0,0:0:0:65:E7S.wav
192,192,62023,1,0,0:0:0:65:A#7S_Bb7S.wav
64,192,62178,1,0,0:0:0:65:C#8S_Db8S.wav
448,192,62178,128,0,62489:0:0:0:55:cymbal.wav
320,192,62489,1,0,0:0:0:65:F#7S_Gb7S.wav
64,192,62800,1,0,0:0:0:65:B6S.wav
192,192,62955,1,0,0:0:0:65:G#6S_Ab6S.wav
448,192,63111,1,0,0:0:0:65:E6S.wav
320,192,63266,1,0,0:0:0:65:C#6S_Db6S.wav
64,192,63422,128,0,63733:0:0:0:65:B7S.wav
192,192,63422,1,0,0:0:0:55:cymbal.wav
448,192,63733,1,0,0:0:0:65:E7S.wav
320,192,64043,1,0,0:0:0:65:A#6S_Bb6S.wav
192,192,64199,1,0,0:0:0:65:F#6S_Gb6S.wav
64,192,64354,1,0,0:0:0:65:D#6S_Eb6S.wav
320,192,64510,1,0,0:0:0:65:B5S.wav
64,192,64665,1,0,0:0:0:65:A#7S_Bb7S.wav
448,192,64665,128,0,64976:0:0:0:55:cymbal.wav
192,192,64976,1,0,0:0:0:65:G#7S_Ab7S.wav
320,192,65287,1,0,0:0:0:65:F#7S_Gb7S.wav
64,192,65442,1,0,0:0:0:65:F#7S_Gb7S.wav
192,192,65598,1,0,0:0:0:65:E7S.wav
320,192,65753,1,0,0:0:0:65:E7S.wav
64,192,65909,128,0,66220:0:0:0:65:D#7S_Eb7S.wav
448,192,65909,1,0,0:0:0:55:cymbal.wav
192,192,66220,1,0,0:0:0:65:C#7S_Db7S.wav
448,192,66530,1,0,0:0:0:65:A#6S_Bb6S.wav
320,192,66686,1,0,0:0:0:65:A#6S_Bb6S.wav
192,192,66841,1,0,0:0:0:65:G#6S_Ab6S.wav
64,192,66997,1,0,0:0:0:65:G#6S_Ab6S.wav
448,192,67152,128,0,67463:0:0:0:65:G#6S_Ab6S.wav
192,192,67463,128,0,67774:0:0:0:65:G#6S_Ab6S.wav
448,192,67774,128,0,68085:0:0:0:65:G#7S_Ab7S.wav
192,192,68085,128,0,68396:0:0:0:65:E7S.wav
448,192,68396,128,0,68707:0:0:0:65:G#6S_Ab6S.wav
192,192,68707,128,0,69018:0:0:0:65:E6S.wav
448,192,69018,128,0,69328:0:0:0:65:C#7S_Db7S.wav
192,192,69328,128,0,69639:0:0:0:65:B7S.wav
320,192,69639,128,0,69950:0:0:0:65:G#6S_Ab6S.wav
64,192,69950,128,0,70261:0:0:0:65:G#6S_Ab6S.wav
320,192,70261,128,0,70572:0:0:0:65:G#7S_Ab7S.wav
64,192,70572,128,0,70883:0:0:0:65:E7S.wav
320,192,70883,128,0,71194:0:0:0:65:G#6S_Ab6S.wav
64,192,71194,128,0,71505:0:0:0:65:E6S.wav
320,192,71505,128,0,71815:0:0:0:65:C#7S_Db7S.wav
64,192,71815,128,0,72126:0:0:0:65:B7S.wav
448,192,72126,128,0,72748:0:0:0:65:E8S.wav
64,192,72748,128,0,73370:0:0:0:65:D8S.wav
192,192,73370,128,0,73992:0:0:0:65:C#8S_Db8S.wav
320,192,73992,128,0,74613:0:0:0:65:C8S.wav
64,192,74613,128,0,74924:0:0:0:65:B7S.wav
448,192,74924,128,0,75235:0:0:0:65:A#7S_Bb7S.wav
320,192,75235,128,0,75546:0:0:0:65:A7S.wav
192,192,75546,128,0,75857:0:0:0:65:G#7S_Ab7S.wav
448,192,75857,1,0,0:0:0:65:G7S.wav
64,192,76012,1,0,0:0:0:65:D#7S_Eb7S.wav
320,192,76168,1,0,0:0:0:65:B6S.wav
192,192,76479,1,0,0:0:0:65:D#6S_Eb6S.wav
448,192,76634,1,0,0:0:0:65:B5S.wav
64,192,76790,1,0,0:0:0:65:G5S.wav
320,192,76945,1,0,0:0:0:65:D#5S_Eb5S.wav
192,192,77100,128,0,79587:0:0:0:65:B4S.wav
64,192,78344,128,0,79587:0:0:0:65:A#5S_Bb5S.wav
320,192,79587,1,0,0:0:0:65:G#6S_Ab6S.wav
64,192,79898,1,0,0:0:0:65:A#6S_Bb6S.wav
448,192,79898,1,0,0:0:0:70:snare.wav
192,192,80209,1,0,0:0:0:65:D#6S_Eb6S.wav
320,192,80520,1,0,0:0:0:65:D#6S_Eb6S.wav
448,192,80520,1,0,0:0:0:40:D#5S_Eb5S.wav
64,192,80831,1,0,0:0:0:65:B5S.wav
192,192,81142,1,0,0:0:0:65:D#6S_Eb6S.wav
320,192,81142,1,0,0:0:0:70:snare.wav
448,192,81453,1,0,0:0:0:65:D#6S_Eb6S.wav
64,192,81764,1,0,0:0:0:65:C#7S_Db7S.wav
192,192,81764,1,0,0:0:0:40:E5S.wav
320,192,82075,1,0,0:0:0:65:G#6S_Ab6S.wav
64,192,82385,1,0,0:0:0:65:G#6S_Ab6S.wav
448,192,82385,1,0,0:0:0:70:snare.wav
192,192,82696,1,0,0:0:0:65:G#6S_Ab6S.wav
64,192,83007,1,0,0:0:0:65:C#7S_Db7S.wav
320,192,83007,1,0,0:0:0:70:snare.wav
448,192,83318,1,0,0:0:0:65:G#6S_Ab6S.wav
64,192,83629,1,0,0:0:0:65:C#7S_Db7S.wav
192,192,83629,1,0,0:0:0:70:kick.wav
320,192,83940,1,0,0:0:0:65:G#7S_Ab7S.wav
64,192,84251,1,0,0:0:0:65:C#8S_Db8S.wav
448,192,84251,1,0,0:0:0:70:kick.wav
192,192,84562,1,0,0:0:0:65:D#7S_Eb7S.wav
320,192,84562,1,0,0:0:0:55:cymbal.wav
64,192,84872,1,0,0:0:0:65:B6S.wav
448,192,84872,1,0,0:0:0:70:snare.wav
192,192,85183,1,0,0:0:0:65:G#6S_Ab6S.wav
320,192,85494,1,0,0:0:0:65:D#6S_Eb6S.wav
448,192,85494,1,0,0:0:0:40:D#5S_Eb5S.wav
64,192,85805,1,0,0:0:0:65:B5S.wav
192,192,86116,1,0,0:0:0:65:G#5S_Ab5S.wav
320,192,86116,1,0,0:0:0:70:snare.wav
448,192,86427,1,0,0:0:0:65:F#5S_Gb5S.wav
64,192,86738,1,0,0:0:0:65:F6S.wav
192,192,86738,1,0,0:0:0:70:snare.wav
320,192,87049,1,0,0:0:0:65:A#6S_Bb6S.wav
320,192,87359,1,0,0:0:0:65:C#7S_Db7S.wav
64,192,87670,1,0,0:0:0:65:G#7S_Ab7S.wav
64,192,87981,1,0,0:0:0:65:C#8S_Db8S.wav
448,192,88292,1,0,0:0:0:65:G#7S_Ab7S.wav
192,192,88448,1,0,0:0:0:65:D#7S_Eb7S.wav
320,192,88603,1,0,0:0:0:65:A#7S_Bb7S.wav
64,192,88914,1,0,0:0:0:65:C#7S_Db7S.wav
192,192,89069,1,0,0:0:0:65:B6S.wav
320,192,89225,1,0,0:0:0:65:A#6S_Bb6S.wav
448,192,89380,1,0,0:0:0:65:F#6S_Gb6S.wav
64,192,89536,128,0,93266:0:0:0:65:G#7S_Ab7S.wav
192,192,89536,1,0,0:0:0:40:G#3S_Ab3S.wav
