osu file format v14

[General]
AudioFilename: audio.mp3
AudioLeadIn: 0
PreviewTime: 48024
Countdown: 0
SampleSet: Normal
StackLeniency: 0.7
Mode: 0
LetterboxInBreaks: 0
WidescreenStoryboard: 1

[Editor]
Bookmarks: 25670
DistanceSpacing: 1
BeatDivisor: 6
GridSize: 32
TimelineZoom: 1

[Metadata]
Title:Vessel
TitleUnicode:Vessel
Artist:Ship Wrek
ArtistUnicode:Ship Wrek
Creator:ItsSurreal
Version:Sunken
Source:
Tags:
BeatmapID:1281587
BeatmapSetID:606688

[Difficulty]
HPDrainRate:4.5
CircleSize:4.5
OverallDifficulty:6
ApproachRate:8.7
SliderMultiplier:1.99999990463257
SliderTickRate:1

[Events]
//Background and Video events
0,0,"346ab711dacf05e49389c91a0986adf2.jpg",0,0
//Break Periods
2,9070,25025
2,29069,44225
//Storyboard Layer 0 (Background)
//Storyboard Layer 1 (Fail)
//Storyboard Layer 2 (Pass)
//Storyboard Layer 3 (Foreground)
//Storyboard Layer 4 (Overlay)
//Storyboard Sound Samples

[TimingPoints]
70.157894736842,400,4,1,0,100,1,0
51270,-43.4782608695652,4,1,0,100,0,0

[HitObjects]
77,54,70,6,0,P|64:127|107:160,1,99.9999952316283
60,186,870,2,0,P|136:222|180:202,1,99.9999952316283
148,220,1670,1,0,0:0:0:0:
172,62,2270,2,0,P|251:97|244:140,1,99.9999952316283
252,98,3270,1,0,0:0:0:0:
316,48,4070,2,0,P|352:106|319:155,1,99.9999952316283
345,132,4870,1,0,0:0:0:0:
418,157,5470,2,0,P|386:221|354:221,1,99.9999952316285
366,224,6470,1,0,0:0:0:0:
356,156,7270,2,0,P|307:185|288:232,1,99.9999952316285
290,223,8070,1,0,0:0:0:0:
289,298,8670,2,0,P|244:284|212:220,1,99.9999952316285
216,80,25670,6,0,P|284:116|290:167,1,99.9999952316285
131,109,26070,1,0,0:0:0:0:
234,160,26270,1,0,0:0:0:0:
137,202,26470,1,0,0:0:0:0:
41,197,26670,2,0,P|64:256|106:273,2,99.9999952316285
46,125,27270,2,0,P|89:69|130:61,1,99.9999952316285
119,135,27670,2,0,P|160:160|224:128,1,99.9999952316285
207,147,28070,1,0,0:0:0:0:
250,54,28270,1,0,0:0:0:0:
353,41,28470,1,0,0:0:0:0:
353,41,28670,2,0,P|384:96|352:128,1,99.9999952316285
173,69,44870,5,0,0:0:0:0:
111,205,45070,1,0,0:0:0:0:
173,69,45270,1,0,0:0:0:0:
222,237,45470,1,0,0:0:0:0:
314,70,45670,1,0,0:0:0:0:
124,162,45870,1,0,0:0:0:0:
314,70,46070,1,0,0:0:0:0:
232,238,46270,1,0,0:0:0:0:
410,112,46470,1,0,0:0:0:0:
339,283,46670,1,0,0:0:0:0:
191,71,46870,1,0,0:0:0:0:
339,283,47070,1,0,0:0:0:0:
336,52,47270,1,0,0:0:0:0:
216,248,47470,1,0,0:0:0:0:
139,97,47670,1,0,0:0:0:0:
139,97,47870,1,0,0:0:0:0:
279,118,48070,5,0,0:0:0:0:
328,119,48170,1,0,0:0:0:0:
374,139,48270,1,0,0:0:0:0:
408,175,48370,1,0,0:0:0:0:
426,221,48470,1,0,0:0:0:0:
426,271,48570,1,0,0:0:0:0:
406,316,48670,1,0,0:0:0:0:
371,352,48770,1,0,0:0:0:0:
325,371,48870,1,0,0:0:0:0:
276,371,48970,1,0,0:0:0:0:
230,352,49070,1,0,0:0:0:0:
194,318,49170,1,0,0:0:0:0:
174,272,49270,1,0,0:0:0:0:
173,222,49370,1,0,0:0:0:0:
203,180,49470,1,0,0:0:0:0:
148,142,49670,6,0,L|165:118,17,16.6666658719381
152,157,50470,5,0,0:0:0:0:
257,55,50670,1,0,0:0:0:0:
152,157,50870,1,0,0:0:0:0:
52,167,51270,2,0,P|160:256|256:256,1,229.999993419647
202,184,51670,2,0,P|224:320|352:320,1,229.999993419647
297,341,52070,1,0,0:0:0:0:
290,220,52270,2,0,P|376:297|472:233,1,229.999993419647
384,224,52670,2,0,B|320:96|384:64|224:64,1,229.999993419647
256,64,53070,1,0,0:0:0:0:
87,64,53270,1,0,0:0:0:0:
164,210,53470,1,0,0:0:0:0:
87,64,53670,1,0,0:0:0:0:
265,63,53870,1,0,0:0:0:0:
173,206,54070,1,0,0:0:0:0:
120,253,54470,6,0,P|224:320|320:288,1,229.999993419647
358,344,54870,2,0,P|224:256|256:160,1,229.999993419647
320,256,55270,2,0,P|320:128|224:64,1,229.999993419647
128,64,55670,5,0,0:0:0:0:
64,256,55870,1,0,0:0:0:0:
288,64,56070,1,0,0:0:0:0:
192,288,56270,1,0,0:0:0:0:
96,96,56470,1,0,0:0:0:0:
351,192,56670,1,0,0:0:0:0:
405,110,56870,6,0,P|480:224|416:288,1,229.999993419647
433,281,57270,1,0,0:0:0:0:
291,124,57470,1,0,0:0:0:0:
361,81,57670,2,0,P|213:104|245:200,1,229.999993419647
210,149,58070,1,0,0:0:0:0:
367,169,58270,1,0,0:0:0:0:
243,257,58470,1,0,0:0:0:0:
367,169,58670,1,0,0:0:0:0:
210,149,58870,1,0,0:0:0:0:
359,268,59070,1,0,0:0:0:0:
425,203,59270,2,0,P|396:333|300:333,1,229.999993419647
317,341,59670,1,0,0:0:0:0:
137,202,59870,1,0,0:0:0:0:
270,78,60070,1,0,0:0:0:0:
137,202,60270,1,0,0:0:0:0:
312,179,60470,1,0,0:0:0:0:
140,101,60670,1,0,0:0:0:0:
213,70,60870,2,0,P|77:60|77:156,1,229.999993419647
62,124,61270,2,0,P|128:224|256:224,1,229.999993419647
230,234,61670,1,0,0:0:0:0:
158,174,62070,2,0,P|284:182|348:278,1,229.999993419647
343,258,62470,1,0,0:0:0:0:
226,292,62670,1,0,0:0:0:0:
257,86,62870,1,0,0:0:0:0:
350,261,63070,1,0,0:0:0:0:
257,86,63270,1,0,0:0:0:0:
257,86,63670,1,0,0:0:0:0:
