osu file format v14

[General]
AudioFilename: audio.mp3
AudioLeadIn: 0
PreviewTime: -1
Countdown: 0
SampleSet: Normal
StackLeniency: 0.7
Mode: 0
LetterboxInBreaks: 0
WidescreenStoryboard: 1

[Editor]
DistanceSpacing: 1
BeatDivisor: 4
GridSize: 32
TimelineZoom: 1

[Metadata]
Title:Vessel
TitleUnicode:Vessel
Artist:Ship Wrek
ArtistUnicode:Ship Wrek
Creator:ItsSurreal
Version:Hard
Source:
Tags:
BeatmapID:1281584
BeatmapSetID:606688

[Difficulty]
HPDrainRate:5
CircleSize:4.8
OverallDifficulty:5.5
ApproachRate:6.5
SliderMultiplier:1.4
SliderTickRate:1

[Events]
//Background and Video events
0,0,"346ab711dacf05e49389c91a0986adf2.jpg",0,0
//Break Periods
2,102479,115705
2,179680,183585
//Storyboard Layer 0 (Background)
//Storyboard Layer 1 (Fail)
//Storyboard Layer 2 (Pass)
//Storyboard Layer 3 (Foreground)
//Storyboard Sound Samples

[TimingPoints]
80.157894736842,400,4,1,0,100,1,0

[HitObjects]
125,81,680,5,0,0:0:0:0:
169,223,1480,1,0,0:0:0:0:
324,98,2280,1,0,0:0:0:0:
358,246,3080,1,0,0:0:0:0:
161,81,3880,5,0,0:0:0:0:
192,236,4680,1,0,0:0:0:0:
329,112,5480,1,0,0:0:0:0:
358,230,6280,1,0,0:0:0:0:
365,86,7080,1,0,0:0:0:0:
352,235,7880,1,0,0:0:0:0:
453,128,8680,1,0,0:0:0:0:
119,149,9480,2,0,L|303:306,1,227.5
401,114,11080,2,0,L|163:264,1,280
195,115,12680,1,0,0:0:0:0:
321,275,13480,1,0,0:0:0:0:
345,64,14280,1,0,0:0:0:0:
110,112,15080,2,0,L|359:292,1,297.5
397,72,16680,2,0,L|160:270,1,297.5
121,133,18280,2,0,L|243:156,2,122.5
103,103,19880,1,0,0:0:0:0:
253,274,20680,1,0,0:0:0:0:
369,89,21480,1,0,0:0:0:0:
139,48,22280,5,0,0:0:0:0:
143,212,23080,1,0,0:0:0:0:
145,137,23880,2,0,L|420:328,1,332.5
172,120,25680,1,0,0:0:0:0:
248,260,26280,1,0,0:0:0:0:
352,124,26680,5,0,0:0:0:0:
334,248,27080,1,0,0:0:0:0:
160,124,27480,1,0,0:0:0:0:
212,256,27880,1,0,0:0:0:0:
294,126,28280,1,0,0:0:0:0:
346,255,28680,1,0,0:0:0:0:
216,196,29080,1,0,0:0:0:0:
297,102,29480,1,0,0:0:0:0:
316,231,29880,1,0,0:0:0:0:
234,143,30280,5,0,0:0:0:0:
274,216,30680,1,0,0:0:0:0:
255,271,31080,1,0,0:0:0:0:
139,144,31480,1,0,0:0:0:0:
197,278,31880,1,0,0:0:0:0:
279,155,32280,1,0,0:0:0:0:
436,111,32680,1,0,0:0:0:0:
377,237,33080,1,0,0:0:0:0:
229,213,33480,1,0,0:0:0:0:
217,131,33880,1,0,0:0:0:0:
322,96,34280,1,0,0:0:0:0:
388,171,34680,1,0,0:0:0:0:
331,238,35080,1,0,0:0:0:0:
264,172,35480,1,0,0:0:0:0:
245,259,35880,1,0,0:0:0:0:
332,174,36280,1,0,0:0:0:0:
357,282,36680,1,0,0:0:0:0:
109,53,38280,1,0,0:0:0:0:
155,198,38680,1,0,0:0:0:0:
243,76,39080,5,0,0:0:0:0:
292,197,39480,1,0,0:0:0:0:
152,181,39880,1,0,0:0:0:0:
215,58,40280,1,0,0:0:0:0:
358,106,40680,1,0,0:0:0:0:
260,211,41080,1,0,0:0:0:0:
235,73,41480,1,0,0:0:0:0:
374,142,41880,1,0,0:0:0:0:
242,207,42280,1,0,0:0:0:0:
247,91,42680,1,0,0:0:0:0:
356,174,43080,5,0,0:0:0:0:
225,224,43480,1,0,0:0:0:0:
127,77,44680,1,0,0:0:0:0:
227,221,45080,1,0,0:0:0:0:
316,101,45480,1,0,0:0:0:0:
279,249,45880,1,0,0:0:0:0:
177,100,46280,1,0,0:0:0:0:
184,170,46480,1,0,0:0:0:0:
193,209,46680,1,0,0:0:0:0:
243,229,46880,1,0,0:0:0:0:
271,213,47080,1,0,0:0:0:0:
280,198,47280,1,0,0:0:0:0:
293,182,47480,1,0,0:0:0:0:
326,169,47680,1,0,0:0:0:0:
335,177,47880,1,0,0:0:0:0:
337,200,48080,1,0,0:0:0:0:
337,221,48280,1,0,0:0:0:0:
349,244,48480,1,0,0:0:0:0:
379,244,48680,1,0,0:0:0:0:
386,233,48880,1,0,0:0:0:0:
392,214,49080,1,0,0:0:0:0:
394,195,49280,1,0,0:0:0:0:
397,180,49480,1,0,0:0:0:0:
398,166,49680,1,0,0:0:0:0:
394,151,49880,1,0,0:0:0:0:
387,141,50080,1,0,0:0:0:0:
384,137,50280,1,0,0:0:0:0:
234,74,51080,1,0,0:0:0:0:
243,212,51480,1,0,0:0:0:0:
352,89,51880,5,0,0:0:0:0:
337,229,52280,1,0,0:0:0:0:
303,186,52480,1,0,0:0:0:0:
294,157,52680,1,0,0:0:0:0:
290,135,52880,1,0,0:0:0:0:
303,115,53080,1,0,0:0:0:0:
318,109,53280,1,0,0:0:0:0:
339,118,53480,1,0,0:0:0:0:
337,206,53880,1,0,0:0:0:0:
186,110,54280,1,0,0:0:0:0:
195,242,54680,1,0,0:0:0:0:
274,113,55080,1,0,0:0:0:0:
384,112,55480,1,0,0:0:0:0:
384,131,55680,1,0,0:0:0:0:
383,155,55880,1,0,0:0:0:0:
382,182,56080,1,0,0:0:0:0:
385,213,56280,1,0,0:0:0:0:
431,238,56480,1,0,0:0:0:0:
446,224,56680,1,0,0:0:0:0:
452,191,56880,1,0,0:0:0:0:
455,171,57080,1,0,0:0:0:0:
292,93,57480,1,0,0:0:0:0:
226,175,57880,1,0,0:0:0:0:
165,89,58280,5,0,0:0:0:0:
183,220,58680,1,0,0:0:0:0:
221,215,58880,1,0,0:0:0:0:
242,209,59080,1,0,0:0:0:0:
260,199,59280,1,0,0:0:0:0:
283,197,59480,1,0,0:0:0:0:
307,209,59680,1,0,0:0:0:0:
316,228,59880,1,0,0:0:0:0:
336,254,60080,1,0,0:0:0:0:
363,255,60280,1,0,0:0:0:0:
359,177,60680,1,0,0:0:0:0:
326,269,61080,1,0,0:0:0:0:
226,157,61480,1,0,0:0:0:0:
241,272,61880,1,0,0:0:0:0:
255,275,62080,1,0,0:0:0:0:
290,275,62280,1,0,0:0:0:0:
301,260,62480,1,0,0:0:0:0:
307,245,62680,1,0,0:0:0:0:
314,229,62880,1,0,0:0:0:0:
332,216,63080,1,0,0:0:0:0:
348,222,63280,1,0,0:0:0:0:
356,238,63480,1,0,0:0:0:0:
310,171,63880,1,0,0:0:0:0:
288,276,64280,5,0,0:0:0:0:
197,44,64680,5,0,0:0:0:0:
200,190,65080,1,0,0:0:0:0:
317,77,65480,1,0,0:0:0:0:
317,141,65680,1,0,0:0:0:0:
317,162,65880,1,0,0:0:0:0:
317,182,66080,1,0,0:0:0:0:
336,218,66280,1,0,0:0:0:0:
363,216,66480,1,0,0:0:0:0:
370,205,66680,1,0,0:0:0:0:
373,180,66880,1,0,0:0:0:0:
374,166,67080,1,0,0:0:0:0:
377,147,67280,1,0,0:0:0:0:
380,133,67480,1,0,0:0:0:0:
375,122,67680,1,0,0:0:0:0:
367,109,67880,1,0,0:0:0:0:
362,102,68080,1,0,0:0:0:0:
352,97,68280,1,0,0:0:0:0:
338,100,68480,1,0,0:0:0:0:
332,107,68680,1,0,0:0:0:0:
327,122,68880,1,0,0:0:0:0:
327,140,69080,1,0,0:0:0:0:
330,168,69280,1,0,0:0:0:0:
335,184,69480,1,0,0:0:0:0:
350,201,69680,1,0,0:0:0:0:
364,190,69880,1,0,0:0:0:0:
369,176,70080,1,0,0:0:0:0:
371,153,70280,1,0,0:0:0:0:
372,133,70480,1,0,0:0:0:0:
377,117,70680,1,0,0:0:0:0:
392,112,70880,1,0,0:0:0:0:
400,117,71080,1,0,0:0:0:0:
406,138,71280,1,0,0:0:0:0:
407,155,71480,1,0,0:0:0:0:
406,162,71680,1,0,0:0:0:0:
406,177,71880,1,0,0:0:0:0:
403,190,72080,1,0,0:0:0:0:
397,207,72280,1,0,0:0:0:0:
379,211,72480,1,0,0:0:0:0:
363,206,72680,1,0,0:0:0:0:
350,198,72880,1,0,0:0:0:0:
337,186,73080,1,0,0:0:0:0:
332,168,73280,1,0,0:0:0:0:
334,153,73480,1,0,0:0:0:0:
336,137,73680,1,0,0:0:0:0:
338,124,73880,1,0,0:0:0:0:
345,111,74080,1,0,0:0:0:0:
361,109,74280,1,0,0:0:0:0:
372,121,74480,1,0,0:0:0:0:
375,140,74680,1,0,0:0:0:0:
373,155,74880,1,0,0:0:0:0:
376,173,75080,1,0,0:0:0:0:
404,188,75280,1,0,0:0:0:0:
412,180,75480,1,0,0:0:0:0:
418,166,75680,1,0,0:0:0:0:
419,155,75880,1,0,0:0:0:0:
419,144,76080,1,0,0:0:0:0:
419,133,76280,1,0,0:0:0:0:
335,108,76680,1,0,0:0:0:0:
262,181,77080,1,0,0:0:0:0:
176,104,77480,1,0,0:0:0:0:
161,225,77880,1,0,0:0:0:0:
269,97,78280,1,0,0:0:0:0:
299,191,78680,1,0,0:0:0:0:
107,128,79080,5,0,0:0:0:0:
162,255,79480,1,0,0:0:0:0:
272,112,79880,1,0,0:0:0:0:
368,217,80280,1,0,0:0:0:0:
136,188,80680,1,0,0:0:0:0:
206,88,81480,5,0,0:0:0:0:
225,192,81880,1,0,0:0:0:0:
111,123,82280,1,0,0:0:0:0:
142,231,82680,1,0,0:0:0:0:
210,120,83080,1,0,0:0:0:0:
290,212,83480,1,0,0:0:0:0:
180,225,83880,1,0,0:0:0:0:
212,129,84280,1,0,0:0:0:0:
274,202,84680,1,0,0:0:0:0:
166,178,85080,1,0,0:0:0:0:
174,81,85480,1,0,0:0:0:0:
295,129,85880,1,0,0:0:0:0:
267,230,86280,1,0,0:0:0:0:
389,151,86680,1,0,0:0:0:0:
366,251,87080,1,0,0:0:0:0:
283,144,87480,1,0,0:0:0:0:
356,228,87880,1,0,0:0:0:0:
391,126,88280,1,0,0:0:0:0:
353,215,88680,1,0,0:0:0:0:
286,82,89080,1,0,0:0:0:0:
91,77,90280,2,0,L|245:240,1,210
386,53,91880,2,0,L|101:231,1,332.5
92,65,93480,2,0,L|425:135,1,332.5
428,70,95080,6,0,L|182:264,1,297.5
101,52,96680,2,0,L|179:331,1,280
388,64,98280,2,0,L|391:344,1,280
90,95,99880,6,0,L|427:124,1,332.5
428,298,101480,2,0,L|147:302,1,280
197,104,116680,5,0,0:0:0:0:
199,222,117480,1,0,0:0:0:0:
292,96,118280,1,0,0:0:0:0:
294,242,119080,1,0,0:0:0:0:
130,109,119880,5,0,0:0:0:0:
150,248,120680,1,0,0:0:0:0:
241,108,121480,1,0,0:0:0:0:
361,178,122280,1,0,0:0:0:0:
281,263,122680,1,0,0:0:0:0:
190,140,123080,1,0,0:0:0:0:
212,290,123480,1,0,0:0:0:0:
285,135,123880,1,0,0:0:0:0:
181,192,124680,5,0,0:0:0:0:
307,300,125480,1,0,0:0:0:0:
302,104,126280,1,0,0:0:0:0:
321,263,126680,1,0,0:0:0:0:
407,148,127080,1,0,0:0:0:0:
406,286,127480,1,0,0:0:0:0:
272,199,127880,1,0,0:0:0:0:
154,105,128680,5,0,0:0:0:0:
193,308,129480,1,0,0:0:0:0:
234,111,129880,1,0,0:0:0:0:
265,274,130280,1,0,0:0:0:0:
354,148,130680,1,0,0:0:0:0:
203,218,131080,1,0,0:0:0:0:
321,286,131880,5,0,0:0:0:0:
225,106,132680,1,0,0:0:0:0:
225,241,133080,1,0,0:0:0:0:
328,146,133480,1,0,0:0:0:0:
358,253,133880,1,0,0:0:0:0:
234,209,134280,1,0,0:0:0:0:
303,275,135080,1,0,0:0:0:0:
328,117,135880,5,0,0:0:0:0:
235,248,136280,1,0,0:0:0:0:
130,75,136680,5,0,0:0:0:0:
153,204,137080,1,0,0:0:0:0:
241,89,137480,1,0,0:0:0:0:
294,207,137880,1,0,0:0:0:0:
189,191,138280,1,0,0:0:0:0:
225,116,138680,1,0,0:0:0:0:
305,209,139080,1,0,0:0:0:0:
173,114,139880,1,0,0:0:0:0:
295,107,140680,5,0,0:0:0:0:
266,220,141080,1,0,0:0:0:0:
205,148,141480,1,0,0:0:0:0:
296,168,141880,1,0,0:0:0:0:
273,242,142280,1,0,0:0:0:0:
209,137,142680,1,0,0:0:0:0:
297,195,143080,1,0,0:0:0:0:
315,155,143280,1,0,0:0:0:0:
320,146,143480,1,0,0:0:0:0:
331,141,143680,1,0,0:0:0:0:
346,144,143880,1,0,0:0:0:0:
285,210,144280,1,0,0:0:0:0:
185,129,144680,1,0,0:0:0:0:
209,223,145080,1,0,0:0:0:0:
266,131,145480,1,0,0:0:0:0:
333,205,145880,5,0,0:0:0:0:
339,232,146080,1,0,0:0:0:0:
339,246,146280,1,0,0:0:0:0:
344,257,146480,1,0,0:0:0:0:
366,266,146680,1,0,0:0:0:0:
380,268,146880,1,0,0:0:0:0:
384,268,147080,1,0,0:0:0:0:
323,154,147480,1,0,0:0:0:0:
269,240,147880,1,0,0:0:0:0:
174,113,148280,1,0,0:0:0:0:
196,226,148680,1,0,0:0:0:0:
264,123,149080,1,0,0:0:0:0:
319,211,149480,5,0,0:0:0:0:
195,128,149880,1,0,0:0:0:0:
183,213,150280,1,0,0:0:0:0:
194,231,150480,1,0,0:0:0:0:
223,238,150680,1,0,0:0:0:0:
242,226,150880,1,0,0:0:0:0:
250,213,151080,1,0,0:0:0:0:
258,201,151280,1,0,0:0:0:0:
272,189,151480,1,0,0:0:0:0:
288,182,151680,1,0,0:0:0:0:
301,188,151880,1,0,0:0:0:0:
354,256,152080,1,0,0:0:0:0:
136,148,152680,1,0,0:0:0:0:
207,268,153080,1,0,0:0:0:0:
243,120,153480,5,0,0:0:0:0:
336,213,153880,1,0,0:0:0:0:
214,233,154280,1,0,0:0:0:0:
220,137,154680,1,0,0:0:0:0:
326,166,155080,1,0,0:0:0:0:
243,229,155480,1,0,0:0:0:0:
193,94,155880,1,0,0:0:0:0:
270,118,156080,1,0,0:0:0:0:
286,128,156280,1,0,0:0:0:0:
315,157,156480,1,0,0:0:0:0:
326,176,156680,1,0,0:0:0:0:
183,185,157080,1,0,0:0:0:0:
95,135,157480,1,0,0:0:0:0:
137,252,157880,1,0,0:0:0:0:
200,137,158280,1,0,0:0:0:0:
289,152,158680,1,0,0:0:0:0:
313,70,159080,1,0,0:0:0:0:
326,80,159280,1,0,0:0:0:0:
336,91,159480,1,0,0:0:0:0:
342,111,159680,1,0,0:0:0:0:
346,136,159880,1,0,0:0:0:0:
338,200,160280,1,0,0:0:0:0:
185,131,160680,1,0,0:0:0:0:
187,231,161080,1,0,0:0:0:0:
280,117,161480,5,0,0:0:0:0:
336,218,161880,1,0,0:0:0:0:
130,105,162280,5,0,0:0:0:0:
170,224,162680,1,0,0:0:0:0:
222,113,163080,1,0,0:0:0:0:
322,203,163480,1,0,0:0:0:0:
200,202,163880,1,0,0:0:0:0:
236,113,164280,1,0,0:0:0:0:
303,98,164680,1,0,0:0:0:0:
310,113,164880,1,0,0:0:0:0:
312,132,165080,1,0,0:0:0:0:
313,152,165280,1,0,0:0:0:0:
313,171,165480,1,0,0:0:0:0:
310,182,165680,1,0,0:0:0:0:
309,195,165880,1,0,0:0:0:0:
309,204,166080,1,0,0:0:0:0:
310,216,166280,1,0,0:0:0:0:
223,113,166680,1,0,0:0:0:0:
230,226,167080,1,0,0:0:0:0:
301,128,167480,1,0,0:0:0:0:
338,238,167880,1,0,0:0:0:0:
218,152,168280,5,0,0:0:0:0:
242,54,168680,1,0,0:0:0:0:
337,143,169080,1,0,0:0:0:0:
221,156,169480,1,0,0:0:0:0:
230,67,169880,1,0,0:0:0:0:
111,61,170280,1,0,0:0:0:0:
125,182,170680,1,0,0:0:0:0:
198,86,171080,1,0,0:0:0:0:
248,177,171480,1,0,0:0:0:0:
347,115,171880,1,0,0:0:0:0:
366,195,172280,1,0,0:0:0:0:
255,111,172680,1,0,0:0:0:0:
257,209,173080,1,0,0:0:0:0:
351,117,173480,1,0,0:0:0:0:
352,131,173680,1,0,0:0:0:0:
352,148,173880,1,0,0:0:0:0:
350,168,174080,1,0,0:0:0:0:
346,187,174280,1,0,0:0:0:0:
346,193,174480,1,0,0:0:0:0:
346,208,174680,1,0,0:0:0:0:
346,226,174880,1,0,0:0:0:0:
346,240,175080,1,0,0:0:0:0:
260,158,175480,1,0,0:0:0:0:
230,228,175880,1,0,0:0:0:0:
160,129,176280,1,0,0:0:0:0:
152,218,176680,5,0,0:0:0:0:
263,90,177080,1,0,0:0:0:0:
267,101,177280,1,0,0:0:0:0:
267,122,177480,1,0,0:0:0:0:
268,144,177680,1,0,0:0:0:0:
268,155,177880,1,0,0:0:0:0:
269,173,178080,1,0,0:0:0:0:
270,187,178280,1,0,0:0:0:0:
271,193,178480,1,0,0:0:0:0:
273,205,178680,1,0,0:0:0:0:
243,122,179080,1,0,0:0:0:0:
193,186,179480,1,0,0:0:0:0:
256,192,184680,12,0,195980,0:0:0:0:
