osu file format v14

[General]
AudioFilename: audio.mp3
AudioLeadIn: 0
PreviewTime: 108784
Countdown: 0
SampleSet: Normal
StackLeniency: 0.7
Mode: 0
LetterboxInBreaks: 0
WidescreenStoryboard: 0

[Editor]
Bookmarks: 134673,150157
DistanceSpacing: 1.3
BeatDivisor: 4
GridSize: 8
TimelineZoom: 2.499999

[Metadata]
Title:G.Y.M. Leader was her?
TitleUnicode:G.Y.M.リーダーは彼女なのか?
Artist:Shion
ArtistUnicode:紫苑
Creator:Van246
Version:Extra
Source:東方project
Tags:Touhou, Pokemon, U.N. Owen, UN
BeatmapID:2055540
BeatmapSetID:982171

[Difficulty]
HPDrainRate:6
CircleSize:4.5
OverallDifficulty:8
ApproachRate:9.5
SliderMultiplier:1.8
SliderTickRate:1

[Events]
//Background and Video events
0,0,"flan.png",0,0
//Break Periods
//Storyboard Layer 0 (Background)
//Storyboard Layer 1 (Fail)
//Storyboard Layer 2 (Pass)
//Storyboard Layer 3 (Foreground)
//Storyboard Sound Samples

[TimingPoints]
2416,322.58064516129,4,1,0,70,1,0
35964,-100,4,1,0,70,0,1
56609,-100,4,1,0,70,0,0
57147,-100,4,1,0,30,0,0
57200,-100,4,1,0,70,0,0
57469,-100,4,1,0,30,0,0
57523,-100,4,1,0,70,0,0
57792,-100,4,1,0,30,0,0
57846,-100,4,1,0,70,0,0
58114,-100,4,1,0,30,0,0
58168,-100,4,1,0,70,0,0
58437,-100,4,1,0,30,0,0
58491,-100,4,1,0,70,0,0
58760,-100,4,1,0,30,0,0
58813,-100,4,1,0,70,0,0
59082,-100,4,1,0,30,0,0
59136,-100,4,1,0,70,0,0
59727,-100,4,1,0,30,0,0
59781,-100,4,1,0,70,0,0
60050,-100,4,1,0,30,0,0
60104,-100,4,1,0,70,0,0
60372,-100,4,1,0,30,0,0
60426,-100,4,1,0,70,0,0
60695,-100,4,1,0,30,0,0
60749,-100,4,1,0,70,0,0
61018,-100,4,1,0,30,0,0
61071,-100,4,1,0,70,0,0
61340,-100,4,1,0,30,0,0
61394,-100,4,1,0,70,0,0
61663,-100,4,1,0,30,0,0
61717,-100,4,1,0,70,0,0
61770,-100,4,1,0,45,0,0
72254,322.58064516129,4,1,0,70,1,0
82415,322.58064516129,4,1,0,70,1,0
85156,322.58064516129,4,1,0,70,1,0
93381,322.58064516129,4,1,0,70,1,0
113622,-100,4,1,0,50,0,0
113703,-100,4,1,0,55,0,0
113784,-100,4,1,0,60,0,0
113864,-100,4,1,0,65,0,0
113945,-100,4,1,0,70,0,0
114026,-100,4,1,0,70,0,1
155316,-100,4,1,0,70,0,0
156606,487.80487804878,4,1,0,70,1,0

[Colours]
Combo1 : 215,215,215
Combo2 : 194,50,53
Combo3 : 238,235,117
Combo4 : 105,105,105

[HitObjects]
145,45,2416,5,2,2:0:0:0:
141,89,2496,1,0,2:0:0:0:
155,132,2577,1,0,2:0:0:0:
183,166,2657,1,0,2:0:0:0:
223,188,2738,2,0,L|266:209,1,45,0|0,2:0|2:0,2:0:0:0:
418,283,2899,5,2,2:0:0:0:
381,308,2980,1,0,2:0:0:0:
337,318,3061,1,0,2:0:0:0:
293,312,3141,1,0,2:0:0:0:
254,289,3222,2,0,L|214:262,1,45,0|0,2:0|2:0,2:0:0:0:
78,159,3383,5,2,2:0:0:0:
115,134,3464,1,0,2:0:0:0:
159,124,3545,1,0,2:0:0:0:
203,130,3625,1,0,2:0:0:0:
242,153,3706,2,0,L|281:179,1,45,0|0,2:0|2:0,2:0:0:0:
431,274,3867,5,2,2:0:0:0:
462,241,3948,1,0,2:0:0:0:
480,201,4028,1,0,2:0:0:0:
484,156,4109,1,0,2:0:0:0:
473,113,4190,1,0,2:0:0:0:
449,75,4270,1,0,2:0:0:0:
413,48,4351,1,2,2:0:0:0:
368,38,4432,1,0,2:0:0:0:
323,58,4512,1,0,2:0:0:0:
278,38,4593,1,0,2:0:0:0:
233,59,4674,1,0,2:0:0:0:
188,39,4754,1,0,2:0:0:0:
143,59,4835,2,0,L|101:97,1,45
1,222,4996,5,8,2:0:0:0:
159,298,5157,1,0,2:0:0:0:
32,298,5319,1,0,2:0:0:0:
154,222,5480,1,0,2:0:0:0:
271,300,5641,1,0,2:0:0:0:
432,372,5803,1,0,2:0:0:0:
306,372,5964,1,0,2:0:0:0:
430,300,6125,1,0,2:0:0:0:
478,102,6286,5,8,2:0:0:0:
319,154,6448,1,0,2:0:0:0:
418,18,6609,1,0,2:0:0:0:
418,186,6770,1,0,2:0:0:0:
319,50,6932,1,0,2:0:0:0:
478,102,7093,2,0,P|493:233|462:282,1,180,8|0,2:0|2:0,2:0:0:0:
306,372,7577,5,8,2:0:0:0:
201,238,7738,1,0,2:0:0:0:
347,304,7899,1,0,2:0:0:0:
185,317,8061,1,0,2:0:0:0:
62,258,8222,1,0,2:0:0:0:
31,86,8383,1,0,2:0:0:0:
0,219,8545,1,0,2:0:0:0:
104,102,8706,2,0,L|147:90,1,45,0|0,2:0|2:0,2:0:0:0:
313,70,8867,5,8,2:0:0:0:
474,112,9028,1,0,2:0:0:0:
317,173,9190,1,0,2:0:0:0:
409,32,9351,1,0,2:0:0:0:
418,200,9512,1,0,2:0:0:0:
313,70,9674,2,0,P|385:115|418:201,1,180,8|0,2:0|2:0,2:0:0:0:
373,305,10157,5,8,2:0:0:0:
329,274,10319,1,0,2:0:0:0:
187,368,10480,1,4,2:0:0:0:
248,218,10641,1,0,2:0:0:0:
204,187,10803,1,0,2:0:0:0:
73,297,10964,1,4,2:0:0:0:
107,130,11125,1,0,2:0:0:0:
133,93,11206,1,0,2:0:0:0:
172,71,11286,1,0,2:0:0:0:
338,38,11448,5,8,2:0:0:0:
408,75,11609,1,0,2:0:0:0:
460,133,11770,1,0,2:0:0:0:
296,208,11932,1,4,2:0:0:0:
481,209,12093,1,0,2:0:0:0:
474,287,12254,2,0,P|396:350|279:353,1,180,8|0,2:0|2:0,2:0:0:0:
175,332,12738,5,12,2:0:0:0:
332,289,12899,1,0,2:0:0:0:
204,268,13061,1,0,2:0:0:0:
319,361,13222,1,0,2:0:0:0:
220,172,13383,1,4,2:0:0:0:
194,135,13464,1,4,2:0:0:0:
155,113,13545,1,4,2:0:0:0:
0,10,13706,1,4,2:0:0:0:
26,47,13786,1,4,2:0:0:0:
65,69,13867,1,4,2:0:0:0:
220,172,14028,5,8,2:0:0:0:
22,233,14190,1,4,2:0:0:0:
19,278,14270,1,4,2:0:0:0:
36,319,14351,1,4,2:0:0:0:
166,384,14512,1,0,2:0:0:0:
288,318,14674,1,0,2:0:0:0:
143,262,14835,2,0,P|96:206|67:86,1,180,8|0,2:0|2:0,2:0:0:0:
160,57,15319,6,0,P|113:18|73:17,2,60,8|0|0,2:0|2:0|2:0,2:0:0:0:
222,140,15641,2,0,P|175:182|135:183,2,60,0|0|0,2:0|2:0|2:0,2:0:0:0:
287,57,15964,2,0,P|240:18|200:17,2,60,0|0|0,2:0|2:0|2:0,2:0:0:0:
349,140,16286,2,0,P|302:182|262:183,2,60,0|0|0,2:0|2:0|2:0,2:0:0:0:
411,58,16609,5,8,2:0:0:0:
454,121,16717,1,0,2:0:0:0:
463,198,16824,1,0,2:0:0:0:
434,269,16932,1,0,2:0:0:0:
379,214,17039,1,0,2:0:0:0:
302,213,17147,1,0,2:0:0:0:
247,269,17254,1,0,2:0:0:0:
304,364,17415,2,0,P|377:272|374:195,1,180,8|0,2:0|2:0,2:0:0:0:
353,66,17899,5,8,2:0:0:0:
288,23,18007,1,0,2:0:0:0:
212,39,18114,1,0,2:0:0:0:
168,104,18222,1,0,2:0:0:0:
184,180,18329,1,0,2:0:0:0:
249,223,18437,1,0,2:0:0:0:
316,181,18545,1,0,2:0:0:0:
392,198,18652,1,0,2:0:0:0:
433,263,18760,1,0,2:0:0:0:
417,340,18867,1,0,2:0:0:0:
352,383,18975,2,0,L|311:317,1,60,0|0,2:0|2:0,2:0:0:0:
249,223,19190,5,8,2:0:0:0:
316,181,19297,1,0,2:0:0:0:
392,198,19405,1,0,2:0:0:0:
433,263,19512,1,0,2:0:0:0:
417,340,19620,1,0,2:0:0:0:
352,383,19727,1,0,2:0:0:0:
275,368,19835,1,0,2:0:0:0:
171,311,19996,2,0,P|114:236|117:125,1,180,8|0,2:0|2:0,2:0:0:0:
136,27,20480,5,8,2:0:0:0:
200,69,20588,1,0,2:0:0:0:
277,71,20695,1,0,2:0:0:0:
343,31,20803,1,0,2:0:0:0:
418,51,20910,1,0,2:0:0:0:
439,126,21018,1,0,2:0:0:0:
384,182,21125,1,0,2:0:0:0:
308,161,21233,1,0,2:0:0:0:
230,154,21340,1,0,2:0:0:0:
176,209,21448,1,0,2:0:0:0:
185,287,21555,2,0,L|240:319,1,60,0|0,2:0|2:0,2:0:0:0:
386,362,21770,5,8,2:0:0:0:
435,302,21878,1,0,2:0:0:0:
462,229,21985,1,0,2:0:0:0:
465,151,22093,1,0,2:0:0:0:
442,77,22200,1,0,2:0:0:0:
370,106,22308,1,0,2:0:0:0:
292,107,22415,1,0,2:0:0:0:
188,54,22577,2,0,P|99:91|47:176,1,180,8|0,2:0|2:0,2:0:0:0:
33,315,23061,5,8,2:0:0:0:
95,269,23168,1,0,2:0:0:0:
126,198,23276,1,0,2:0:0:0:
119,121,23383,1,0,2:0:0:0:
94,48,23491,1,0,2:0:0:0:
31,93,23598,1,0,2:0:0:0:
0,164,23706,1,0,2:0:0:0:
7,241,23813,1,0,2:0:0:0:
33,315,23921,1,0,2:0:0:0:
95,269,24028,1,0,2:0:0:0:
126,198,24136,2,0,L|151:134,1,60,0|0,2:0|2:0,2:0:0:0:
202,29,24351,5,8,2:0:0:0:
247,90,24459,1,0,2:0:0:0:
254,167,24566,1,0,2:0:0:0:
219,236,24674,1,0,2:0:0:0:
219,314,24781,1,0,2:0:0:0:
280,363,24889,1,0,2:0:0:0:
357,346,24996,1,0,2:0:0:0:
393,236,25157,2,0,P|306:216|219:235,1,180,8|0,2:0|2:0,2:0:0:0:
95,305,25641,6,0,P|71:252|116:141,1,180,8|0,2:0|2:0,2:0:0:0:
218,235,26125,1,0,2:0:0:0:
95,305,26286,2,0,P|71:252|116:141,1,180,8|0,2:0|2:0,2:0:0:0:
286,235,26770,1,0,2:0:0:0:
95,305,26932,2,0,P|71:252|116:141,1,180,8|0,2:0|2:0,2:0:0:0:
354,235,27415,1,0,2:0:0:0:
95,305,27577,2,0,P|71:252|116:141,1,180,8|0,2:0|2:0,2:0:0:0:
422,235,28061,1,0,2:0:0:0:
218,235,28222,5,0,2:0:0:0:
71,221,28383,2,0,P|82:180|121:139,1,90,8|0,2:0|2:0,2:0:0:0:
318,25,28706,2,0,P|307:66|268:107,1,90,8|0,2:0|2:0,2:0:0:0:
126,316,29028,2,0,P|167:305|208:266,1,90,8|0,2:0|2:0,2:0:0:0:
451,107,29351,2,0,P|410:118|369:157,1,90,8|0,2:0|2:0,2:0:0:0:
322,349,29674,2,0,P|319:300|280:259,1,90,8|0,2:0|2:0,2:0:0:0:
189,25,29996,2,0,P|159:59|154:116,1,90,8|0,2:0|2:0,2:0:0:0:
166,355,30319,2,0,P|207:344|248:305,1,90,8|0,2:0|2:0,2:0:0:0:
354,235,30641,1,8,2:0:0:0:
477,305,30803,6,0,P|501:252|456:141,1,180,2|0,2:0|2:0,2:0:0:0:
354,235,31286,1,0,2:0:0:0:
477,305,31448,2,0,P|501:252|456:141,1,180,2|0,2:0|2:0,2:0:0:0:
286,235,31932,1,0,2:0:0:0:
477,305,32093,2,0,P|501:252|456:141,1,180,2|0,2:0|2:0,2:0:0:0:
218,235,32577,1,0,2:0:0:0:
477,305,32738,2,0,P|501:252|456:141,1,180,2|0,2:0|2:0,2:0:0:0:
150,235,33222,1,0,2:0:0:0:
346,324,33383,6,0,P|382:286|393:249,1,90,2|0,2:0|2:0,2:0:0:0:
405,40,33706,2,0,P|352:45|320:67,1,90,2|0,2:0|2:0,2:0:0:0:
150,235,34028,1,2,2:0:0:0:
254,194,34190,1,0,2:0:0:0:
75,268,34351,1,2,2:0:0:0:
327,164,34512,1,0,2:0:0:0:
30,339,34674,6,0,P|82:343|117:328,1,90,2|0,2:0|2:0,2:0:0:0:
371,87,34996,2,0,P|318:82|283:97,1,90,2|0,2:0|2:0,2:0:0:0:
116,329,35319,2,0,P|169:353|280:308,1,180,2|0,2:0|2:0,2:0:0:0:
361,231,35803,1,0,0:0:0:0:
424,134,35964,5,8,1:0:0:0:
385,111,36125,1,8,1:0:0:0:
265,49,36286,1,8,1:0:0:0:
210,28,36367,1,8,1:0:0:0:
275,91,36448,1,8,1:0:0:0:
317,190,36609,5,8,1:0:0:0:
350,221,36770,1,8,1:0:0:0:
443,320,36932,1,8,1:0:0:0:
464,375,37012,1,8,1:0:0:0:
385,331,37093,1,8,1:0:0:0:
287,288,37254,5,8,1:0:0:0:
245,272,37415,1,8,1:0:0:0:
124,189,37577,1,8,1:0:0:0:
93,140,37657,1,8,1:0:0:0:
179,168,37738,1,8,1:0:0:0:
311,198,37899,5,8,1:0:0:0:
354,186,38061,1,8,1:0:0:0:
480,139,38222,1,8,1:0:0:0:
440,119,38383,1,8,1:0:0:0:
326,82,38545,6,8,P|274:78|239:93,1,90,8|8,1:0|1:0,1:0:0:0:
36,219,38867,2,8,P|89:224|124:209,1,90,8|8,1:0|1:0,1:0:0:0:
291,175,39190,1,8,1:0:0:0:
410,124,39351,1,8,1:0:0:0:
410,124,39432,1,8,1:0:0:0:
410,124,39512,1,8,1:0:0:0:
388,253,39674,1,8,1:0:0:0:
288,269,39835,5,8,1:0:0:0:
500,243,39996,1,8,1:0:0:0:
335,190,40157,1,8,1:0:0:0:
431,307,40319,1,8,1:0:0:0:
288,269,40480,2,8,P|195:257|120:210,1,180,8|8,1:0|1:0,1:0:0:0:
0,30,41125,5,8,1:0:0:0:
39,53,41286,1,8,1:0:0:0:
180,133,41448,1,8,1:0:0:0:
238,130,41528,1,8,1:0:0:0:
157,169,41609,1,8,1:0:0:0:
53,275,41770,5,8,1:0:0:0:
99,279,41932,1,8,1:0:0:0:
220,292,42093,1,8,1:0:0:0:
240,346,42174,1,8,1:0:0:0:
270,261,42254,1,8,1:0:0:0:
295,129,42415,5,8,1:0:0:0:
337,144,42577,1,8,1:0:0:0:
457,206,42738,1,8,1:0:0:0:
511,186,42819,1,8,1:0:0:0:
464,264,42899,1,8,1:0:0:0:
359,348,43061,5,8,1:0:0:0:
320,325,43222,1,8,1:0:0:0:
321,190,43383,1,8,1:0:0:0:
282,167,43545,1,8,1:0:0:0:
85,140,43706,6,8,P|118:179|154:193,1,90,8|8,1:0|1:0,1:0:0:0:
389,243,44028,2,8,P|355:203|319:189,1,90,8|8,1:0|1:0,1:0:0:0:
185,94,44351,1,8,1:0:0:0:
54,68,44512,1,8,1:0:0:0:
54,68,44593,1,8,1:0:0:0:
54,68,44674,1,8,1:0:0:0:
19,193,44835,1,8,1:0:0:0:
102,305,44996,5,0,3:0:0:0:
140,328,45077,1,0,3:0:0:0:
182,344,45157,1,0,3:0:0:0:
226,352,45238,1,0,3:0:0:0:
271,352,45319,1,0,3:0:0:0:
315,344,45399,1,0,3:0:0:0:
357,328,45480,1,0,3:0:0:0:
395,304,45561,1,0,3:0:0:0:
479,224,45722,5,0,3:0:0:0:
395,143,45883,1,0,3:0:0:0:
370,180,45964,1,0,3:0:0:0:
335,207,46045,1,0,3:0:0:0:
292,222,46125,2,0,L|236:224,1,45,0|0,3:0|3:0,3:0:0:0:
54,206,46286,5,8,1:0:0:0:
86,174,46448,1,8,1:0:0:0:
186,84,46609,1,8,1:0:0:0:
237,55,46690,1,8,1:0:0:0:
181,126,46770,1,8,1:0:0:0:
170,260,46932,5,8,1:0:0:0:
206,287,47093,1,8,1:0:0:0:
319,362,47254,1,8,1:0:0:0:
377,367,47335,1,8,1:0:0:0:
313,303,47415,1,8,1:0:0:0:
223,204,47577,5,8,1:0:0:0:
186,178,47738,1,8,1:0:0:0:
74,101,47899,1,8,1:0:0:0:
43,52,47980,1,8,1:0:0:0:
129,80,48061,1,8,1:0:0:0:
256,124,48222,5,8,1:0:0:0:
295,146,48383,1,8,1:0:0:0:
418,88,48545,1,8,1:0:0:0:
457,110,48706,1,8,1:0:0:0:
456,342,48867,6,8,P|413:311|396:277,1,90,8|8,1:0|1:0,1:0:0:0:
285,25,49190,2,8,P|327:55|344:89,1,90,8|8,1:0|1:0,1:0:0:0:
337,288,49512,1,8,1:0:0:0:
233,373,49674,1,8,1:0:0:0:
233,373,49754,1,8,1:0:0:0:
233,373,49835,1,8,1:0:0:0:
124,293,49996,1,8,1:0:0:0:
188,217,50157,5,8,1:0:0:0:
66,364,50319,1,8,1:0:0:0:
218,292,50480,1,8,1:0:0:0:
44,292,50641,1,8,1:0:0:0:
188,217,50803,2,8,P|91:188|36:120,1,180,8|8,1:0|1:0,1:0:0:0:
121,37,51448,5,8,1:0:0:0:
165,44,51609,1,8,1:0:0:0:
295,78,51770,1,8,1:0:0:0:
352,85,51851,1,8,1:0:0:0:
265,109,51932,1,8,1:0:0:0:
164,198,52093,5,8,1:0:0:0:
130,227,52254,1,8,1:0:0:0:
40,328,52415,1,8,1:0:0:0:
19,383,52496,1,8,1:0:0:0:
98,339,52577,1,8,1:0:0:0:
202,255,52738,5,8,1:0:0:0:
237,227,52899,1,8,1:0:0:0:
337,135,53061,1,8,1:0:0:0:
392,117,53141,1,8,1:0:0:0:
308,83,53222,1,8,1:0:0:0:
182,36,53383,5,8,1:0:0:0:
143,13,53545,1,8,1:0:0:0:
11,41,53706,1,8,1:0:0:0:
47,68,53867,1,8,1:0:0:0:
150,156,54028,6,8,P|187:192|223:203,1,90,8|8,1:0|1:0,1:0:0:0:
461,268,54351,2,8,P|423:231|387:220,1,90,8|8,1:0|1:0,1:0:0:0:
222,203,54674,1,8,1:0:0:0:
109,277,54835,1,8,1:0:0:0:
109,277,54915,1,8,1:0:0:0:
109,277,54996,1,8,1:0:0:0:
221,353,55157,1,8,1:0:0:0:
331,275,55319,6,0,P|293:238|257:227,1,90,0|0,3:0|3:0,3:0:0:0:
134,167,55641,1,0,3:0:0:0:
111,128,55722,1,0,3:0:0:0:
115,84,55803,1,0,3:0:0:0:
143,51,55883,1,0,3:0:0:0:
254,9,56045,5,0,3:0:0:0:
363,51,56206,1,0,3:0:0:0:
385,89,56286,1,0,3:0:0:0:
381,133,56367,1,0,3:0:0:0:
353,166,56448,2,0,L|307:198,1,45,0|0,3:0|3:0,3:0:0:0:
179,296,56609,6,8,P|216:332|252:343,1,90,8|8,1:0|1:0,1:0:0:0:
425,216,56932,2,0,L|299:264,1,135,2|0,2:0|2:0,2:0:0:0:
386,305,57254,2,0,L|333:180,1,135,2|0,2:0|2:0,2:0:0:0:
176,153,57577,2,0,L|128:28,1,135,2|0,2:0|2:0,2:0:0:0:
91,121,57899,2,0,L|231:67,1,135,2|0,2:0|2:0,2:0:0:0:
351,79,58222,2,0,L|513:123,1,135,2|0,2:0|2:0,2:0:0:0:
437,31,58545,2,0,L|401:162,1,135,2|0,2:0|2:0,2:0:0:0:
363,309,58867,2,0,P|295:304|218:262,1,135,2|8,2:0|2:0,2:0:0:0:
201,254,59190,5,8,2:0:0:0:
140,182,59351,1,8,2:0:0:0:
123,82,59512,2,0,P|182:49|269:42,1,135,2|0,2:0|2:0,2:0:0:0:
123,82,59835,2,0,P|190:80|271:113,1,135,2|0,2:0|2:0,2:0:0:0:
122,81,60157,2,0,P|184:111|241:177,1,135,2|0,2:0|2:0,2:0:0:0:
123,82,60480,2,0,P|164:136|185:220,1,135,2|0,2:0|2:0,2:0:0:0:
123,81,60803,2,0,P|135:148|115:233,1,135,2|0,2:0|2:0,2:0:0:0:
123,82,61125,2,0,P|103:146|47:213,1,135,2|0,2:0|2:0,2:0:0:0:
123,82,61448,2,0,P|76:131|-4:165,1,135,2|0,2:0|2:0,2:0:0:0:
123,82,61770,5,8,0:0:0:0:
248,30,61932,1,0,0:0:0:0:
372,82,62093,2,0,L|474:123,1,90,4|0,0:0|0:0,0:0:0:0:
372,222,62415,1,8,0:0:0:0:
248,276,62577,1,4,0:0:0:0:
125,222,62738,2,0,L|21:182,1,90
123,82,63061,6,0,L|222:121,1,90,12|0,0:0|0:0,0:0:0:0:
334,159,63383,1,8,0:0:0:0:
210,213,63545,1,8,0:0:0:0:
210,213,63625,1,8,0:0:0:0:
210,213,63706,2,0,L|114:255,1,90,8|4,0:0|0:0,0:0:0:0:
56,363,64028,2,0,L|141:327,1,90
266,280,64351,5,8,0:0:0:0:
413,339,64512,1,0,0:0:0:0:
361,215,64674,2,0,L|426:108,1,90,4|0,0:0|0:0,0:0:0:0:
512,53,64996,1,8,0:0:0:0:
359,12,65157,1,4,0:0:0:0:
407,138,65319,2,0,L|345:245,1,90
413,339,65641,6,0,L|306:350,1,90,12|0,0:0|0:0,0:0:0:0:
166,362,65964,1,0,0:0:0:0:
242,277,66125,1,8,0:0:0:0:
257,235,66206,1,8,0:0:0:0:
256,191,66286,2,0,L|189:129,1,90,8|4,0:0|0:0,0:0:0:0:
63,36,66609,2,0,L|25:141,1,90
0,252,66932,5,8,0:0:0:0:
120,355,67093,1,0,0:0:0:0:
87,225,67254,2,0,L|53:139,1,90,4|0,0:0|0:0,0:0:0:0:
0,17,67577,1,8,0:0:0:0:
157,36,67738,1,4,0:0:0:0:
53,141,67899,2,0,L|96:246,1,90
120,355,68222,6,0,L|226:309,1,90,12|0,0:0|0:0,0:0:0:0:
324,258,68545,1,8,0:0:0:0:
188,177,68706,1,8,0:0:0:0:
148,157,68786,1,8,0:0:0:0:
119,123,68867,2,0,L|201:60,1,90,8|4,0:0|0:0,0:0:0:0:
348,57,69190,2,0,L|275:116,1,90
148,157,69512,5,8,0:0:0:0:
278,113,69674,1,0,0:0:0:0:
270,247,69835,2,0,L|357:294,1,90,4|0,0:0|0:0,0:0:0:0:
447,384,70157,1,8,0:0:0:0:
512,240,70319,1,4,0:0:0:0:
447,384,70480,2,0,L|333:350,1,90
206,327,70803,6,0,L|309:280,1,90,12|0,0:0|0:0,0:0:0:0:
421,205,71125,1,4,0:0:0:0:
411,161,71206,1,4,0:0:0:0:
387,123,71286,1,4,0:0:0:0:
352,95,71367,1,4,0:0:0:0:
310,80,71448,1,12,0:0:0:0:
76,187,71690,1,12,0:0:0:0:
310,293,71932,1,12,0:0:0:0:
450,106,72254,6,0,P|409:117|368:156,1,90,8|0,2:0|2:0,2:0:0:0:
246,340,72576,2,0,P|287:329|328:290,1,90,8|0,2:0|2:0,2:0:0:0:
374,148,72899,2,0,P|341:121|285:111,1,90,8|0,2:0|2:0,2:0:0:0:
68,40,73221,2,0,P|102:68|156:76,1,90,8|0,2:0|2:0,2:0:0:0:
295,110,73544,6,0,P|246:113|205:152,1,90,8|0,2:0|2:0,2:0:0:0:
146,376,73866,2,0,P|176:342|181:285,1,90,8|0,2:0|2:0,2:0:0:0:
214,136,74189,2,0,P|236:171|285:199,1,90,8|0,2:0|2:0,2:0:0:0:
381,278,74512,1,8,2:0:0:0:
381,278,74673,1,0,2:0:0:0:
425,161,74834,5,8,2:0:0:0:
505,82,74995,1,0,2:0:0:0:
324,124,75157,1,8,2:0:0:0:
325,12,75318,1,0,2:0:0:0:
188,124,75479,1,8,2:0:0:0:
188,12,75641,1,0,2:0:0:0:
89,161,75802,1,8,2:0:0:0:
9,82,75963,1,0,2:0:0:0:
9,82,76124,5,8,2:0:0:0:
89,161,76286,1,0,2:0:0:0:
188,12,76447,1,8,2:0:0:0:
188,124,76608,1,0,2:0:0:0:
325,12,76770,1,8,2:0:0:0:
324,124,76931,1,0,2:0:0:0:
505,82,77092,1,8,2:0:0:0:
425,161,77254,1,0,2:0:0:0:
405,317,77415,6,0,P|364:306|323:267,1,90,8|0,2:0|2:0,2:0:0:0:
327,63,77737,2,0,P|286:74|245:113,1,90,8|0,2:0|2:0,2:0:0:0:
251,317,78060,2,0,P|210:306|169:267,1,90,8|0,2:0|2:0,2:0:0:0:
172,57,78383,2,0,P|131:68|90:107,1,90,8|0,2:0|2:0,2:0:0:0:
93,302,78705,6,0,P|142:299|183:260,1,90,8|0,2:0|2:0,2:0:0:0:
172,57,79028,2,0,P|221:60|262:99,1,90,8|0,2:0|2:0,2:0:0:0:
251,317,79350,2,0,P|292:306|333:267,1,90,8|0,2:0|2:0,2:0:0:0:
331,141,79673,1,8,2:0:0:0:
331,141,79834,1,0,2:0:0:0:
425,223,79995,5,8,2:0:0:0:
505,302,80157,1,0,2:0:0:0:
324,260,80318,1,8,2:0:0:0:
325,372,80479,1,0,2:0:0:0:
188,260,80641,1,8,2:0:0:0:
188,372,80802,1,0,2:0:0:0:
89,223,80963,1,8,2:0:0:0:
9,302,81124,1,0,2:0:0:0:
9,302,81286,5,8,2:0:0:0:
89,223,81447,1,0,2:0:0:0:
188,372,81608,1,8,2:0:0:0:
188,260,81770,1,0,2:0:0:0:
325,372,81931,1,8,2:0:0:0:
324,260,82092,1,0,2:0:0:0:
505,302,82253,1,8,2:0:0:0:
425,223,82415,6,0,P|449:170|404:59,1,180,2|0,2:0|2:0,2:0:0:0:
282,153,82898,1,0,2:0:0:0:
425,223,83060,2,0,P|449:170|404:59,1,180,2|0,2:0|2:0,2:0:0:0:
214,153,83544,1,0,2:0:0:0:
425,223,83705,2,0,P|449:170|404:59,1,180,2|0,2:0|2:0,2:0:0:0:
146,153,84189,1,0,2:0:0:0:
425,223,84350,2,0,P|449:170|404:59,2,180,2|0|0,2:0|2:0|2:0,2:0:0:0:
77,153,85156,6,0,P|88:194|127:235,1,90,8|0,2:0|2:0,2:0:0:0:
323,356,85478,2,0,P|312:315|273:274,1,90,8|0,2:0|2:0,2:0:0:0:
77,153,85801,2,0,P|118:142|159:103,1,90,8|0,2:0|2:0,2:0:0:0:
352,9,86123,2,0,P|310:17|266:53,1,90,8|0,2:0|2:0,2:0:0:0:
77,153,86446,6,0,P|117:180|173:175,1,90,8|0,2:0|2:0,2:0:0:0:
399,241,86768,2,0,P|365:211|308:206,1,90,8|0,2:0|2:0,2:0:0:0:
77,153,87091,1,8,2:0:0:0:
133,284,87252,1,0,2:0:0:0:
77,153,87414,1,8,2:0:0:0:
133,284,87575,6,0,P|109:231|154:120,1,180,2|0,2:0|2:0,2:0:0:0:
276,214,88059,1,0,2:0:0:0:
133,284,88220,2,0,P|109:231|154:120,1,180,2|0,2:0|2:0,2:0:0:0:
344,214,88704,1,0,2:0:0:0:
133,284,88865,2,0,P|109:231|154:120,1,180,2|0,2:0|2:0,2:0:0:0:
412,214,89349,1,0,2:0:0:0:
133,284,89510,2,0,P|109:231|154:120,1,180,2|0,2:0|2:0,2:0:0:0:
480,214,89994,1,0,2:0:0:0:
133,284,90156,6,0,P|108:232|108:192,1,90,2|0,2:0|2:0,2:0:0:0:
25,92,90478,2,0,P|77:67|117:67,1,90,2|0,2:0|2:0,2:0:0:0:
294,104,90801,1,2,2:0:0:0:
160,204,90962,1,0,2:0:0:0:
356,250,91123,1,2,2:0:0:0:
201,119,91285,1,0,2:0:0:0:
271,327,91446,6,0,P|323:331|358:316,1,90,2|0,2:0|2:0,2:0:0:0:
493,136,91768,2,0,P|440:131|405:146,1,90,2|0,2:0|2:0,2:0:0:0:
271,327,92091,2,0,P|212:325|114:251,1,180,2|0,2:0|2:0,2:0:0:0:
45,99,92575,1,0,2:0:0:0:
256,48,93381,5,2,2:0:0:0:
399,192,93703,1,2,2:0:0:0:
255,335,94026,1,2,2:0:0:0:
112,192,94348,1,2,2:0:0:0:
256,48,94671,5,2,2:0:0:0:
112,192,94993,1,2,2:0:0:0:
257,192,95155,1,2,2:0:0:0:
112,192,95316,1,2,2:0:0:0:
255,335,95639,1,2,2:0:0:0:
399,192,95961,5,2,2:0:0:0:
433,163,96122,1,2,2:0:0:0:
417,47,96284,1,2,2:0:0:0:
386,80,96445,1,2,2:0:0:0:
290,192,96606,1,2,2:0:0:0:
256,48,96768,1,2,2:0:0:0:
212,41,96848,1,2,2:0:0:0:
168,51,96929,1,2,2:0:0:0:
44,103,97090,1,2,2:0:0:0:
112,192,97251,5,2,2:0:0:0:
268,235,97413,1,2,2:0:0:0:
59,263,97574,1,2,2:0:0:0:
247,168,97735,1,2,2:0:0:0:
112,192,97897,2,0,P|145:247|246:313,1,180,2|4,2:0|2:0,2:0:0:0:
399,192,98542,5,2,2:0:0:0:
112,192,98864,1,2,2:0:0:0:
256,48,99187,1,2,2:0:0:0:
255,335,99510,1,2,2:0:0:0:
399,192,99832,5,2,2:0:0:0:
112,192,100155,1,2,2:0:0:0:
257,192,100316,1,2,2:0:0:0:
112,192,100477,1,2,2:0:0:0:
256,48,100800,1,2,2:0:0:0:
255,335,101122,5,2,2:0:0:0:
301,351,101284,1,2,2:0:0:0:
433,326,101445,1,2,2:0:0:0:
392,306,101606,1,2,2:0:0:0:
279,233,101768,1,2,2:0:0:0:
399,192,101929,1,2,2:0:0:0:
380,152,102010,1,2,2:0:0:0:
350,118,102090,1,2,2:0:0:0:
256,48,102251,1,2,2:0:0:0:
256,192,102413,12,4,103380,2:0:0:0:
92,192,103703,5,2,2:0:0:0:
419,192,104026,1,2,2:0:0:0:
255,355,104348,1,2,2:0:0:0:
256,28,104671,1,2,2:0:0:0:
92,192,104993,5,2,2:0:0:0:
419,192,105316,1,2,2:0:0:0:
257,192,105477,1,2,2:0:0:0:
419,192,105639,1,2,2:0:0:0:
255,355,105961,1,2,2:0:0:0:
256,28,106284,5,2,2:0:0:0:
203,39,106445,1,2,2:0:0:0:
57,84,106606,1,2,2:0:0:0:
109,98,106768,1,2,2:0:0:0:
248,173,106929,1,2,2:0:0:0:
92,192,107090,1,2,2:0:0:0:
111,232,107171,1,2,2:0:0:0:
141,266,107251,1,2,2:0:0:0:
255,355,107413,1,2,2:0:0:0:
468,219,107574,5,2,2:0:0:0:
244,200,107735,1,2,2:0:0:0:
436,83,107897,1,2,2:0:0:0:
348,290,108058,1,2,2:0:0:0:
297,71,108219,1,2,2:0:0:0:
495,341,108542,1,4,2:0:0:0:
480,47,108864,5,10,3:0:0:0:
397,271,109026,1,0,3:0:0:0:
384,59,109187,5,10,3:0:0:0:
468,248,109348,1,0,3:0:0:0:
297,64,109510,5,10,3:0:0:0:
262,300,109671,1,0,3:0:0:0:
203,40,109832,5,10,3:0:0:0:
332,233,109993,1,0,3:0:0:0:
131,72,110155,5,8,3:0:0:0:
118,328,110316,1,0,3:0:0:0:
55,103,110477,5,8,3:0:0:0:
219,284,110639,1,0,3:0:0:0:
23,263,110800,5,8,3:0:0:0:
222,148,110961,1,0,3:0:0:0:
118,328,111122,5,8,3:0:0:0:
55,103,111284,1,0,3:0:0:0:
195,39,111445,5,2,3:0:0:0:
238,51,111606,1,2,3:0:0:0:
377,127,111768,1,0,3:0:0:0:
339,151,111848,1,0,3:0:0:0:
295,161,111929,1,0,3:0:0:0:
142,198,112090,5,2,3:0:0:0:
183,216,112251,1,2,3:0:0:0:
323,290,112413,1,0,3:0:0:0:
285,314,112493,1,0,3:0:0:0:
241,324,112574,1,0,3:0:0:0:
88,289,112735,5,2,3:0:0:0:
60,253,112897,1,2,3:0:0:0:
0,99,113058,1,0,3:0:0:0:
35,72,113139,1,0,3:0:0:0:
73,47,113219,1,0,3:0:0:0:
114,30,113300,1,0,3:0:0:0:
159,23,113380,1,0,3:0:0:0:
204,26,113461,1,0,3:0:0:0:
247,38,113542,1,0,3:0:0:0:
286,60,113622,1,0,3:0:0:0:
250,111,113703,1,0,3:0:0:0:
232,171,113784,1,0,3:0:0:0:
239,242,113864,2,0,L|271:283,1,45,0|0,3:0|3:0,3:0:0:0:
371,371,114026,5,8,0:0:0:0:
409,327,114187,1,8,0:0:0:0:
485,205,114348,1,8,0:0:0:0:
491,137,114429,1,8,0:0:0:0:
401,179,114510,1,8,0:0:0:0:
270,239,114671,5,8,0:0:0:0:
217,263,114832,1,8,0:0:0:0:
80,306,114993,1,8,0:0:0:0:
12,297,115074,1,8,0:0:0:0:
86,232,115155,1,8,0:0:0:0:
196,140,115316,5,8,0:0:0:0:
248,127,115477,1,8,0:0:0:0:
389,95,115639,1,8,0:0:0:0:
457,100,115719,1,8,0:0:0:0:
373,161,115800,1,8,0:0:0:0:
244,223,115961,5,8,0:0:0:0:
193,252,116122,1,8,0:0:0:0:
333,267,116284,1,8,0:0:0:0:
331,325,116445,1,8,0:0:0:0:
450,244,116606,5,8,0:0:0:0:
485,124,116768,1,8,0:0:0:0:
345,169,116929,1,8,0:0:0:0:
337,42,117090,1,8,0:0:0:0:
431,165,117251,5,8,1:0:0:0:
256,45,117413,1,8,1:0:0:0:
212,34,117493,1,8,1:0:0:0:
168,41,117574,1,8,1:0:0:0:
58,111,117735,1,8,1:0:0:0:
225,206,117897,5,8,1:0:0:0:
22,305,118058,1,8,1:0:0:0:
157,157,118219,1,8,1:0:0:0:
177,350,118380,1,8,1:0:0:0:
67,213,118542,2,8,P|144:266|231:281,1,180,8|8,1:0|1:0,1:0:0:0:
472,168,119187,5,8,0:0:0:0:
428,130,119348,1,8,0:0:0:0:
310,48,119510,1,8,0:0:0:0:
247,74,119590,1,8,0:0:0:0:
326,134,119671,1,8,0:0:0:0:
416,246,119832,5,8,0:0:0:0:
363,270,119993,1,8,0:0:0:0:
230,326,120155,1,8,0:0:0:0:
167,301,120235,1,8,0:0:0:0:
257,259,120316,1,8,0:0:0:0:
352,151,120477,5,8,0:0:0:0:
308,113,120639,1,8,0:0:0:0:
181,44,120800,1,8,0:0:0:0:
113,47,120880,1,8,0:0:0:0:
195,110,120961,1,8,0:0:0:0:
311,193,121122,5,8,0:0:0:0:
275,239,121284,1,8,0:0:0:0:
308,113,121445,1,8,0:0:0:0:
257,85,121606,1,8,0:0:0:0:
120,61,121768,5,8,0:0:0:0:
42,197,121929,1,8,0:0:0:0:
210,83,122090,1,8,0:0:0:0:
243,231,122251,1,8,0:0:0:0:
99,145,122413,5,8,1:0:0:0:
14,287,122574,1,8,1:0:0:0:
40,323,122655,1,8,1:0:0:0:
78,346,122735,1,8,1:0:0:0:
255,384,122897,1,8,1:0:0:0:
426,324,123058,5,0,3:0:0:0:
454,288,123139,1,0,3:0:0:0:
472,248,123219,1,0,3:0:0:0:
480,203,123300,1,0,3:0:0:0:
478,159,123380,1,0,3:0:0:0:
464,116,123461,1,0,3:0:0:0:
440,78,123542,1,0,3:0:0:0:
408,47,123622,1,0,3:0:0:0:
255,10,123784,5,0,3:0:0:0:
408,47,123945,1,0,3:0:0:0:
385,85,124026,1,0,3:0:0:0:
355,119,124106,1,0,3:0:0:0:
318,145,124187,2,0,L|264:167,1,45,0|0,3:0|3:0,3:0:0:0:
130,214,124348,5,8,0:0:0:0:
187,227,124510,1,8,0:0:0:0:
323,273,124671,1,8,0:0:0:0:
350,336,124751,1,8,0:0:0:0:
252,324,124832,1,8,0:0:0:0:
112,291,124993,5,8,0:0:0:0:
85,239,125155,1,8,0:0:0:0:
60,97,125316,1,8,0:0:0:0:
85,34,125397,1,8,0:0:0:0:
127,124,125477,1,8,0:0:0:0:
236,218,125639,5,8,0:0:0:0:
288,205,125800,1,8,0:0:0:0:
423,152,125961,1,8,0:0:0:0:
452,90,126042,1,8,0:0:0:0:
357,132,126122,1,8,0:0:0:0:
216,157,126284,5,8,0:0:0:0:
172,118,126445,1,8,0:0:0:0:
21,158,126606,1,8,0:0:0:0:
61,116,126768,1,8,0:0:0:0:
133,228,126929,5,8,0:0:0:0:
7,347,127090,1,8,0:0:0:0:
204,285,127251,1,8,0:0:0:0:
4,279,127413,1,8,0:0:0:0:
180,372,127574,5,8,1:0:0:0:
15,199,127735,1,8,1:0:0:0:
4,155,127816,1,8,1:0:0:0:
11,111,127897,1,8,1:0:0:0:
88,22,128058,1,8,1:0:0:0:
223,80,128219,5,8,1:0:0:0:
82,156,128380,1,8,1:0:0:0:
163,40,128542,1,8,1:0:0:0:
249,150,128703,1,8,1:0:0:0:
82,156,128864,2,8,P|159:209|246:224,1,180,8|8,1:0|1:0,1:0:0:0:
490,47,129510,5,8,0:0:0:0:
452,91,129671,1,8,0:0:0:0:
353,195,129832,1,8,0:0:0:0:
313,250,129913,1,8,0:0:0:0:
271,160,129993,1,8,0:0:0:0:
169,59,130155,5,8,0:0:0:0:
140,109,130316,1,8,0:0:0:0:
60,228,130477,1,8,0:0:0:0:
28,287,130558,1,8,0:0:0:0:
123,260,130639,1,8,0:0:0:0:
255,203,130800,5,8,0:0:0:0:
307,190,130961,1,8,0:0:0:0:
448,156,131122,1,8,0:0:0:0:
497,109,131203,1,8,0:0:0:0:
394,112,131284,1,8,0:0:0:0:
251,119,131445,5,8,0:0:0:0:
194,131,131606,1,8,0:0:0:0:
289,236,131768,1,8,0:0:0:0:
287,294,131929,1,8,0:0:0:0:
436,240,132090,5,8,0:0:0:0:
485,124,132251,1,8,0:0:0:0:
345,169,132413,1,8,0:0:0:0:
337,42,132574,1,8,0:0:0:0:
431,165,132735,5,8,1:0:0:0:
256,45,132897,1,8,1:0:0:0:
212,34,132977,1,8,1:0:0:0:
168,41,133058,1,8,1:0:0:0:
58,111,133219,1,8,1:0:0:0:
256,192,133380,12,0,134510,1:0:0:0:
284,256,134671,5,8,0:0:0:0:
336,206,134832,1,8,0:0:0:0:
450,98,134993,1,8,0:0:0:0:
467,23,135074,1,8,0:0:0:0:
381,81,135155,1,8,0:0:0:0:
253,173,135316,5,8,0:0:0:0:
197,218,135477,1,8,0:0:0:0:
82,326,135639,1,8,0:0:0:0:
7,343,135719,1,8,0:0:0:0:
65,257,135800,1,8,0:0:0:0:
150,126,135961,5,8,0:0:0:0:
201,177,136122,1,8,0:0:0:0:
313,289,136284,1,8,0:0:0:0:
390,306,136364,1,8,0:0:0:0:
330,220,136445,1,8,0:0:0:0:
239,93,136606,5,8,0:0:0:0:
186,142,136768,1,8,0:0:0:0:
27,198,136929,1,8,0:0:0:0:
80,247,137090,1,8,0:0:0:0:
250,334,137251,5,8,0:0:0:0:
294,123,137413,1,8,0:0:0:0:
396,292,137574,1,8,0:0:0:0:
194,277,137735,1,8,0:0:0:0:
393,226,137897,5,8,1:0:0:0:
250,334,138058,1,8,1:0:0:0:
199,352,138139,1,8,1:0:0:0:
146,344,138219,1,8,1:0:0:0:
4,233,138380,1,8,1:0:0:0:
145,86,138542,5,8,1:0:0:0:
90,313,138703,1,8,1:0:0:0:
34,132,138864,1,8,1:0:0:0:
240,222,139026,1,8,1:0:0:0:
4,233,139187,2,8,P|131:243|183:286,1,180,8|8,1:0|1:0,1:0:0:0:
446,308,139832,5,8,0:0:0:0:
394,258,139993,1,8,0:0:0:0:
297,134,140155,1,8,0:0:0:0:
314,57,140235,1,8,0:0:0:0:
228,117,140316,1,8,0:0:0:0:
102,209,140477,5,8,0:0:0:0:
167,237,140639,1,8,0:0:0:0:
312,298,140800,1,8,0:0:0:0:
389,315,140880,1,8,0:0:0:0:
329,229,140961,1,8,0:0:0:0:
211,127,141122,5,8,0:0:0:0:
157,175,141284,1,8,0:0:0:0:
44,284,141445,1,8,0:0:0:0:
27,361,141526,1,8,0:0:0:0:
113,301,141606,1,8,0:0:0:0:
244,214,141768,5,8,0:0:0:0:
302,171,141929,1,8,0:0:0:0:
247,30,142090,1,8,0:0:0:0:
300,79,142251,1,8,0:0:0:0:
430,124,142413,5,8,0:0:0:0:
223,124,142574,1,8,0:0:0:0:
384,38,142735,1,8,0:0:0:0:
299,245,142897,1,8,0:0:0:0:
203,38,143058,5,8,1:0:0:0:
430,124,143219,1,8,1:0:0:0:
430,168,143300,1,8,1:0:0:0:
412,209,143380,1,8,1:0:0:0:
302,353,143542,1,8,1:0:0:0:
256,192,143703,12,0,144832,0:0:0:0:
38,143,144993,5,8,0:0:0:0:
88,195,145155,1,8,0:0:0:0:
197,308,145316,1,8,0:0:0:0:
180,383,145397,1,8,0:0:0:0:
266,325,145477,1,8,0:0:0:0:
376,213,145639,5,8,0:0:0:0:
327,160,145800,1,8,0:0:0:0:
222,42,145961,1,8,0:0:0:0:
147,25,146042,1,8,0:0:0:0:
205,111,146122,1,8,0:0:0:0:
288,243,146284,5,8,0:0:0:0:
341,194,146445,1,8,0:0:0:0:
457,86,146606,1,8,0:0:0:0:
474,9,146687,1,8,0:0:0:0:
388,69,146768,1,8,0:0:0:0:
247,137,146929,5,8,0:0:0:0:
184,172,147090,1,8,0:0:0:0:
15,283,147251,1,8,0:0:0:0:
77,246,147413,1,8,0:0:0:0:
171,306,147574,5,8,0:0:0:0:
113,85,147735,1,8,0:0:0:0:
258,274,147897,1,8,0:0:0:0:
31,150,148058,1,8,0:0:0:0:
312,175,148219,5,8,1:0:0:0:
77,246,148380,1,8,1:0:0:0:
128,228,148461,1,8,1:0:0:0:
181,236,148542,1,8,1:0:0:0:
323,300,148703,1,8,1:0:0:0:
486,218,148864,5,8,1:0:0:0:
328,104,149026,1,8,1:0:0:0:
413,283,149187,1,8,1:0:0:0:
440,91,149348,1,8,1:0:0:0:
337,343,149510,2,8,P|210:333|158:290,1,180,8|8,1:0|1:0,1:0:0:0:
9,148,150155,5,8,0:0:0:0:
89,220,150316,1,8,0:0:0:0:
221,342,150477,1,8,0:0:0:0:
308,367,150558,1,8,0:0:0:0:
248,266,150639,1,8,0:0:0:0:
146,118,150800,5,8,0:0:0:0:
252,97,150961,1,8,0:0:0:0:
425,50,151122,1,8,0:0:0:0:
512,25,151203,1,8,0:0:0:0:
452,126,151284,1,8,0:0:0:0:
326,254,151445,5,8,0:0:0:0:
244,184,151606,1,8,0:0:0:0:
97,78,151768,1,8,0:0:0:0:
10,53,151848,1,8,0:0:0:0:
70,154,151929,1,8,0:0:0:0:
190,286,152090,5,8,0:0:0:0:
296,305,152251,1,8,0:0:0:0:
374,142,152413,1,8,0:0:0:0:
372,250,152574,1,8,0:0:0:0:
206,213,152735,5,8,0:0:0:0:
507,127,152897,1,8,0:0:0:0:
315,374,153058,1,8,0:0:0:0:
325,61,153219,1,8,0:0:0:0:
501,320,153380,5,8,0:0:0:0:
206,213,153542,1,8,0:0:0:0:
152,191,153622,1,8,0:0:0:0:
114,147,153703,1,8,0:0:0:0:
10,17,153864,1,8,1:0:0:0:
256,192,154026,12,0,155155,1:0:0:0:
216,41,155316,5,0,0:0:0:0:
155,67,155424,1,0,0:0:0:0:
129,128,155531,1,0,0:0:0:0:
155,189,155639,1,0,0:0:0:0:
216,214,155746,1,0,0:0:0:0:
267,173,155854,1,0,0:0:0:0:
332,188,155961,1,0,0:0:0:0:
360,247,156069,1,0,0:0:0:0:
332,307,156176,1,0,0:0:0:0:
267,321,156284,1,0,0:0:0:0:
216,280,156391,2,0,L|170:233,1,60
69,100,156606,5,8,0:0:0:0:
479,222,157093,5,8,0:0:0:0:
93,343,157581,5,8,0:0:0:0:
