osu file format v14

[General]
AudioFilename: audio.mp3
AudioLeadIn: 0
PreviewTime: 79058
Countdown: 1
SampleSet: Soft
StackLeniency: 0.7
Mode: 0
LetterboxInBreaks: 0
WidescreenStoryboard: 0

[Editor]
Bookmarks: 141085
DistanceSpacing: 0.6
BeatDivisor: 4
GridSize: 32
TimelineZoom: 2.1

[Metadata]
Title:Ao no ichibanhoshi
TitleUnicode:青の一番星
Artist:Shiomi Syuko(CV:Ru Ting)
ArtistUnicode:塩見周子(CV:卢婷)
Creator:Hanazawa Kana
Version:MASTER+
Source:アイドルマスター シンデレラガールズ スターライトステージ
Tags:THE IDOLM@STER CINDERELLA GIRLS STARLIGHT STAGE
BeatmapID:1211625
BeatmapSetID:571730

[Difficulty]
HPDrainRate:6
CircleSize:4
OverallDifficulty:8
ApproachRate:9
SliderMultiplier:2
SliderTickRate:1

[Events]
//Background and Video events
0,0,"BG.JPG",0,0
//Break Periods
//Storyboard Layer 0 (Background)
//Storyboard Layer 1 (Fail)
//Storyboard Layer 2 (Pass)
//Storyboard Layer 3 (Foreground)
//Storyboard Sound Samples

[TimingPoints]
4,405.405405405405,4,2,1,40,1,0
916,-200,4,2,1,40,0,0
14446,-200,4,2,1,5,0,0
14598,-166.666666666667,4,2,1,40,0,0
14953,-166.666666666667,4,2,1,5,0,0
15105,-142.857142857143,4,2,1,40,0,0
15510,-142.857142857143,4,2,1,5,0,0
15662,-125,4,2,1,40,0,0
16068,-125,4,2,1,5,0,0
16220,-111.111111111111,4,2,1,60,0,0
19463,-111.111111111111,4,2,1,70,0,1
35274,-111.111111111111,4,2,1,60,0,0
70341,-111.111111111111,4,2,1,40,0,0
71355,-111.111111111111,4,2,1,60,0,0
71963,-111.111111111111,4,2,1,40,0,0
72976,-111.111111111111,4,2,1,60,0,0
79058,-99.9999999999999,4,2,1,70,0,1
98922,-166.666666666667,4,2,1,70,0,1
102166,-100,4,2,1,70,0,1
103787,-99.9999999999999,4,2,1,60,0,0
108247,-99.9999999999999,4,2,1,70,0,1
121625,-111.111111111111,4,2,1,40,0,0
139463,-111.111111111111,4,2,1,50,0,0
141085,-111.111111111111,4,2,1,60,0,0
149598,-90.9090909090908,4,2,1,60,0,0
150003,-111.111111111111,4,2,1,60,0,0
151220,-90.9090909090909,4,2,1,60,0,0
151625,-111.111111111111,4,2,1,60,0,0
152841,-90.9090909090908,4,2,1,60,0,0
153247,-111.111111111111,4,2,1,60,0,0
165003,-100,4,2,1,70,0,1
174024,-100,4,2,1,5,0,1
174125,-100,4,2,1,70,0,1
184868,-166.666666666667,4,2,1,70,0,1
188112,-100,4,2,1,70,0,1
191355,-166.666666666666,4,2,1,60,0,0
196220,-125,4,2,1,60,0,0
217301,-99.9999999999999,4,2,1,70,0,1
231895,-111.111111111111,4,2,1,60,0,0
236760,-166.666666666666,4,2,1,60,0,0
237976,-111.111111111111,4,2,1,60,0,0
249733,-111.111111111111,4,2,1,70,0,1
264328,-166.666666666666,4,2,1,60,0,0
267571,-111.111111111111,4,2,1,60,0,0
274058,-166.666666666666,4,2,1,60,0,0
275679,-200,4,2,1,60,0,0
277301,-400,4,2,1,60,0,0
280544,-111.111111111111,4,2,1,70,0,1
295949,-111.111111111111,4,2,1,60,0,0

[HitObjects]
138,114,916,6,0,B|176:183|176:183|182:283|129:298|87:288|68:252|64:192|103:152|224:225|224:225|262:237|291:229,1,475,2|0,0:0|0:0,0:0:0:0:
389,133,3095,2,0,B|334:105|296:112|256:152|256:152|229:125|232:100,1,200,2|0,0:0|0:0,0:0:0:0:
405,59,4210,2,0,B|399:84|410:132|410:132|394:186|394:186|412:226|382:272,1,212.5,2|0,0:0|0:0,0:0:0:0:
350,322,5324,2,0,P|436:311|410:218,1,200,2|0,0:0|0:0,0:0:0:0:
262,314,6389,2,0,B|157:340|176:233|59:308,1,200,2|0,0:0|0:0,0:0:0:0:
230,236,7503,5,0,0:0:0:0:
201,155,8010,1,0,0:0:0:0:
116,158,8517,2,0,L|101:164,6,16.6666666666667
390,156,9683,6,0,P|299:153|273:63,1,187.5,2|0,0:0|0:0,0:0:0:0:
461,95,10747,2,0,B|491:159|456:211|456:211|477:246|468:291,1,200,2|0,0:0|0:0,0:0:0:0:
350,335,11862,2,0,P|386:287|293:207,1,200,2|0,0:0|0:0,0:0:0:0:
251,350,12976,5,0,0:0:0:0:
274,280,13230,1,0,0:0:0:0:
242,232,13483,1,0,0:0:0:0:
205,225,13737,1,0,0:0:0:0:
185,242,14041,6,0,P|196:193|169:143,1,100,2|0,0:0|0:0,0:0:0:0:
144,135,14598,2,0,P|211:142|250:116,1,104.999996795654,2|0,0:0|0:0,0:0:0:0:
297,103,15105,2,0,P|233:99|178:43,1,139.999995727539,2|0,0:0|0:0,0:0:0:0:
340,38,15662,2,0,P|320:101|321:201,1,160,2|0,0:0|0:0,0:0:0:0:
451,188,16220,6,0,L|387:190,1,44.999998626709,8|0,0:0|0:0,0:0:0:0:
191,281,16625,1,0,0:0:0:0:
203,317,16726,1,0,0:0:0:0:
230,343,16828,2,0,P|285:356|330:329,1,89.9999972534181
379,298,17132,1,0,0:0:0:0:
402,274,17233,2,0,P|460:264|502:278,1,89.9999972534181
445,347,17639,1,2,0:0:0:0:
274,276,17841,5,8,0:0:0:0:
294,77,18247,1,0,0:0:0:0:
290,113,18348,1,0,0:0:0:0:
269,144,18449,2,0,P|209:151|170:131,1,89.9999972534181
125,70,18753,1,0,0:0:0:0:
105,39,18855,2,0,P|56:27|11:34,1,89.9999972534181
49,110,19260,1,2,0:0:0:0:
226,75,19463,5,8,0:0:0:0:
222,77,19564,1,0,0:0:0:0:
217,76,19666,1,0,0:0:0:0:
212,74,19767,1,0,0:0:0:0:
207,73,19868,1,0,0:0:0:0:
202,71,19970,1,0,0:0:0:0:
198,68,20071,1,0,0:0:0:0:
194,65,20172,1,0,0:0:0:0:
308,27,20274,5,8,0:0:0:0:
308,31,20375,1,0,0:0:0:0:
307,35,20476,1,0,0:0:0:0:
306,39,20578,1,0,0:0:0:0:
304,43,20679,1,0,0:0:0:0:
302,47,20781,1,0,0:0:0:0:
300,51,20882,1,0,0:0:0:0:
298,55,20983,1,0,0:0:0:0:
238,158,21085,5,8,0:0:0:0:
242,159,21186,1,0,0:0:0:0:
246,159,21287,1,0,0:0:0:0:
250,159,21389,1,0,0:0:0:0:
254,158,21490,1,0,0:0:0:0:
258,157,21591,1,0,0:0:0:0:
262,156,21693,1,0,0:0:0:0:
266,154,21794,1,0,0:0:0:0:
372,119,21895,5,8,0:0:0:0:
375,136,21997,1,0,0:0:0:0:
359,190,22098,1,8,0:0:0:0:
366,206,22199,1,0,0:0:0:0:
352,269,22301,1,8,0:0:0:0:
367,277,22402,1,0,0:0:0:0:
402,328,22503,1,8,0:0:0:0:
419,322,22605,1,0,0:0:0:0:
487,348,22706,6,0,P|502:286|494:228,1,89.9999972534181,2|8,0:0|0:0,0:0:0:0:
314,318,23010,2,0,P|371:332|420:321,1,89.9999972534181,2|0,0:0|0:0,0:0:0:0:
236,217,23314,1,8,0:0:0:0:
231,258,23416,1,0,0:0:0:0:
313,320,23517,2,0,P|327:252|318:211,1,89.9999972534181,2|8,0:0|0:0,0:0:0:0:
162,139,23922,2,0,P|146:197|146:241,1,89.9999972534181,2|8,0:0|0:0,0:0:0:0:
53,352,24328,6,0,P|102:336|142:302,1,89.9999972534181,2|8,0:0|0:0,0:0:0:0:
6,208,24632,2,0,P|-6:273|8:307,1,89.9999972534181,2|0,0:0|0:0,0:0:0:0:
101,205,24936,1,8,0:0:0:0:
144,226,25037,1,0,0:0:0:0:
236,217,25139,2,0,P|237:161|218:123,1,89.9999972534181,2|8,0:0|0:0,0:0:0:0:
6,208,25544,2,0,P|-6:273|8:307,1,89.9999972534181,2|8,0:0|0:0,0:0:0:0:
262,315,25949,6,0,P|140:309|122:318,1,134.999995880127,2|2,0:0|0:0,0:0:0:0:
122,328,26355,1,2,0:0:0:0:
333,357,26558,1,8,0:0:0:0:
399,150,26760,2,0,P|387:217|330:273,1,134.999995880127,2|2,0:0|0:0,0:0:0:0:
329,270,27166,1,2,0:0:0:0:
476,202,27368,1,8,0:0:0:0:
322,77,27571,5,2,0:0:0:0:
403,62,27774,1,8,0:0:0:0:
213,78,27976,1,2,0:0:0:0:
269,21,28179,1,8,0:0:0:0:
118,135,28382,2,0,L|158:140,2,29.9999990844727,2|0|0,0:0|0:0|0:0,0:0:0:0:
96,56,28585,1,8,0:0:0:0:
80,224,28787,2,0,L|199:204,1,89.9999972534181,2|8,0:0|0:0,0:0:0:0:
342,158,29193,6,0,P|275:147|230:159,1,89.9999972534181,2|8,0:0|0:0,0:0:0:0:
356,163,29497,6,0,P|288:149|246:152,1,89.9999972534181,2|0,0:0|0:0,0:0:0:0:
227,270,29801,1,8,0:0:0:0:
236,314,29902,1,0,0:0:0:0:
314,362,30003,2,0,P|378:368|417:354,1,89.9999972534181,2|8,0:0|0:0,0:0:0:0:
392,251,30409,2,0,P|335:235|281:251,1,89.9999972534181,2|8,0:0|0:0,0:0:0:0:
138,340,30814,6,0,P|151:287|149:246,1,89.9999972534181,2|8,0:0|0:0,0:0:0:0:
132,351,31118,6,0,P|151:296|149:257,1,89.9999972534181,2|0,0:0|0:0,0:0:0:0:
113,112,31422,1,8,0:0:0:0:
120,159,31524,1,0,0:0:0:0:
208,201,31625,2,0,P|267:201|312:181,1,89.9999972534181,2|8,0:0|0:0,0:0:0:0:
273,39,32031,2,0,P|216:36|154:60,1,89.9999972534181,2|8,0:0|0:0,0:0:0:0:
378,140,32436,5,8,0:0:0:0:
378,140,32537,1,0,0:0:0:0:
378,140,32639,1,0,0:0:0:0:
378,140,32740,1,0,0:0:0:0:
458,104,32841,5,8,0:0:0:0:
459,108,32943,1,0,0:0:0:0:
459,112,33044,1,0,0:0:0:0:
458,116,33145,1,0,0:0:0:0:
432,192,33247,5,8,0:0:0:0:
436,194,33348,1,0,0:0:0:0:
440,194,33449,1,0,0:0:0:0:
444,193,33551,1,0,0:0:0:0:
357,229,33652,5,8,0:0:0:0:
352,230,33753,1,0,0:0:0:0:
347,230,33855,1,0,0:0:0:0:
342,229,33956,1,0,0:0:0:0:
295,190,34058,5,0,0:0:0:0:
310,324,34260,1,0,0:0:0:0:
282,182,34463,5,0,0:0:0:0:
418,124,34666,1,0,0:0:0:0:
317,332,34868,1,0,0:0:0:0:
50,159,35274,5,10,0:0:0:0:
318,96,35679,6,0,P|209:102|177:96,1,134.999995880127,2|2,0:0|0:0,0:0:0:0:
169,94,36085,1,8,0:0:0:0:
90,240,36287,1,0,0:0:0:0:
49,62,36490,2,0,P|42:120|44:165,1,89.9999972534181,0|2,0:0|0:0,0:0:0:0:
182,232,36895,2,0,P|159:183|109:151,1,89.9999972534181,8|0,0:0|0:0,0:0:0:0:
64,325,37301,6,0,B|101:336|141:318|141:318|173:314|173:314|204:335,1,134.999995880127,2|2,0:0|0:0,0:0:0:0:
201,340,37706,1,8,0:0:0:0:
253,163,37909,1,0,0:0:0:0:
357,292,38112,1,0,0:0:0:0:
282,244,38314,2,0,L|251:252,2,29.9999990844727,2|0|0,0:0|0:0|0:0,0:0:0:0:
342,174,38517,2,0,L|227:159,1,89.9999972534181,8|0,0:0|0:0,0:0:0:0:
129,58,38922,6,0,P|239:47|287:51,1,134.999995880127,2|2,0:0|0:0,0:0:0:0:
276,54,39328,1,8,0:0:0:0:
165,220,39531,1,0,0:0:0:0:
43,99,39733,2,0,P|40:39|55:4,1,89.9999972534181,0|2,0:0|0:0,0:0:0:0:
127,140,40139,2,0,P|82:183|21:184,1,89.9999972534181,8|0,0:0|0:0,0:0:0:0:
4,310,40544,6,0,L|115:294,1,89.9999972534181,2|0,0:0|0:0,0:0:0:0:
169,305,40848,1,2,0:0:0:0:
198,318,40949,2,0,P|252:317|285:281,1,89.9999972534181,8|0,0:0|0:0,0:0:0:0:
404,201,41355,2,0,L|341:203,1,44.999998626709
285,221,41558,1,2,0:0:0:0:
456,172,41760,2,0,L|437:279,1,89.9999972534181,8|0,0:0|0:0,0:0:0:0:
268,83,42166,6,0,P|373:65|426:73,1,134.999995880127,2|2,0:0|0:0,0:0:0:0:
417,76,42571,1,8,0:0:0:0:
310,152,42774,1,0,0:0:0:0:
161,99,42976,2,0,P|153:147|150:198,1,89.9999972534181,0|2,0:0|0:0,0:0:0:0:
253,293,43382,1,8,0:0:0:0:
237,168,43585,1,0,0:0:0:0:
178,343,43787,6,0,P|256:323|347:326,1,134.999995880127,2|2,0:0|0:0,0:0:0:0:
325,328,44193,1,8,0:0:0:0:
186,260,44395,1,0,0:0:0:0:
318,102,44598,2,0,P|354:163|327:242,1,134.999995880127,2|2,0:0|0:0,0:0:0:0:
331,250,45003,1,8,0:0:0:0:
415,89,45206,2,0,B|480:87|480:87|451:128,1,89.9999972534181,2|2,0:0|0:0,0:0:0:0:
238,153,45612,6,0,P|220:95|239:37,1,89.9999972534181,8|0,0:0|0:0,0:0:0:0:
301,24,46017,1,8,0:0:0:0:
136,167,46220,2,0,P|73:154|42:121,1,89.9999972534181,8|0,0:0|0:0,0:0:0:0:
72,92,46524,1,0,0:0:0:0:
116,92,46625,2,0,P|111:161|64:252,1,134.999995880127,6|0,0:0|0:0,0:0:0:0:
31,247,47031,6,0,P|123:237|173:247,1,134.999995880127,14|8,0:0|0:0,0:0:0:0:
180,251,47436,1,8,0:0:0:0:
26,163,47639,1,8,0:0:0:0:
123,344,48044,2,0,B|152:330|180:340|180:340|226:326|226:326|272:331,1,134.999995880127,14|0,0:0|0:0,0:0:0:0:
360,272,48449,5,0,0:0:0:0:
375,309,48551,1,0,0:0:0:0:
350,336,48652,2,0,P|358:283|344:189,1,134.999995880127,2|2,0:0|0:0,0:0:0:0:
340,191,49058,1,8,0:0:0:0:
180,251,49260,2,0,P|242:253|284:249,1,89.9999972534181
397,134,49666,1,2,0:0:0:0:
220,54,49868,2,0,P|205:98|219:179,1,89.9999972534181,8|0,0:0|0:0,0:0:0:0:
458,68,50274,6,0,P|353:52|308:61,1,134.999995880127,2|2,0:0|0:0,0:0:0:0:
316,61,50679,1,8,0:0:0:0:
143,180,50882,2,0,P|126:110|129:65,1,89.9999972534181
132,65,51186,1,0,0:0:0:0:
148,39,51287,1,2,0:0:0:0:
35,273,51490,2,0,P|93:260|147:262,1,89.9999972534181,8|0,0:0|0:0,0:0:0:0:
255,337,51895,6,0,P|268:279|269:190,1,134.999995880127,2|2,0:0|0:0,0:0:0:0:
265,188,52301,1,8,0:0:0:0:
123,328,52503,1,0,0:0:0:0:
150,328,52605,1,0,0:0:0:0:
173,315,52706,1,0,0:0:0:0:
191,294,52808,1,0,0:0:0:0:
196,267,52909,1,2,0:0:0:0:
193,240,53010,1,0,0:0:0:0:
179,216,53112,1,8,0:0:0:0:
26,93,53314,1,0,0:0:0:0:
23,118,53416,1,0,0:0:0:0:
33,141,53517,6,0,P|87:162|127:146,1,89.9999972534181,2|0,0:0|0:0,0:0:0:0:
292,59,53922,1,8,0:0:0:0:
244,138,54125,1,0,0:0:0:0:
167,12,54328,1,2,0:0:0:0:
161,96,54531,1,2,0:0:0:0:
360,145,54733,2,0,L|295:137,1,44.999998626709,8|0,0:0|0:0,0:0:0:0:
244,138,54936,1,0,0:0:0:0:
422,211,55139,6,0,P|436:102|428:53,1,134.999995880127,2|2,0:0|0:0,0:0:0:0:
425,65,55544,1,8,0:0:0:0:
292,59,55747,1,0,0:0:0:0:
254,226,55949,2,0,L|362:217,1,89.9999972534181,2|2,0:0|0:0,0:0:0:0:
275,56,56355,5,8,0:0:0:0:
236,230,56558,1,0,0:0:0:0:
422,214,56760,2,0,P|431:152|433:113,1,89.9999972534181,2|0,0:0|0:0,0:0:0:0:
240,246,57166,5,8,0:0:0:0:
424,227,57368,1,2,0:0:0:0:
452,31,57571,2,0,P|381:29|330:36,1,89.9999972534181,2|2,0:0|0:0,0:0:0:0:
205,150,57976,2,0,P|277:154|316:154,1,89.9999972534181,8|0,0:0|0:0,0:0:0:0:
432,141,58382,6,0,P|365:188|443:215,1,179.999994506836,12|0,0:0|0:0,0:0:0:0:
432,141,59193,5,2,0:0:0:0:
361,171,59395,1,2,0:0:0:0:
417,223,59598,1,8,0:0:0:0:
261,318,60003,5,0,0:0:0:0:
239,311,60105,1,0,0:0:0:0:
239,288,60206,1,0,0:0:0:0:
261,281,60308,1,0,0:0:0:0:
274,299,60409,1,8,0:0:0:0:
263,328,60612,5,0,0:0:0:0:
284,298,60713,1,0,0:0:0:0:
263,269,60814,1,0,0:0:0:0:
228,280,60916,1,0,0:0:0:0:
228,316,61018,1,8,0:0:0:0:
267,339,61220,5,0,0:0:0:0:
219,323,61321,1,0,0:0:0:0:
219,274,61422,1,0,0:0:0:0:
267,258,61524,1,0,0:0:0:0:
296,298,61625,5,8,0:0:0:0:
367,352,62031,1,8,0:0:0:0:
448,305,62436,2,0,L|458:205,1,89.9999972534181,8|0,0:0|0:0,0:0:0:0:
363,223,62841,1,0,0:0:0:0:
361,184,62943,1,0,0:0:0:0:
358,145,63044,1,8,0:0:0:0:
209,61,63247,6,0,P|277:43|367:47,1,134.999995880127,2|2,0:0|0:0,0:0:0:0:
361,50,63652,1,2,0:0:0:0:
213,190,63855,1,8,0:0:0:0:
41,170,64058,2,0,P|43:92|60:33,1,134.999995880127,2|2,0:0|0:0,0:0:0:0:
70,25,64463,1,2,0:0:0:0:
140,290,64666,1,8,0:0:0:0:
104,309,64767,1,8,0:0:0:0:
74,283,64868,6,0,P|159:267|239:290,1,134.999995880127,2|2,0:0|0:0,0:0:0:0:
219,287,65274,1,2,0:0:0:0:
280,148,65476,1,8,0:0:0:0:
395,339,65679,2,0,P|424:256|413:189,1,134.999995880127,2|2,0:0|0:0,0:0:0:0:
409,196,66085,1,2,0:0:0:0:
318,54,66287,1,8,0:0:0:0:
336,89,66389,1,8,0:0:0:0:
369,114,66490,6,0,P|445:110|505:74,1,134.999995880127,2|2,0:0|0:0,0:0:0:0:
500,72,66895,1,2,0:0:0:0:
306,194,67098,1,8,0:0:0:0:
142,159,67301,2,0,P|145:92|174:30,1,134.999995880127,2|2,0:0|0:0,0:0:0:0:
189,21,67706,1,2,0:0:0:0:
233,217,67909,1,8,0:0:0:0:
220,245,68010,1,8,0:0:0:0:
193,266,68112,6,0,P|120:269|35:234,1,134.999995880127,2|2,0:0|0:0,0:0:0:0:
50,240,68517,1,2,0:0:0:0:
218,144,68720,1,8,0:0:0:0:
281,309,68922,6,0,L|250:346,7,44.999998626709
315,283,69733,5,12,0:0:0:0:
315,283,69936,1,8,0:0:0:0:
170,87,70341,2,0,P|248:85|287:91,1,89.9999972534181,8|8,0:0|0:0,0:0:0:0:
277,94,70645,1,8,0:0:0:0:
289,108,70747,1,2,0:0:0:0:
93,219,70949,2,0,P|142:211|194:216,1,89.9999972534181,8|0,0:0|0:0,0:0:0:0:
22,111,71355,5,12,0:0:0:0:
22,111,71558,1,8,0:0:0:0:
248,293,71963,2,0,P|260:246|256:189,1,89.9999972534181,8|8,0:0|0:0,0:0:0:0:
251,184,72267,1,8,0:0:0:0:
237,169,72368,1,2,0:0:0:0:
396,212,72571,2,0,P|400:156|390:115,1,89.9999972534181,8|8,0:0|0:0,0:0:0:0:
361,103,72875,1,8,0:0:0:0:
340,68,72976,6,0,P|399:45|459:58,1,89.9999972534181,2|2,0:0|0:0,0:0:0:0:
257,93,73382,2,0,P|148:69|126:50,1,134.999995880127,8|8,0:0|0:0,0:0:0:0:
126,43,73787,1,2,0:0:0:0:
148,221,73990,1,2,0:0:0:0:
330,187,74193,2,0,P|260:173|234:179,1,89.9999972534181,8|0,0:0|0:0,0:0:0:0:
262,316,74598,6,0,P|313:324|360:301,1,89.9999972534181,2|2,0:0|0:0,0:0:0:0:
433,148,75003,2,0,P|422:208|447:305,1,134.999995880127,8|0,0:0|0:0,0:0:0:0:
446,296,75409,1,2,0:0:0:0:
52,254,75814,1,8,0:0:0:0:
404,358,76220,5,12,0:0:0:0:
86,329,76625,1,12,0:0:0:0:
498,208,77031,1,12,0:0:0:0:
56,139,77436,1,12,0:0:0:0:
462,93,77841,5,0,0:0:0:0:
440,121,77943,1,0,0:0:0:0:
404,125,78044,1,0,0:0:0:0:
376,103,78145,1,0,0:0:0:0:
372,67,78247,1,0,0:0:0:0:
394,39,78348,1,0,0:0:0:0:
430,35,78449,1,0,0:0:0:0:
458,57,78551,1,0,0:0:0:0:
417,82,78652,5,0,0:0:0:0:
202,282,79058,6,0,P|200:230|224:190,1,100,14|0,0:0|0:0,0:0:0:0:
384,248,79463,2,0,P|325:260|263:245,1,100,2|8,0:0|0:0,0:0:0:0:
246,99,79868,2,0,P|294:132|312:169,1,100,2|8,0:0|0:0,0:0:0:0:
170,48,80274,2,0,P|215:14|268:12,1,100,2|8,0:0|0:0,0:0:0:0:
223,190,80679,1,2,0:0:0:0:
107,135,80882,1,8,0:0:0:0:
143,302,81085,6,0,B|191:315|262:292|262:292|224:262,1,150,2|8,0:0|0:0,0:0:0:0:
218,265,81490,2,0,B|227:348|227:348|239:317,1,100,2|8,0:0|0:0,0:0:0:0:
301,220,81895,1,2,0:0:0:0:
96,220,82098,2,0,L|168:209,1,50,8|0,0:0|0:0,0:0:0:0:
218,265,82301,1,2,0:0:0:0:
275,105,82503,1,8,0:0:0:0:
387,233,82706,6,0,L|400:116,1,100,2|8,0:0|0:0,0:0:0:0:
334,265,83010,1,2,0:0:0:0:
376,281,83112,2,0,L|371:170,1,100,2|8,0:0|0:0,0:0:0:0:
358,320,83416,1,2,0:0:0:0:
401,331,83518,2,0,L|384:221,1,100,2|8,0:0|0:0,0:0:0:0:
408,368,83821,1,2,0:0:0:0:
452,370,83923,2,0,L|412:265,1,100,2|8,0:0|0:0,0:0:0:0:
253,147,84328,6,0,P|184:143|130:162,1,100,8|2,0:0|0:0,0:0:0:0:
80,265,84632,1,2,0:0:0:0:
157,321,84733,2,0,P|176:263|162:207,1,100,8|2,0:0|0:0,0:0:0:0:
306,260,85037,1,2,0:0:0:0:
273,343,85139,5,8,0:0:0:0:
374,198,85341,1,2,0:0:0:0:
388,325,85544,1,2,0:0:0:0:
309,122,85747,2,0,L|441:116,1,100,10|2,0:0|0:0,0:0:0:0:
181,85,86152,5,8,0:0:0:0:
257,32,86355,2,0,P|325:31|362:39,1,100,2|0,0:0|0:0,0:0:0:0:
210,193,86760,2,0,B|186:160|179:85|179:85|228:106,1,150,2|8,0:0|0:0,0:0:0:0:
228,105,87166,1,2,0:0:0:0:
130,270,87368,2,0,P|112:220|103:149,1,100,8|2,0:0|0:0,0:0:0:0:
309,294,87774,6,0,P|240:307|200:300,1,100,8|2,0:0|0:0,0:0:0:0:
167,290,88078,1,0,0:0:0:0:
130,270,88179,1,8,0:0:0:0:
381,186,88382,1,2,0:0:0:0:
333,362,88585,1,8,0:0:0:0:
249,216,88787,2,0,P|251:148|280:101,1,100,2|8,0:0|0:0,0:0:0:0:
502,291,89193,6,0,L|350:281,1,150,2|8,0:0|0:0,0:0:0:0:
309,294,89598,1,2,0:0:0:0:
476,173,89801,1,8,0:0:0:0:
448,362,90003,1,2,0:0:0:0:
291,194,90206,1,10,0:0:0:0:
495,202,90409,1,10,0:0:0:0:
97,76,90814,6,0,L|123:244,1,150,2|8,0:0|0:0,0:0:0:0:
124,271,91220,1,2,0:0:0:0:
222,85,91422,1,8,0:0:0:0:
24,152,91625,1,0,0:0:0:0:
16,194,91726,1,0,0:0:0:0:
36,235,91828,1,0,0:0:0:0:
40,279,91929,1,0,0:0:0:0:
18,318,92031,5,2,0:0:0:0:
193,332,92233,1,8,0:0:0:0:
276,151,92436,2,0,L|295:284,1,100,2|0,0:0|0:0,0:0:0:0:
480,269,92841,1,2,0:0:0:0:
307,358,93044,1,8,0:0:0:0:
183,125,93247,2,0,L|202:251,1,100,2|8,0:0|0:0,0:0:0:0:
36,235,93652,5,2,0:0:0:0:
237,301,93855,1,8,0:0:0:0:
341,55,94058,2,0,L|355:180,1,100,2|8,0:0|0:0,0:0:0:0:
504,240,94463,1,2,0:0:0:0:
284,366,94666,1,8,0:0:0:0:
138,22,94868,2,0,L|155:158,1,100,2|8,0:0|0:0,0:0:0:0:
161,149,95172,1,0,0:0:0:0:
179,172,95274,1,2,0:0:0:0:
207,180,95375,1,0,0:0:0:0:
236,175,95476,1,8,0:0:0:0:
259,155,95578,1,0,0:0:0:0:
264,125,95679,6,0,L|385:113,1,100,2|8,0:0|0:0,0:0:0:0:
207,180,95983,1,2,0:0:0:0:
235,215,96085,2,0,L|348:207,1,100,2|8,0:0|0:0,0:0:0:0:
154,256,96389,1,2,0:0:0:0:
190,294,96490,2,0,L|319:297,1,100,2|8,0:0|0:0,0:0:0:0:
86,325,96794,1,2,0:0:0:0:
119,369,96895,2,0,L|247:377,1,100,2|8,0:0|0:0,0:0:0:0:
31,120,97301,5,8,0:0:0:0:
38,148,97402,1,0,0:0:0:0:
47,176,97503,1,0,0:0:0:0:
57,204,97605,1,0,0:0:0:0:
85,243,97706,5,8,0:0:0:0:
102,212,97808,1,0,0:0:0:0:
117,180,97909,1,0,0:0:0:0:
132,148,98010,1,0,0:0:0:0:
142,98,98112,5,8,0:0:0:0:
161,132,98213,1,0,0:0:0:0:
177,168,98314,1,0,0:0:0:0:
193,204,98416,1,0,0:0:0:0:
213,238,98517,1,8,0:0:0:0:
241,209,98618,1,0,0:0:0:0:
261,174,98720,1,0,0:0:0:0:
238,79,98922,6,0,L|322:72,1,59.9999981689454,2|0,0:0|0:0,0:0:0:0:
357,181,99328,1,0,0:0:0:0:
261,174,99531,1,0,0:0:0:0:
236,64,99733,2,0,L|309:63,1,59.9999981689454,2|0,0:0|0:0,0:0:0:0:
368,188,100139,1,0,0:0:0:0:
262,183,100341,1,0,0:0:0:0:
228,50,100544,6,0,L|424:45,1,179.999994506836,2|0,0:0|0:0,0:0:0:0:
199,69,101355,6,0,L|394:52,1,179.999994506836,2|0,0:0|0:0,0:0:0:0:
105,57,102166,6,0,P|120:119|150:149,1,100,8|0,0:0|0:0,0:0:0:0:
210,186,102470,1,2,0:0:0:0:
210,186,102571,1,2,0:0:0:0:
423,186,102774,2,0,P|364:184|313:207,1,100,8|0,0:0|0:0,0:0:0:0:
289,270,103078,1,2,0:0:0:0:
289,270,103179,1,2,0:0:0:0:
81,253,103382,2,0,P|154:260|189:286,1,100,8|0,0:0|0:0,0:0:0:0:
227,356,103787,5,10,0:0:0:0:
227,356,105409,5,2,0:0:0:0:
453,176,107031,5,10,0:0:0:0:
70,219,107335,1,10,0:0:0:0:
482,301,107639,1,10,0:0:0:0:
14,314,107841,1,10,0:0:0:0:
313,58,108247,6,0,L|286:190,1,100
255,171,108551,1,0,0:0:0:0:
213,152,108652,2,0,L|238:36,1,100,2|8,0:0|0:0,0:0:0:0:
218,236,108956,2,0,L|191:340,1,100,2|0,0:0|0:0,0:0:0:0:
96,328,109260,1,8,0:0:0:0:
52,319,109362,1,0,0:0:0:0:
22,291,109463,2,0,L|147:295,1,100,2|8,0:0|0:0,0:0:0:0:
43,206,109868,2,0,L|158:209,1,100,2|8,0:0|0:0,0:0:0:0:
213,152,110274,6,0,L|330:152,1,100,2|8,0:0|0:0,0:0:0:0:
127,119,110578,2,0,L|18:117,1,100,2|0,0:0|0:0,0:0:0:0:
194,55,110882,1,8,0:0:0:0:
207,103,110983,1,0,0:0:0:0:
213,152,111085,2,0,L|192:277,1,100,2|8,0:0|0:0,0:0:0:0:
293,193,111490,2,0,L|273:308,1,100,2|8,0:0|0:0,0:0:0:0:
361,304,111895,6,0,L|380:198,1,100,2|2,0:0|0:0,0:0:0:0:
298,106,112199,2,0,L|405:121,1,100,2|0,0:0|0:0,0:0:0:0:
464,183,112503,1,8,0:0:0:0:
293,193,112706,2,0,L|273:308,1,100,2|2,0:0|0:0,0:0:0:0:
93,268,113010,2,0,L|201:289,1,100,2|0,0:0|0:0,0:0:0:0:
233,360,113314,1,8,0:0:0:0:
56,117,113517,6,0,L|73:168,1,50,2|0,0:0|0:0,0:0:0:0:
158,174,113720,2,0,L|137:111,1,50,8|0,0:0|0:0,0:0:0:0:
105,41,113922,2,0,L|180:43,1,50,2|0,0:0|0:0,0:0:0:0:
267,108,114125,2,0,L|209:106,1,50,8|0,0:0|0:0,0:0:0:0:
228,214,114328,2,0,L|252:174,2,33.3333333333333,2|0|0,0:0|0:0|0:0,0:0:0:0:
293,193,114531,1,8,0:0:0:0:
362,343,114733,2,0,L|384:225,1,100,2|8,0:0|0:0,0:0:0:0:
347,60,115139,6,0,L|471:68,1,100,2|8,0:0|0:0,0:0:0:0:
319,34,115443,2,0,L|448:39,1,100,2|0,0:0|0:0,0:0:0:0:
469,215,115746,1,8,0:0:0:0:
477,186,115847,1,0,0:0:0:0:
482,158,115949,2,0,L|365:149,1,100,2|8,0:0|0:0,0:0:0:0:
380,244,116355,2,0,L|271:233,1,100,2|8,0:0|0:0,0:0:0:0:
122,205,116760,6,0,L|144:87,1,100,2|8,0:0|0:0,0:0:0:0:
84,243,117064,2,0,L|107:119,1,100,2|0,0:0|0:0,0:0:0:0:
247,359,117368,1,8,0:0:0:0:
257,321,117470,1,0,0:0:0:0:
267,281,117571,2,0,L|156:287,1,100,2|8,0:0|0:0,0:0:0:0:
100,348,117976,2,0,L|-22:331,1,100,2|8,0:0|0:0,0:0:0:0:
249,129,118382,5,2,0:0:0:0:
380,209,118585,2,0,L|316:213,1,50,8|0,0:0|0:0,0:0:0:0:
248,203,118787,1,2,0:0:0:0:
167,78,118990,1,2,0:0:0:0:
31,165,119193,2,0,L|101:172,1,50,8|0,0:0|0:0,0:0:0:0:
164,166,119395,1,2,0:0:0:0:
456,87,119598,1,0,0:0:0:0:
409,103,119699,1,0,0:0:0:0:
367,83,119801,1,0,0:0:0:0:
322,90,119902,1,0,0:0:0:0:
273,62,120003,5,8,0:0:0:0:
325,308,120409,6,0,L|353:297,21,25,2|0|0|0|0|0|0|0|0|0|0|0|0|0|0|0|0|0|0|0|0|0,0:0|0:0|0:0|0:0|0:0|0:0|0:0|0:0|0:0|0:0|0:0|0:0|0:0|0:0|0:0|0:0|0:0|0:0|0:0|0:0|0:0|0:0,0:0:0:0:
244,332,121625,6,0,L|133:318,1,89.9999972534181,2|0,0:0|0:0,0:0:0:0:
129,330,121929,1,0,0:0:0:0:
129,330,122031,1,0,0:0:0:0:
86,229,122233,1,0,0:0:0:0:
197,184,122436,1,0,0:0:0:0:
43,137,122639,1,0,0:0:0:0:
47,124,122740,1,0,0:0:0:0:
51,113,122841,2,0,L|152:107,1,89.9999972534181
299,20,123247,6,0,L|274:121,1,89.9999972534181
198,51,123652,1,0,0:0:0:0:
277,193,123855,1,0,0:0:0:0:
303,188,123956,1,0,0:0:0:0:
331,185,124058,1,0,0:0:0:0:
197,184,124260,1,0,0:0:0:0:
193,229,124362,1,0,0:0:0:0:
189,276,124463,1,0,0:0:0:0:
329,265,124666,1,0,0:0:0:0:
482,357,124868,6,0,L|501:246,1,89.9999972534181
427,176,125274,2,0,L|409:278,1,89.9999972534181
512,141,125679,1,0,0:0:0:0:
444,88,125882,1,0,0:0:0:0:
361,102,126085,1,0,0:0:0:0:
256,186,126287,1,0,0:0:0:0:
267,201,126389,1,0,0:0:0:0:
283,211,126490,6,0,P|293:135|189:90,1,179.999994506836,2|0,0:0|0:0,0:0:0:0:
44,140,127098,1,0,0:0:0:0:
146,300,127301,2,0,B|185:224|185:224|178:170,2,134.999995880127
10,215,128112,6,0,L|114:209,1,89.9999972534181,2|0,0:0|0:0,0:0:0:0:
95,225,128416,1,0,0:0:0:0:
86,241,128517,1,0,0:0:0:0:
1,301,128720,1,0,0:0:0:0:
101,354,128922,1,0,0:0:0:0:
234,335,129125,1,0,0:0:0:0:
245,321,129226,1,0,0:0:0:0:
257,304,129328,2,0,L|269:211,1,89.9999972534181
468,245,129733,6,0,L|345:255,1,89.9999972534181
364,246,130037,1,0,0:0:0:0:
351,236,130139,1,0,0:0:0:0:
385,119,130341,1,0,0:0:0:0:
512,58,130544,2,0,L|491:169,1,89.9999972534181
485,158,130848,1,0,0:0:0:0:
473,172,130949,1,0,0:0:0:0:
311,114,131152,1,0,0:0:0:0:
340,32,131355,6,0,L|452:36,1,89.9999972534181,2|0,0:0|0:0,0:0:0:0:
254,50,131760,2,0,L|144:43,1,89.9999972534181
120,128,132166,5,0,0:0:0:0:
126,149,132267,1,0,0:0:0:0:
127,171,132368,1,0,0:0:0:0:
122,193,132470,1,0,0:0:0:0:
69,250,132571,5,0,0:0:0:0:
67,272,132672,1,0,0:0:0:0:
69,294,132774,1,0,0:0:0:0:
76,315,132875,1,0,0:0:0:0:
149,356,132976,6,0,P|214:336|301:333,1,134.999995880127,14|8,0:0|0:0,0:0:0:0:
306,337,133382,1,8,0:0:0:0:
160,269,133585,1,8,0:0:0:0:
445,342,133990,2,0,B|461:303|456:278|456:278|470:245|470:245|471:195,1,134.999995880127,14|0,0:0|0:0,0:0:0:0:
434,69,134395,5,0,0:0:0:0:
426,112,134497,1,0,0:0:0:0:
398,146,134598,2,0,L|291:130,1,89.9999972534181,2|0,0:0|0:0,0:0:0:0:
204,39,135003,1,0,0:0:0:0:
151,156,135206,1,0,0:0:0:0:
136,165,135308,1,0,0:0:0:0:
119,172,135409,2,0,L|119:63,1,89.9999972534181
11,55,135814,2,0,L|15:160,1,89.9999972534181
9,293,136220,6,0,P|56:274|118:263,1,89.9999972534181
126,289,136524,1,0,0:0:0:0:
123,327,136625,1,0,0:0:0:0:
6,214,136828,1,0,0:0:0:0:
225,295,137031,2,0,L|240:187,1,89.9999972534181
209,104,137436,1,0,0:0:0:0:
337,174,137639,1,0,0:0:0:0:
334,41,137841,6,0,L|249:32,3,59.9999981689454
373,107,138449,1,0,0:0:0:0:
436,39,138652,2,0,L|418:230,1,179.999994506836
470,336,139260,5,0,0:0:0:0:
375,291,139463,2,0,L|271:278,1,89.9999972534181,2|0,0:0|0:0,0:0:0:0:
247,302,139767,1,8,0:0:0:0:
250,349,139868,1,8,0:0:0:0:
343,199,140071,1,2,0:0:0:0:
146,319,140274,2,0,L|171:137,1,179.999994506836,8|10,0:0|0:0,0:0:0:0:
20,323,141085,5,2,0:0:0:0:
273,176,141287,1,2,0:0:0:0:
84,88,141490,5,2,0:0:0:0:
285,279,141693,1,2,0:0:0:0:
285,46,141895,5,2,0:0:0:0:
81,228,142098,1,2,0:0:0:0:
156,23,142301,5,2,0:0:0:0:
395,158,142503,1,2,0:0:0:0:
154,270,142706,5,2,0:0:0:0:
364,42,142909,1,2,0:0:0:0:
134,150,143112,5,2,0:0:0:0:
431,236,143314,1,2,0:0:0:0:
272,15,143517,5,2,0:0:0:0:
193,308,143720,1,2,0:0:0:0:
63,41,143922,5,2,0:0:0:0:
329,201,144125,1,2,0:0:0:0:
9,307,144328,5,8,0:0:0:0:
414,69,145544,5,10,0:0:0:0:
388,241,145949,5,0,0:0:0:0:
263,185,146152,2,0,L|332:181,1,44.999998626709,2|0,0:0|0:0,0:0:0:0:
382,157,146355,1,8,0:0:0:0:
194,318,146558,1,2,0:0:0:0:
144,177,146760,2,0,L|135:240,1,44.999998626709
114,303,146963,1,2,0:0:0:0:
319,319,147166,1,8,0:0:0:0:
338,181,147368,1,2,0:0:0:0:
106,77,147571,5,2,0:0:0:0:
146,90,147672,1,0,0:0:0:0:
191,67,147774,1,0,0:0:0:0:
234,64,147875,1,2,0:0:0:0:
274,32,147976,1,8,0:0:0:0:
218,158,148179,1,2,0:0:0:0:
272,142,148281,1,0,0:0:0:0:
320,105,148382,1,8,0:0:0:0:
244,247,148585,1,2,0:0:0:0:
314,221,148686,1,0,0:0:0:0:
371,171,148787,1,8,0:0:0:0:
283,328,148990,1,8,0:0:0:0:
363,296,149091,1,8,0:0:0:0:
426,231,149193,6,0,P|451:172|408:101,1,134.999995880127,2|0,0:0|0:0,0:0:0:0:
206,62,149598,2,0,L|275:69,1,55.0000016784668,2|0,0:0|0:0,0:0:0:0:
371,171,149801,2,0,L|296:160,1,55.0000016784668,8|0,0:0|0:0,0:0:0:0:
93,255,150003,6,0,P|189:232|233:237,1,134.999995880127,8|8,0:0|0:0,0:0:0:0:
244,247,150409,1,2,0:0:0:0:
343,344,150612,1,8,0:0:0:0:
389,356,150713,1,8,0:0:0:0:
433,341,150814,6,0,P|449:275|438:205,1,134.999995880127,2|0,0:0|0:0,0:0:0:0:
233,63,151220,2,0,L|247:128,1,55.0000016784668,2|0,0:0|0:0,0:0:0:0:
316,163,151422,2,0,L|305:232,1,55.0000016784668,8|0,0:0|0:0,0:0:0:0:
159,313,151625,2,0,P|235:288|306:295,1,134.999995880127,8|8,0:0|0:0,0:0:0:0:
311,299,152031,1,2,0:0:0:0:
403,359,152233,1,8,0:0:0:0:
451,370,152335,1,8,0:0:0:0:
493,348,152436,6,0,P|510:282|489:190,1,134.999995880127,2|0,0:0|0:0,0:0:0:0:
429,105,152841,2,0,L|446:36,1,55.0000016784668,2|0,0:0|0:0,0:0:0:0:
331,82,153044,2,0,L|321:26,1,55.0000016784668,8|0,0:0|0:0,0:0:0:0:
262,180,153247,2,0,P|354:195|394:175,1,134.999995880127,8|8,0:0|0:0,0:0:0:0:
398,166,153652,1,2,0:0:0:0:
176,88,153855,1,8,0:0:0:0:
145,117,153956,1,8,0:0:0:0:
126,152,154058,6,0,P|129:215|157:287,1,134.999995880127,2|8,0:0|0:0,0:0:0:0:
172,299,154463,1,2,0:0:0:0:
207,172,154666,1,8,0:0:0:0:
247,356,154868,1,0,0:0:0:0:
266,343,154970,1,0,0:0:0:0:
285,332,155071,1,0,0:0:0:0:
305,340,155172,1,0,0:0:0:0:
325,348,155274,1,0,0:0:0:0:
356,348,155375,1,0,0:0:0:0:
379,327,155476,1,0,0:0:0:0:
392,298,155578,1,0,0:0:0:0:
387,252,155679,5,12,0:0:0:0:
469,106,155882,2,0,L|456:216,1,89.9999972534181,8|0,0:0|0:0,0:0:0:0:
369,170,156287,2,0,L|380:59,1,89.9999972534181,8|8,0:0|0:0,0:0:0:0:
369,61,156591,1,8,0:0:0:0:
356,43,156693,1,2,0:0:0:0:
268,94,156895,2,0,L|151:79,1,89.9999972534181,8|0,0:0|0:0,0:0:0:0:
98,39,157301,5,12,0:0:0:0:
99,221,157503,2,0,L|116:122,1,89.9999972534181,8|0,0:0|0:0,0:0:0:0:
200,179,157909,2,0,L|178:291,1,89.9999972534181,8|8,0:0|0:0,0:0:0:0:
176,283,158213,1,8,0:0:0:0:
164,296,158314,1,2,0:0:0:0:
24,305,158517,2,0,L|119:298,1,89.9999972534181,10|8,0:0|0:0,0:0:0:0:
164,296,158821,1,8,0:0:0:0:
196,335,158922,6,0,P|267:334|300:305,1,89.9999972534181,2|2,0:0|0:0,0:0:0:0:
358,217,159328,2,0,P|286:183|240:195,1,89.9999972534181,8|8,0:0|0:0,0:0:0:0:
263,190,159632,1,8,0:0:0:0:
253,201,159733,1,2,0:0:0:0:
384,336,159936,1,2,0:0:0:0:
508,196,160139,2,0,L|393:171,1,89.9999972534181,8|2,0:0|0:0,0:0:0:0:
326,115,160544,6,0,L|448:98,1,89.9999972534181,2|2,0:0|0:0,0:0:0:0:
510,55,160949,2,0,L|397:21,1,89.9999972534181,8|8,0:0|0:0,0:0:0:0:
381,21,161253,1,8,0:0:0:0:
342,27,161355,2,0,L|236:58,1,89.9999972534181,2|0,0:0|0:0,0:0:0:0:
73,52,161760,2,0,L|163:73,1,89.9999972534181,8|0,0:0|0:0,0:0:0:0:
208,231,162166,6,0,L|223:132,1,89.9999972534181,8|0,0:0|0:0,0:0:0:0:
234,263,162571,2,0,L|255:134,1,89.9999972534181,8|0,0:0|0:0,0:0:0:0:
262,296,162976,2,0,L|283:167,1,89.9999972534181,8|0,0:0|0:0,0:0:0:0:
290,327,163382,2,0,L|311:198,1,89.9999972534181,8|0,0:0|0:0,0:0:0:0:
208,231,163787,1,0,0:0:0:0:
230,253,163889,1,0,0:0:0:0:
251,276,163990,1,0,0:0:0:0:
269,301,164091,1,0,0:0:0:0:
291,323,164193,1,0,0:0:0:0:
297,292,164294,1,0,0:0:0:0:
301,260,164395,1,0,0:0:0:0:
306,228,164497,1,0,0:0:0:0:
255,227,164598,5,0,0:0:0:0:
41,169,165003,6,0,L|159:168,1,100,14|0,0:0|0:0,0:0:0:0:
67,72,165409,2,0,L|32:198,1,100,2|8,0:0|0:0,0:0:0:0:
115,264,165814,2,0,L|144:156,1,100,2|8,0:0|0:0,0:0:0:0:
15,270,166220,2,0,L|131:262,1,100,2|8,0:0|0:0,0:0:0:0:
165,86,166625,2,0,L|57:70,1,100,2|8,0:0|0:0,0:0:0:0:
15,270,167031,6,0,B|113:263|113:263|133:202,1,150,2|8,0:0|0:0,0:0:0:0:
150,147,167436,2,0,B|166:87|166:87|125:79,1,100,2|8,0:0|0:0,0:0:0:0:
0,187,167841,1,2,0:0:0:0:
73,160,168044,1,8,0:0:0:0:
15,112,168247,1,2,0:0:0:0:
181,343,168449,5,8,0:0:0:0:
181,343,168551,1,0,0:0:0:0:
181,343,168652,2,0,L|204:230,1,100,2|8,0:0|0:0,0:0:0:0:
258,196,168956,1,2,0:0:0:0:
281,269,169058,2,0,L|318:148,1,100,2|8,0:0|0:0,0:0:0:0:
362,119,169362,1,2,0:0:0:0:
396,186,169463,2,0,L|418:76,1,100,2|8,0:0|0:0,0:0:0:0:
466,36,169767,1,2,0:0:0:0:
512,98,169868,2,0,L|490:-18,1,100,2|8,0:0|0:0,0:0:0:0:
379,279,170274,6,0,P|445:269|481:228,1,100,8|2,0:0|0:0,0:0:0:0:
511,187,170578,1,2,0:0:0:0:
379,279,170679,6,0,P|448:276|484:245,1,100,8|2,0:0|0:0,0:0:0:0:
512,175,170983,1,2,0:0:0:0:
384,290,171085,5,8,0:0:0:0:
507,165,171287,1,8,0:0:0:0:
483,262,171490,1,8,0:0:0:0:
453,98,171693,1,8,0:0:0:0:
453,98,171794,1,0,0:0:0:0:
453,98,171895,5,2,0:0:0:0:
333,197,172098,2,0,L|349:70,1,100,8|2,0:0|0:0,0:0:0:0:
248,62,172503,1,8,0:0:0:0:
100,166,172706,2,0,L|209:147,1,100,2|8,0:0|0:0,0:0:0:0:
232,182,173010,1,8,0:0:0:0:
216,226,173112,1,2,0:0:0:0:
59,81,173314,2,0,L|181:60,1,100,8|2,0:0|0:0,0:0:0:0:
36,304,173720,6,0,P|9:240|9:145,1,150,8|0,0:0|0:0,0:0:0:0:
14,145,174125,1,10,0:0:0:0:
198,148,174328,1,2,0:0:0:0:
264,313,174531,1,8,0:0:0:0:
239,332,174632,1,0,0:0:0:0:
209,341,174733,2,0,P|151:325|111:280,1,100,2|8,0:0|0:0,0:0:0:0:
347,92,175139,6,0,B|337:208|337:208|292:246,1,150,0|8,0:0|0:0,0:0:0:0:
293,234,175544,1,2,0:0:0:0:
432,134,175747,1,8,0:0:0:0:
269,64,175949,1,2,0:0:0:0:
279,244,176152,1,10,0:0:0:0:
285,51,176355,1,10,0:0:0:0:
427,355,176760,6,0,B|459:252|459:252|426:187,1,150,2|8,0:0|0:0,0:0:0:0:
426,201,177166,1,2,0:0:0:0:
511,351,177368,1,8,0:0:0:0:
250,271,177571,1,0,0:0:0:0:
289,261,177672,1,0,0:0:0:0:
328,280,177774,1,0,0:0:0:0:
368,285,177875,1,0,0:0:0:0:
350,326,177976,5,2,0:0:0:0:
144,274,178179,1,8,0:0:0:0:
356,192,178382,2,0,L|227:187,1,100,2|8,0:0|0:0,0:0:0:0:
61,336,178787,5,2,0:0:0:0:
250,271,178990,1,8,0:0:0:0:
72,154,179193,2,0,L|203:147,1,100,2|8,0:0|0:0,0:0:0:0:
426,240,179598,5,2,0:0:0:0:
178,343,179801,1,8,0:0:0:0:
375,107,180003,2,0,L|237:99,1,100,2|8,0:0|0:0,0:0:0:0:
32,237,180409,5,2,0:0:0:0:
272,355,180612,1,8,0:0:0:0:
73,67,180814,2,0,L|194:63,1,100,2|8,0:0|0:0,0:0:0:0:
202,69,181118,1,0,0:0:0:0:
226,86,181220,1,2,0:0:0:0:
238,113,181321,1,0,0:0:0:0:
240,142,181422,1,8,0:0:0:0:
232,171,181524,1,0,0:0:0:0:
214,195,181625,6,0,P|143:198|107:174,1,100,2|8,0:0|0:0,0:0:0:0:
90,141,181929,1,2,0:0:0:0:
119,185,182031,2,0,P|126:264|100:301,1,100,2|8,0:0|0:0,0:0:0:0:
85,312,182335,1,2,0:0:0:0:
117,280,182436,2,0,P|189:273|233:286,1,100,2|8,0:0|0:0,0:0:0:0:
247,319,182740,1,2,0:0:0:0:
216,279,182841,2,0,P|253:226|293:211,1,100,2|8,0:0|0:0,0:0:0:0:
453,310,183247,5,8,0:0:0:0:
425,321,183348,1,0,0:0:0:0:
395,322,183449,1,0,0:0:0:0:
365,314,183551,1,0,0:0:0:0:
335,289,183652,5,8,0:0:0:0:
323,250,183753,1,0,0:0:0:0:
336,212,183855,1,0,0:0:0:0:
364,183,183956,1,0,0:0:0:0:
388,144,184058,5,8,0:0:0:0:
396,100,184159,1,0,0:0:0:0:
378,58,184260,1,0,0:0:0:0:
338,35,184362,1,0,0:0:0:0:
293,34,184463,1,8,0:0:0:0:
251,50,184564,1,0,0:0:0:0:
228,89,184666,1,0,0:0:0:0:
187,193,184868,6,0,L|273:174,1,59.9999981689454,2|0,0:0|0:0,0:0:0:0:
145,119,185274,5,0,0:0:0:0:
89,47,185476,1,0,0:0:0:0:
47,202,185679,2,0,L|125:192,1,59.9999981689454,2|0,0:0|0:0,0:0:0:0:
33,121,186085,5,0,0:0:0:0:
7,35,186287,1,0,0:0:0:0:
3,307,186490,6,0,L|204:276,1,179.999994506836,2|0,0:0|0:0,0:0:0:0:
4,261,187301,6,0,L|210:288,1,179.999994506836,2|0,0:0|0:0,0:0:0:0:
372,189,188112,6,0,L|351:302,1,100,8|0,0:0|0:0,0:0:0:0:
363,319,188416,1,2,0:0:0:0:
363,319,188517,1,2,0:0:0:0:
254,90,188720,2,0,L|263:207,1,100,8|0,0:0|0:0,0:0:0:0:
252,215,189024,1,2,0:0:0:0:
252,215,189125,1,2,0:0:0:0:
441,32,189328,2,0,L|449:152,1,100,8|0,0:0|0:0,0:0:0:0:
458,223,189733,5,10,0:0:0:0:
343,200,191355,6,0,B|289:196|244:223|223:299|242:331|284:354|318:364|318:364|351:315|422:301|422:301|377:278|320:282,1,479.999985351563,2|0,0:0|0:0,0:0:0:0:
131,336,193382,5,0,0:0:0:0:
44,214,193787,2,0,P|106:203|189:206,1,119.999996337891
230,136,194395,1,0,0:0:0:0:
224,112,194497,1,0,0:0:0:0:
215,92,194598,6,0,B|196:39|167:25|167:25|137:57|84:39|84:39|38:59|47:96,1,239.999992675781,2|0,0:0|0:0,0:0:0:0:
204,266,195814,2,0,L|279:240,1,59.9999981689454
397,259,196220,5,2,0:0:0:0:
351,254,196422,1,0,0:0:0:0:
389,177,196625,1,0,0:0:0:0:
320,210,196828,1,0,0:0:0:0:
460,310,197031,5,2,0:0:0:0:
469,260,197233,1,0,0:0:0:0:
411,329,197436,1,0,0:0:0:0:
498,344,197639,1,0,0:0:0:0:
326,354,197841,5,2,0:0:0:0:
335,271,198247,1,0,0:0:0:0:
215,121,198652,1,2,0:0:0:0:
295,85,199058,1,0,0:0:0:0:
130,296,199463,5,2,0:0:0:0:
80,225,199868,1,0,0:0:0:0:
323,150,200274,1,2,0:0:0:0:
286,228,200679,1,0,0:0:0:0:
33,72,201085,6,0,L|281:46,1,240,2|0,0:0|0:0,0:0:0:0:
357,85,201895,1,0,0:0:0:0:
252,256,202301,1,0,0:0:0:0:
76,204,202706,5,0,0:0:0:0:
126,193,202808,1,0,0:0:0:0:
174,186,202909,1,0,0:0:0:0:
157,232,203010,1,0,0:0:0:0:
156,276,203112,1,0,0:0:0:0:
174,315,203213,1,0,0:0:0:0:
208,342,203314,1,0,0:0:0:0:
251,347,203416,1,0,0:0:0:0:
302,341,203517,5,0,0:0:0:0:
340,306,203618,1,0,0:0:0:0:
388,285,203720,1,2,0:0:0:0:
439,293,203821,1,0,0:0:0:0:
482,321,203922,2,0,L|490:172,1,120,8|0,0:0|0:0,0:0:0:0:
480,184,204328,5,2,0:0:0:0:
425,125,204733,1,0,0:0:0:0:
344,125,205139,1,0,0:0:0:0:
280,76,205544,5,0,0:0:0:0:
301,194,205747,1,0,0:0:0:0:
212,113,205949,1,2,0:0:0:0:
180,186,206355,5,0,0:0:0:0:
145,70,206558,1,2,0:0:0:0:
101,181,206760,1,2,0:0:0:0:
60,67,206963,1,0,0:0:0:0:
20,180,207166,2,0,L|29:290,1,80
57,330,207571,5,2,0:0:0:0:
325,296,207976,2,0,L|353:131,1,160
145,70,208787,2,0,L|150:177,1,80,0|2,0:0|0:0,0:0:0:0:
162,226,209193,5,2,0:0:0:0:
242,217,209395,1,0,0:0:0:0:
227,135,209598,1,0,0:0:0:0:
127,370,210003,2,0,L|316:354,1,160,8|0,0:0|0:0,0:0:0:0:
442,139,210814,5,2,0:0:0:0:
448,216,211017,1,2,0:0:0:0:
442,139,211220,1,8,0:0:0:0:
456,175,211321,1,0,0:0:0:0:
448,216,211422,1,0,0:0:0:0:
309,132,211625,5,2,0:0:0:0:
322,245,211828,1,2,0:0:0:0:
309,132,212031,1,8,0:0:0:0:
338,184,212132,1,0,0:0:0:0:
322,245,212233,1,0,0:0:0:0:
177,118,212436,5,2,0:0:0:0:
193,278,212639,1,2,0:0:0:0:
177,118,212841,1,8,0:0:0:0:
228,184,212943,1,0,0:0:0:0:
193,278,213044,1,0,0:0:0:0:
39,95,213247,5,2,0:0:0:0:
53,308,213449,1,2,0:0:0:0:
39,95,213652,1,8,0:0:0:0:
105,178,213753,1,0,0:0:0:0:
53,308,213855,1,0,0:0:0:0:
167,45,214058,6,0,L|276:38,1,80,8|0,0:0|0:0,0:0:0:0:
297,111,214463,2,0,L|393:101,1,80,8|0,0:0|0:0,0:0:0:0:
487,201,214868,2,0,L|476:96,1,80,8|0,0:0|0:0,0:0:0:0:
411,290,215274,2,0,L|402:184,1,80,8|0,0:0|0:0,0:0:0:0:
498,343,215679,1,8,0:0:0:0:
271,328,216490,5,8,0:0:0:0:
246,314,216591,1,0,0:0:0:0:
218,308,216693,1,0,0:0:0:0:
190,310,216794,1,0,0:0:0:0:
149,339,216895,5,8,0:0:0:0:
121,346,216997,1,0,0:0:0:0:
93,349,217098,1,0,0:0:0:0:
65,345,217199,1,0,0:0:0:0:
24,320,217301,6,0,P|27:254|50:205,1,100,2|8,0:0|0:0,0:0:0:0:
32,252,217706,2,0,P|38:194|20:127,1,100,2|8,0:0|0:0,0:0:0:0:
37,185,218112,2,0,P|46:124|69:89,1,100,2|8,0:0|0:0,0:0:0:0:
4,36,218517,1,2,0:0:0:0:
122,159,218720,1,8,0:0:0:0:
153,34,218922,2,0,L|271:40,1,100,2|8,0:0|0:0,0:0:0:0:
122,258,219328,5,2,0:0:0:0:
280,168,219531,1,8,0:0:0:0:
188,110,219733,1,2,0:0:0:0:
297,257,219936,1,8,0:0:0:0:
350,112,220139,2,0,L|462:116,1,100,2|8,0:0|0:0,0:0:0:0:
468,288,220544,6,0,L|497:178,2,100,2|8|2,0:0|0:0|0:0,0:0:0:0:
273,338,221152,1,8,0:0:0:0:
383,191,221355,2,0,L|373:308,1,100,2|8,0:0|0:0,0:0:0:0:
209,251,221760,2,0,L|220:148,1,100,2|8,0:0|0:0,0:0:0:0:
315,132,222166,1,2,0:0:0:0:
194,341,222368,5,8,0:0:0:0:
54,257,222571,1,2,0:0:0:0:
75,341,222774,5,8,0:0:0:0:
127,158,222976,1,2,0:0:0:0:
134,246,223179,5,8,0:0:0:0:
220,86,223382,1,2,0:0:0:0:
218,186,223585,6,0,L|345:167,1,100,8|2,0:0|0:0,0:0:0:0:
358,78,223990,1,8,0:0:0:0:
480,227,224193,2,0,L|494:125,1,100,2|8,0:0|0:0,0:0:0:0:
394,155,224598,2,0,L|400:307,1,150,2|8,0:0|0:0,0:0:0:0:
398,321,225003,1,2,0:0:0:0:
203,247,225206,2,0,L|308:235,1,100,8|2,0:0|0:0,0:0:0:0:
100,337,225612,6,0,P|102:257|116:204,1,100,8|2,0:0|0:0,0:0:0:0:
194,338,226017,1,8,0:0:0:0:
27,274,226220,2,0,L|27:165,1,100,2|8,0:0|0:0,0:0:0:0:
113,162,226625,2,0,L|110:54,1,100,2|8,0:0|0:0,0:0:0:0:
19,90,227031,6,0,P|85:118|130:110,1,100,2|8,0:0|0:0,0:0:0:0:
246,30,227436,2,0,P|222:87|177:110,1,100,2|8,0:0|0:0,0:0:0:0:
0,180,227841,2,0,P|66:203|116:203,1,100,2|8,0:0|0:0,0:0:0:0:
314,94,228247,2,0,P|260:163|232:173,1,100,2|8,0:0|0:0,0:0:0:0:
171,248,228652,5,2,0:0:0:0:
215,235,228855,1,8,0:0:0:0:
171,248,229058,1,2,0:0:0:0:
257,255,229260,1,8,0:0:0:0:
171,248,229463,1,2,0:0:0:0:
281,296,229666,1,8,0:0:0:0:
171,248,229868,1,2,0:0:0:0:
282,345,230071,1,8,0:0:0:0:
107,164,230274,5,2,0:0:0:0:
42,342,230476,1,8,0:0:0:0:
107,164,230679,1,2,0:0:0:0:
13,290,230882,1,8,0:0:0:0:
107,164,231085,1,2,0:0:0:0:
13,230,231287,1,8,0:0:0:0:
107,164,231490,1,2,0:0:0:0:
50,183,231693,1,8,0:0:0:0:
137,244,231895,6,0,L|241:238,1,89.9999972534181,2|0,0:0|0:0,0:0:0:0:
137,244,232503,6,0,L|241:238,1,89.9999972534181,2|0,0:0|0:0,0:0:0:0:
137,244,233112,6,0,L|241:238,1,89.9999972534181,2|0,0:0|0:0,0:0:0:0:
475,146,233922,5,0,0:0:0:0:
476,195,234024,1,0,0:0:0:0:
455,240,234125,1,0,0:0:0:0:
413,256,234226,1,0,0:0:0:0:
368,248,234328,5,0,0:0:0:0:
337,221,234429,1,0,0:0:0:0:
336,180,234531,1,0,0:0:0:0:
358,152,234632,1,0,0:0:0:0:
393,156,234733,5,0,0:0:0:0:
398,187,234835,1,0,0:0:0:0:
385,215,234936,1,0,0:0:0:0:
359,222,235037,1,0,0:0:0:0:
337,221,235139,5,2,0:0:0:0:
260,179,235949,1,0,0:0:0:0:
258,98,236760,6,0,L|447:80,1,179.999994506836
453,92,237571,1,0,0:0:0:0:
134,184,237976,5,10,0:0:0:0:
357,199,238382,5,8,0:0:0:0:
271,189,238585,5,0,0:0:0:0:
309,190,238686,1,0,0:0:0:0:
346,191,238787,1,8,0:0:0:0:
287,211,238990,5,0,0:0:0:0:
325,212,239091,1,0,0:0:0:0:
362,213,239192,1,8,0:0:0:0:
252,172,239395,5,0,0:0:0:0:
290,173,239496,1,0,0:0:0:0:
327,174,239597,1,8,0:0:0:0:
281,228,239801,5,0,0:0:0:0:
319,229,239902,1,0,0:0:0:0:
356,230,240003,1,8,0:0:0:0:
245,156,240206,5,0,0:0:0:0:
283,157,240307,1,0,0:0:0:0:
320,158,240408,1,8,0:0:0:0:
287,247,240612,5,0,0:0:0:0:
325,248,240713,1,0,0:0:0:0:
362,249,240814,1,8,0:0:0:0:
232,134,241018,5,0,0:0:0:0:
270,135,241119,1,0,0:0:0:0:
307,136,241220,1,8,0:0:0:0:
0,224,241625,5,2,0:0:0:0:
18,264,241726,1,0,0:0:0:0:
67,276,241828,1,0,0:0:0:0:
96,242,241929,1,0,0:0:0:0:
67,276,242031,1,0,0:0:0:0:
84,317,242132,1,0,0:0:0:0:
122,340,242233,1,0,0:0:0:0:
164,323,242335,1,0,0:0:0:0:
172,278,242436,1,0,0:0:0:0:
151,141,242841,1,2,0:0:0:0:
311,75,243247,5,2,0:0:0:0:
318,123,243348,1,0,0:0:0:0:
299,168,243449,1,0,0:0:0:0:
261,200,243551,1,0,0:0:0:0:
206,202,243652,1,0,0:0:0:0:
261,200,243753,1,0,0:0:0:0:
309,212,243855,1,0,0:0:0:0:
352,234,243956,1,0,0:0:0:0:
388,267,244058,1,0,0:0:0:0:
237,351,244463,6,0,L|345:333,1,89.9999972534181,2|0,0:0|0:0,0:0:0:0:
404,350,244868,1,2,0:0:0:0:
470,179,245274,2,0,L|471:294,1,89.9999972534181,2|0,0:0|0:0,0:0:0:0:
498,342,245679,1,2,0:0:0:0:
293,138,246085,2,0,L|409:128,1,89.9999972534181,2|0,0:0|0:0,0:0:0:0:
441,64,246490,2,0,B|517:87|517:87|471:117,2,134.999995880127,2|0|0,0:0|0:0|0:0,0:0:0:0:
360,56,247301,1,2,0:0:0:0:
200,178,247909,5,2,0:0:0:0:
84,81,248112,2,0,L|210:83,1,89.9999972534181,2|0,0:0|0:0,0:0:0:0:
251,102,248517,1,2,0:0:0:0:
48,270,248922,2,0,L|42:154,1,89.9999972534181,2|0,0:0|0:0,0:0:0:0:
13,105,249328,1,2,0:0:0:0:
212,286,249733,6,0,P|186:339|130:364,1,89.9999972534181,8|2,0:0|0:0,0:0:0:0:
80,349,250037,1,2,0:0:0:0:
48,270,250139,2,0,P|81:215|126:208,1,89.9999972534181,8|2,0:0|0:0,0:0:0:0:
174,218,250443,1,2,0:0:0:0:
212,286,250544,5,8,0:0:0:0:
257,156,250747,1,8,0:0:0:0:
129,135,250949,1,8,0:0:0:0:
320,257,251152,2,0,L|332:139,1,89.9999972534181,10|2,0:0|0:0,0:0:0:0:
474,145,251558,5,8,0:0:0:0:
482,258,251760,2,0,P|436:281|375:269,1,89.9999972534181,2|8,0:0|0:0,0:0:0:0:
329,167,252166,2,0,P|387:129|458:134,1,134.999995880127,2|8,0:0|0:0,0:0:0:0:
474,145,252571,1,2,0:0:0:0:
350,336,252774,2,0,P|320:289|324:239,1,89.9999972534181,8|2,0:0|0:0,0:0:0:0:
488,258,253179,6,0,P|482:324|464:362,1,89.9999972534181,8|2,0:0|0:0,0:0:0:0:
458,357,253483,1,0,0:0:0:0:
438,366,253585,1,8,0:0:0:0:
329,167,253787,1,2,0:0:0:0:
406,276,253990,1,8,0:0:0:0:
224,298,254193,2,0,L|238:170,1,89.9999972534181,2|8,0:0|0:0,0:0:0:0:
214,67,254598,6,0,L|49:86,1,134.999995880127,2|8,0:0|0:0,0:0:0:0:
58,94,255003,1,2,0:0:0:0:
199,144,255206,1,8,0:0:0:0:
77,12,255409,1,2,0:0:0:0:
30,183,255612,1,10,0:0:0:0:
210,147,255814,1,10,0:0:0:0:
171,352,256220,6,0,L|129:207,1,134.999995880127,2|8,0:0|0:0,0:0:0:0:
129,201,256625,1,2,0:0:0:0:
90,358,256828,1,8,0:0:0:0:
267,187,257031,1,0,0:0:0:0:
272,225,257132,1,0,0:0:0:0:
250,268,257233,1,0,0:0:0:0:
264,307,257335,1,0,0:0:0:0:
253,349,257436,5,2,0:0:0:0:
195,176,257639,1,8,0:0:0:0:
347,287,257841,2,0,L|367:191,1,89.9999972534181,2|8,0:0|0:0,0:0:0:0:
418,310,258247,5,2,0:0:0:0:
333,135,258449,1,8,0:0:0:0:
154,287,258652,2,0,L|131:172,1,89.9999972534181,2|8,0:0|0:0,0:0:0:0:
93,350,259058,5,2,0:0:0:0:
214,151,259260,1,8,0:0:0:0:
433,240,259463,2,0,L|454:143,1,89.9999972534181,2|8,0:0|0:0,0:0:0:0:
495,309,259868,1,2,0:0:0:0:
333,135,260071,1,8,0:0:0:0:
67,250,260274,2,0,L|42:138,1,89.9999972534181,2|8,0:0|0:0,0:0:0:0:
47,134,260578,1,0,0:0:0:0:
59,110,260679,1,2,0:0:0:0:
81,94,260781,1,0,0:0:0:0:
107,91,260882,1,8,0:0:0:0:
130,103,260983,1,0,0:0:0:0:
149,121,261085,6,0,L|134:223,1,89.9999972534181,2|8,0:0|0:0,0:0:0:0:
164,283,261389,1,2,0:0:0:0:
212,221,261490,2,0,L|228:124,1,89.9999972534181,2|10,0:0|0:0,0:0:0:0:
267,67,261794,1,2,0:0:0:0:
303,136,261895,2,0,L|287:243,1,89.9999972534181,2|8,0:0|0:0,0:0:0:0:
327,296,262199,1,2,0:0:0:0:
366,228,262301,2,0,L|383:126,1,89.9999972534181,2|8,0:0|0:0,0:0:0:0:
501,44,262706,5,8,0:0:0:0:
512,83,262808,1,0,0:0:0:0:
506,122,262909,1,0,0:0:0:0:
489,158,263010,1,0,0:0:0:0:
461,187,263112,1,8,0:0:0:0:
444,223,263213,1,0,0:0:0:0:
444,263,263314,1,0,0:0:0:0:
461,299,263416,1,0,0:0:0:0:
485,331,263517,1,8,0:0:0:0:
507,297,263618,5,0,0:0:0:0:
461,299,263720,1,0,0:0:0:0:
421,308,263821,1,0,0:0:0:0:
384,325,263922,1,8,0:0:0:0:
345,339,264024,1,0,0:0:0:0:
304,339,264125,1,0,0:0:0:0:
218,242,264328,6,0,L|302:247,1,59.9999981689454,2|0,0:0|0:0,0:0:0:0:
184,332,264733,5,0,0:0:0:0:
99,300,264936,1,0,0:0:0:0:
104,188,265139,2,0,L|182:186,1,59.9999981689454,2|0,0:0|0:0,0:0:0:0:
38,363,265544,5,0,0:0:0:0:
4,279,265747,1,0,0:0:0:0:
32,116,265949,6,0,L|239:106,1,179.999994506836,2|0,0:0|0:0,0:0:0:0:
3,105,266760,6,0,L|211:101,1,179.999994506836,2|0,0:0|0:0,0:0:0:0:
339,157,267571,6,0,L|323:48,1,89.9999972534181,8|0,0:0|0:0,0:0:0:0:
305,58,267875,1,2,0:0:0:0:
293,83,267976,1,2,0:0:0:0:
334,255,268179,2,0,L|445:253,1,89.9999972534181,8|0,0:0|0:0,0:0:0:0:
418,235,268483,1,2,0:0:0:0:
398,215,268585,1,2,0:0:0:0:
206,206,268787,2,0,L|219:307,1,89.9999972534181,8|0,0:0|0:0,0:0:0:0:
250,365,269193,1,10,0:0:0:0:
166,320,270814,5,2,0:0:0:0:
116,259,271625,1,2,0:0:0:0:
112,181,272436,1,2,0:0:0:0:
135,106,273247,1,2,0:0:0:0:
202,58,274058,6,0,B|281:45|379:47|379:47|325:74|326:110,1,239.999992675781,2|0,0:0|0:0,0:0:0:0:
333,278,275476,1,0,0:0:0:0:
407,280,275679,6,0,L|407:114,1,150,2|0,0:0|0:0,0:0:0:0:
427,308,276490,6,0,L|413:147,1,150,2|0,0:0|0:0,0:0:0:0:
438,344,277199,1,0,0:0:0:0:
452,327,277301,6,0,B|427:171,1,150,2|0,0:0|0:0,0:0:0:0:
362,288,278922,1,0,0:0:0:0:
123,267,280544,5,2,0:0:0:0:
302,327,280747,1,2,0:0:0:0:
60,318,280949,5,2,0:0:0:0:
309,227,281152,1,2,0:0:0:0:
73,183,281355,5,2,0:0:0:0:
383,281,281558,1,2,0:0:0:0:
31,299,281760,5,2,0:0:0:0:
338,176,281963,1,2,0:0:0:0:
31,171,282166,6,0,L|161:163,1,89.9999972534181,8|0,0:0|0:0,0:0:0:0:
269,252,282470,2,0,L|158:258,1,89.9999972534181,8|0,0:0|0:0,0:0:0:0:
94,247,282774,2,0,L|122:327,1,44.999998626709,8|0,0:0|0:0,0:0:0:0:
199,180,282976,2,0,L|197:74,1,89.9999972534181,8|0,0:0|0:0,0:0:0:0:
325,58,283382,6,0,L|317:168,1,89.9999972534181
353,221,283787,2,0,L|351:336,1,89.9999972534181,2|8,0:0|0:0,0:0:0:0:
394,153,284091,2,0,L|404:39,1,89.9999972534181,2|0,0:0|0:0,0:0:0:0:
491,308,284395,1,8,0:0:0:0:
502,271,284497,1,0,0:0:0:0:
512,234,284598,2,0,L|414:230,1,89.9999972534181,2|8,0:0|0:0,0:0:0:0:
351,310,285003,2,0,L|229:302,1,89.9999972534181,2|8,0:0|0:0,0:0:0:0:
184,265,285409,6,0,L|71:265,1,89.9999972534181,2|8,0:0|0:0,0:0:0:0:
257,225,285713,2,0,L|363:233,1,89.9999972534181,2|0,0:0|0:0,0:0:0:0:
147,138,286017,1,8,0:0:0:0:
118,154,286118,1,0,0:0:0:0:
89,175,286220,2,0,L|95:290,1,89.9999972534181,2|8,0:0|0:0,0:0:0:0:
184,265,286625,2,0,L|171:370,1,89.9999972534181,2|8,0:0|0:0,0:0:0:0:
11,349,287031,6,0,L|108:345,1,89.9999972534181,2|2,0:0|0:0,0:0:0:0:
266,223,287335,2,0,L|256:330,1,89.9999972534181,2|0,0:0|0:0,0:0:0:0:
93,264,287639,1,8,0:0:0:0:
214,142,287841,2,0,L|333:143,1,89.9999972534181,2|2,0:0|0:0,0:0:0:0:
425,326,288145,2,0,L|433:217,1,89.9999972534181,2|0,0:0|0:0,0:0:0:0:
266,223,288449,1,8,0:0:0:0:
420,149,288652,6,0,L|437:94,1,44.999998626709,2|0,0:0|0:0,0:0:0:0:
351,25,288855,2,0,L|360:78,1,44.999998626709,8|0,0:0|0:0,0:0:0:0:
488,39,289058,2,0,L|432:30,1,44.999998626709,2|0,0:0|0:0,0:0:0:0:
503,164,289260,2,0,L|513:103,1,44.999998626709,8|0,0:0|0:0,0:0:0:0:
338,211,289463,2,0,L|384:208,2,29.9999990844727,2|0|0,0:0|0:0|0:0,0:0:0:0:
344,165,289666,1,8,0:0:0:0:
319,294,289868,2,0,L|433:281,1,89.9999972534181,2|8,0:0|0:0,0:0:0:0:
231,359,290274,6,0,L|223:250,1,89.9999972534181,2|8,0:0|0:0,0:0:0:0:
189,357,290578,2,0,L|185:252,1,89.9999972534181,2|0,0:0|0:0,0:0:0:0:
89,171,290882,1,8,0:0:0:0:
97,135,290983,1,0,0:0:0:0:
108,105,291085,2,0,L|206:105,1,89.9999972534181,2|8,0:0|0:0,0:0:0:0:
272,182,291490,2,0,L|381:173,1,89.9999972534181,2|8,0:0|0:0,0:0:0:0:
458,82,291895,6,0,L|453:183,1,89.9999972534181,2|8,0:0|0:0,0:0:0:0:
503,98,292199,2,0,L|496:210,1,89.9999972534181,2|0,0:0|0:0,0:0:0:0:
391,344,292503,1,8,0:0:0:0:
352,342,292605,1,0,0:0:0:0:
309,338,292706,2,0,L|317:237,1,89.9999972534181,2|8,0:0|0:0,0:0:0:0:
361,174,293112,2,0,L|352:66,1,89.9999972534181,2|8,0:0|0:0,0:0:0:0:
223,96,293517,5,8,0:0:0:0:
223,96,293618,1,0,0:0:0:0:
223,96,293720,1,0,0:0:0:0:
223,96,293821,1,0,0:0:0:0:
199,176,293922,5,8,0:0:0:0:
199,176,294024,1,0,0:0:0:0:
199,176,294125,1,0,0:0:0:0:
199,176,294226,1,0,0:0:0:0:
173,252,294328,5,8,0:0:0:0:
173,252,294429,1,0,0:0:0:0:
173,252,294531,1,0,0:0:0:0:
173,252,294632,1,0,0:0:0:0:
143,326,294733,5,8,0:0:0:0:
143,326,294835,1,0,0:0:0:0:
143,326,294936,1,0,0:0:0:0:
143,326,295037,1,0,0:0:0:0:
212,359,295139,5,0,0:0:0:0:
71,257,295341,1,0,0:0:0:0:
224,354,295544,5,0,0:0:0:0:
67,241,295747,1,0,0:0:0:0:
267,259,295949,1,0,0:0:0:0:
20,350,296760,5,10,0:0:0:0:
256,192,296963,12,0,300713,0:0:0:0:
304,225,302233,5,14,0:0:0:0:
