osu file format v14

[General]
AudioFilename: audio.mp3
AudioLeadIn: 0
PreviewTime: 62407
Countdown: 0
SampleSet: Soft
StackLeniency: 0.7
Mode: 3
LetterboxInBreaks: 0
SpecialStyle: 0
WidescreenStoryboard: 0

[Editor]
DistanceSpacing: 1.2
BeatDivisor: 4
GridSize: 32
TimelineZoom: 2.400001

[Metadata]
Title:Ao no Ichiban Boshi
TitleUnicode:青の一番星
Artist:Shiomi Syuko (CV: Ru Thing)
ArtistUnicode:塩見周子 (CV: ルゥ·ティン)
Creator:Curisu
Version:Yozora
Source:アイドルマスターシンデレラガールズ
Tags:IOSYS ARM 夕野ヨシミ Yuuno Yoshimi
BeatmapID:1414291
BeatmapSetID:668521

[Difficulty]
HPDrainRate:8
CircleSize:5
OverallDifficulty:9
ApproachRate:5
SliderMultiplier:1.4
SliderTickRate:1

[Events]
//Background and Video events
0,0,"bg.jpg",0,0
//Break Periods
//Storyboard Layer 0 (Background)
//Storyboard Layer 1 (Fail)
//Storyboard Layer 2 (Pass)
//Storyboard Layer 3 (Foreground)
//Storyboard Sound Samples
Sample,10920,0,"Kick.wav",70
Sample,11731,0,"Kick.wav",70
Sample,12136,0,"Kick.wav",70
Sample,12339,0,"Snare.wav",70
Sample,12440,0,"Snare.wav",70

[TimingPoints]
1191,405.405405405405,4,2,0,5,1,0
18623,-160,4,2,0,5,0,0
18826,-80,4,2,0,5,0,0
18927,-66.6666666666667,4,2,0,5,0,0
19028,-100,4,2,0,5,0,0
31393,-66.6666666666667,4,2,0,5,0,0
31493,-200,4,2,0,5,0,0
31596,-133.333333333333,4,2,0,5,0,0
31697,-80,4,2,0,5,0,0
31799,-100,4,2,0,5,0,0
42947,-66.6666666666667,4,2,0,5,0,0
43150,-200,4,2,0,5,0,0
43353,-100,4,2,0,5,0,0
53082,-66.6666666666667,4,2,0,5,0,0
53184,-200,4,2,0,5,0,0
53285,-66.6666666666667,4,2,0,5,0,0
53386,-200,4,2,0,5,0,0
53488,-133.333333333333,4,2,0,5,0,0
53589,-80,4,2,0,5,0,0
53690,-100,4,2,0,5,0,0
54299,-114.285714285714,4,2,0,5,0,0
54501,-100,4,2,0,5,0,0
54603,-80,4,2,0,5,0,0
54704,-66.6666666666667,4,2,0,5,0,0
54805,-200,4,2,0,5,0,0
54907,-66.6666666666667,4,2,0,5,0,0
55008,-200,4,2,0,5,0,0
55109,-133.333333333333,4,2,0,5,0,0
55211,-80,4,2,0,5,0,0
55312,-100,4,2,0,5,0,0
59569,-66.6666666666667,4,2,0,5,0,0
59670,-200,4,2,0,5,0,0
59772,-100,4,2,0,5,0,0
59974,-66.6666666666667,4,2,0,5,0,0
60076,-200,4,2,0,5,0,0
60177,-100,4,2,0,5,0,0
60380,-66.6666666666667,4,2,0,5,0,0
60481,-200,4,2,0,5,0,0
60582,-100,4,2,0,5,0,0
60785,-66.6666666666667,4,2,0,5,0,0
60886,-200,4,2,0,5,0,0
60988,-83.3333333333333,4,2,0,5,0,0
61089,-125,4,2,0,5,0,0
61190,-100,4,2,0,5,0,0
73555,-66.6666666666667,4,2,0,5,0,0
73657,-200,4,2,0,5,0,0
73758,-66.6666666666667,4,2,0,5,0,0
73859,-200,4,2,0,5,0,0
73961,-133.333333333333,4,2,0,5,0,0
74062,-80,4,2,0,5,0,0
74163,-100,4,2,0,5,0,0
90380,-66.6666666666667,4,2,0,5,0,0
90481,-333.333333333333,4,2,0,5,0,0
90582,-83.3333333333333,4,2,0,5,0,0
90684,-66.6666666666667,4,2,0,5,0,0
90785,-333.333333333333,4,2,0,5,0,0
90886,-83.3333333333333,4,2,0,5,0,0
90988,-66.6666666666667,4,2,0,5,0,0
91089,-200,4,2,0,5,0,0
91190,-66.6666666666667,4,2,0,5,0,0
91292,-200,4,2,0,5,0,0
91393,-133.333333333333,4,2,0,5,0,0
91495,-80,4,2,0,5,0,0
91596,-100,4,2,0,5,0,0
110447,-200,4,2,0,5,0,0

[HitObjects]
51,192,2812,5,0,0:0:0:70:Koto G#4 s.wav
256,192,2913,1,0,0:0:0:70:Koto G#4 s.wav
51,192,3015,1,0,0:0:0:70:Koto G#4 s.wav
256,192,3116,1,0,0:0:0:70:Koto G#4 s.wav
51,192,3218,1,0,0:0:0:70:Koto G#4 s.wav
256,192,3319,1,0,0:0:0:70:Koto G#4 s.wav
51,192,3420,1,0,0:0:0:70:Koto G#4 s.wav
256,192,3522,1,0,0:0:0:70:Koto G#4 s.wav
153,192,3623,1,0,0:0:0:70:Koto B4 s.wav
358,192,3724,1,0,0:0:0:70:Koto B4 s.wav
153,192,3826,1,0,0:0:0:70:Koto B4 s.wav
358,192,3927,1,0,0:0:0:70:Koto B4 s.wav
153,192,4028,1,0,0:0:0:70:Koto B4 s.wav
358,192,4130,1,0,0:0:0:70:Koto B4 s.wav
153,192,4231,1,0,0:0:0:70:Koto B4 s.wav
358,192,4332,1,0,0:0:0:70:Koto B4 s.wav
256,192,4434,1,0,0:0:0:70:Koto C#5 s.wav
460,192,4535,1,0,0:0:0:70:Koto C#5 s.wav
256,192,4636,1,0,0:0:0:70:Koto C#5 s.wav
460,192,4738,1,0,0:0:0:70:Koto C#5 s.wav
256,192,4839,1,0,0:0:0:70:Koto C#5 s.wav
460,192,4940,1,0,0:0:0:70:Koto C#5 s.wav
256,192,5042,1,0,0:0:0:70:Koto C#5 s.wav
460,192,5143,1,0,0:0:0:70:Koto C#5 s.wav
153,192,5245,1,0,0:0:0:70:Koto D#5 s.wav
358,192,5346,1,0,0:0:0:70:Koto D#5 s.wav
153,192,5447,1,0,0:0:0:70:Koto D#5 s.wav
358,192,5549,1,0,0:0:0:70:Koto D#5 s.wav
51,192,5650,1,0,0:0:0:70:Koto F#5 s.wav
256,192,5751,1,0,0:0:0:70:Koto F#5 s.wav
51,192,5853,1,0,0:0:0:70:Koto F#5 s.wav
256,192,5954,1,0,0:0:0:70:Koto F#5 s.wav
51,192,6055,1,0,0:0:0:70:Kick.wav
460,192,6055,1,0,0:0:0:70:Koto G#5.wav
358,192,6055,1,0,0:0:0:70:Splash.wav
256,192,6258,1,0,0:0:0:70:Snare.wav
460,192,6359,1,0,0:0:0:70:Koto G#5.wav
51,192,6461,1,0,0:0:0:70:Kick.wav
256,192,6663,1,0,0:0:0:70:Snare.wav
153,192,6663,1,0,0:0:0:70:Koto D#5 s.wav
358,192,6765,1,0,0:0:0:70:Koto F#5 s.wav
51,192,6866,1,0,0:0:0:70:Kick.wav
460,192,6866,1,0,0:0:0:70:Koto G#5.wav
256,192,7069,1,0,0:0:0:70:Snare.wav
358,192,7069,1,0,0:0:0:70:Koto F#5 s.wav
51,192,7272,1,0,0:0:0:70:Kick.wav
153,192,7272,1,0,0:0:0:70:Koto D#5 s.wav
256,192,7474,1,0,0:0:0:70:Snare.wav
460,192,7474,1,0,0:0:0:70:Koto C#5 s.wav
51,192,7677,1,0,0:0:0:70:Kick.wav
358,192,7677,1,0,0:0:0:70:Koto D#5 s.wav
256,192,7880,1,0,0:0:0:70:Snare.wav
358,192,7981,1,0,0:0:0:70:Koto D#5 s.wav
51,192,8082,1,0,0:0:0:70:Kick.wav
256,192,8285,1,0,0:0:0:70:Snare.wav
460,192,8285,1,0,0:0:0:70:Koto C#5 s.wav
358,192,8386,1,0,0:0:0:70:Koto D#5 s.wav
51,192,8488,1,0,0:0:0:70:Kick.wav
153,192,8488,1,0,0:0:0:70:Koto F#5 s.wav
256,192,8690,1,0,0:0:0:70:Snare.wav
358,192,8690,1,0,0:0:0:70:Koto D#5 s.wav
51,192,8893,1,0,0:0:0:70:Kick.wav
153,192,8893,1,0,0:0:0:70:Koto C#5 s.wav
256,192,9096,1,0,0:0:0:70:Snare.wav
153,192,9096,1,0,0:0:0:70:Koto B4 s.wav
358,192,9299,1,0,0:0:0:70:Splash.wav
460,192,9299,1,0,0:0:0:70:Koto G#4 s.wav
51,192,9299,1,0,0:0:0:70:Kick.wav
153,192,9501,1,0,0:0:0:70:Snare.wav
358,192,9603,1,0,0:0:0:70:Koto F#4.wav
51,192,9704,1,0,0:0:0:70:Kick.wav
153,192,9907,1,0,0:0:0:70:Snare.wav
460,192,9907,1,0,0:0:0:70:Koto G#4 s.wav
51,192,10109,1,0,0:0:0:70:Kick.wav
460,192,10109,1,0,0:0:0:70:Koto G#4 s.wav
153,192,10312,1,0,0:0:0:70:Snare.wav
358,192,10413,1,0,0:0:0:70:Koto F#4.wav
51,192,10515,1,0,0:0:0:70:Kick.wav
153,192,10718,1,0,0:0:0:70:Snare.wav
460,192,10718,1,0,0:0:0:70:Koto G#4 s.wav
51,192,10920,1,0,0:0:0:70:Splash.wav
256,192,10920,1,0,0:0:0:70:Koto D#5 s.wav
153,192,11123,1,0,0:0:0:70:Snare.wav
358,192,11123,1,0,0:0:0:70:Koto F#5 s.wav
256,192,11326,1,0,0:0:0:70:Kick.wav
460,192,11326,1,0,0:0:0:70:Koto G#5.wav
153,192,11528,1,0,0:0:0:70:Snare.wav
358,192,11528,1,0,0:0:0:70:Koto A#5.wav
256,192,11731,1,0,0:0:0:45:Splash.wav
460,192,11731,1,0,0:0:0:70:Koto G#5.wav
358,192,11799,1,0,0:0:0:70:Koto A#5.wav
153,192,11799,1,0,0:0:0:0:
460,192,11866,1,0,0:0:0:70:Koto G#5.wav
256,192,11866,1,0,0:0:0:0:
51,192,11934,1,0,0:0:0:70:Koto F#5 s.wav
153,192,11934,1,0,0:0:0:70:Snare.wav
256,192,12136,128,0,12339:0:0:0:45:Splash.wav
460,192,12136,128,0,12339:0:0:0:70:Koto D#5 s.wav
51,192,12542,1,0,0:0:0:70:Kick.wav
460,192,12542,1,0,0:0:0:70:Koto G#5.wav
358,192,12542,1,0,0:0:0:70:Splash.wav
256,192,12745,1,0,0:0:0:70:Snare.wav
460,192,12846,1,0,0:0:0:70:Koto G#5.wav
51,192,12947,1,0,0:0:0:70:Kick.wav
256,192,13150,1,0,0:0:0:70:Snare.wav
153,192,13150,1,0,0:0:0:70:Koto D#5 s.wav
358,192,13251,1,0,0:0:0:70:Koto F#5 s.wav
51,192,13353,1,0,0:0:0:70:Kick.wav
460,192,13353,1,0,0:0:0:70:Koto G#5.wav
256,192,13555,1,0,0:0:0:70:Snare.wav
358,192,13555,1,0,0:0:0:70:Koto F#5 s.wav
51,192,13758,1,0,0:0:0:70:Kick.wav
153,192,13758,1,0,0:0:0:70:Koto D#5 s.wav
256,192,13961,1,0,0:0:0:70:Snare.wav
460,192,13961,1,0,0:0:0:70:Koto C#5 s.wav
51,192,14163,1,0,0:0:0:70:Kick.wav
460,192,14163,1,0,0:0:0:70:Koto C#5 s.wav
256,192,14366,1,0,0:0:0:70:Snare.wav
460,192,14468,1,0,0:0:0:70:Koto C#5 s.wav
51,192,14569,1,0,0:0:0:70:Kick.wav
256,192,14772,1,0,0:0:0:70:Snare.wav
358,192,14772,1,0,0:0:0:70:Koto B4 s.wav
460,192,14873,1,0,0:0:0:70:Koto C#5 s.wav
51,192,14974,1,0,0:0:0:70:Kick.wav
153,192,14974,1,0,0:0:0:70:Koto D#5 s.wav
256,192,15177,1,0,0:0:0:70:Snare.wav
358,192,15177,1,0,0:0:0:70:Koto F#5 s.wav
256,192,15278,1,0,0:0:0:70:Snare.wav
153,192,15380,1,0,0:0:0:70:Koto D#5 s.wav
51,192,15380,1,0,0:0:0:70:Kick.wav
460,192,15481,1,0,0:0:0:70:Koto F#5 s.wav
358,192,15532,1,0,0:0:0:70:Koto D#5 s.wav
256,192,15582,1,0,0:0:0:70:Snare.wav
153,192,15582,1,0,0:0:0:70:Koto C#5 s.wav
256,192,15684,1,0,0:0:0:70:Snare.wav
460,192,15785,1,0,0:0:0:70:Splash.wav
51,192,15785,1,0,0:0:0:70:Koto G#4 s.wav
256,192,15886,1,0,0:0:0:70:Koto G#4 s.wav
51,192,15988,1,0,0:0:0:70:Koto G#4 s.wav
256,192,16089,1,0,0:0:0:70:Koto G#4 s.wav
153,192,16190,1,0,0:0:0:70:Koto B4 s.wav
358,192,16292,1,0,0:0:0:70:Koto B4 s.wav
153,192,16393,1,0,0:0:0:70:Koto B4 s.wav
358,192,16495,1,0,0:0:0:70:Koto B4 s.wav
256,192,16596,1,0,0:0:0:70:Koto C#5 s.wav
460,192,16697,1,0,0:0:0:70:Koto C#5 s.wav
256,192,16799,1,0,0:0:0:70:Koto C#5 s.wav
460,192,16900,1,0,0:0:0:70:Koto C#5 s.wav
358,192,17001,1,0,0:0:0:70:Koto D#5 s.wav
153,192,17103,1,0,0:0:0:70:Koto D#5 s.wav
358,192,17204,1,0,0:0:0:70:Koto D#5 s.wav
153,192,17305,1,0,0:0:0:70:Koto D#5 s.wav
256,192,17407,1,0,0:0:0:0:
460,192,17407,1,0,0:0:0:70:Koto F#5 s.wav
153,192,17609,1,0,0:0:0:0:
358,192,17609,1,0,0:0:0:70:Koto D#5 s.wav
256,192,17812,1,0,0:0:0:0:
460,192,17812,1,0,0:0:0:70:Koto F#5 s.wav
51,192,18015,1,0,0:0:0:0:
256,192,18015,1,0,0:0:0:70:Koto B5.wav
153,192,18218,1,0,0:0:0:0:
358,192,18218,1,0,0:0:0:70:Koto G#5.wav
460,192,18420,1,0,0:0:0:30:Kick.wav
153,192,18488,1,0,0:0:0:30:Kick.wav
358,192,18555,1,0,0:0:0:30:Kick.wav
256,192,18623,1,0,0:0:0:70:Jung.wav
51,192,18623,1,0,0:0:0:70:Kick.wav
256,192,19028,1,0,0:0:0:70:Kick.wav
460,192,19028,1,0,0:0:0:70:Splash.wav
51,192,19028,128,0,19231:0:0:0:70:Bass G#2 3.wav
460,192,19231,1,0,0:0:0:70:Hit.wav
51,192,19332,128,0,19535:0:0:0:0:
256,192,19332,1,0,0:0:0:70:Kick.wav
358,192,19434,1,0,0:0:0:70:Snare.wav
460,192,19636,1,0,0:0:0:70:Hit.wav
153,192,19636,128,0,19940:0:0:0:70:Bass G#2 3.wav
460,192,19839,1,0,0:0:0:70:Hit.wav
256,192,20042,1,0,0:0:0:70:Kick.wav
51,192,20042,1,0,0:0:0:0:
358,192,20245,1,0,0:0:0:70:Snare.wav
153,192,20245,1,0,0:0:0:0:
460,192,20447,1,0,0:0:0:70:Hit.wav
256,192,20447,1,0,0:0:0:0:
153,192,20650,128,0,20853:0:0:0:0:
256,192,20650,1,0,0:0:0:70:Kick.wav
460,192,20853,1,0,0:0:0:70:Hit.wav
153,192,20954,128,0,21157:0:0:0:0:
256,192,20954,1,0,0:0:0:70:Kick.wav
358,192,21055,1,0,0:0:0:70:Snare.wav
51,192,21258,128,0,21562:0:0:0:0:
460,192,21258,1,0,0:0:0:70:Hit.wav
460,192,21461,1,0,0:0:0:70:Hit.wav
358,192,21562,1,0,0:0:0:0:
153,192,21663,1,0,0:0:0:0:
256,192,21663,1,0,0:0:0:70:Kick.wav
460,192,21663,1,0,0:0:0:0:
358,192,21731,1,0,0:0:0:0:
256,192,21799,1,0,0:0:0:0:
51,192,21866,1,0,0:0:0:0:
153,192,21866,1,0,0:0:0:0:
460,192,21866,1,0,0:0:0:70:Snare.wav
153,192,22069,1,0,0:0:0:0:
256,192,22069,1,0,0:0:0:0:
460,192,22069,1,0,0:0:0:70:Hit.wav
256,192,22272,1,0,0:0:0:70:Kick.wav
51,192,22272,128,0,22474:0:0:0:0:
460,192,22474,1,0,0:0:0:70:Hit.wav
51,192,22576,128,0,22778:0:0:0:0:
256,192,22576,1,0,0:0:0:70:Kick.wav
358,192,22677,1,0,0:0:0:70:Snare.wav
460,192,22880,1,0,0:0:0:70:Hit.wav
153,192,22880,128,0,23184:0:0:0:0:
460,192,23082,1,0,0:0:0:70:Hit.wav
256,192,23285,1,0,0:0:0:70:Kick.wav
51,192,23285,1,0,0:0:0:0:
358,192,23488,1,0,0:0:0:70:Snare.wav
153,192,23488,1,0,0:0:0:0:
460,192,23690,1,0,0:0:0:70:Hit.wav
51,192,23690,1,0,0:0:0:0:
256,192,23690,1,0,0:0:0:0:
460,192,23792,1,0,0:0:0:0:
358,192,23843,1,0,0:0:0:0:
256,192,23893,1,0,0:0:0:70:Kick.wav
153,192,23893,128,0,24096:0:0:0:0:
51,192,23893,1,0,0:0:0:0:
460,192,24096,1,0,0:0:0:70:Hit.wav
256,192,24197,1,0,0:0:0:70:Kick.wav
153,192,24197,128,0,24400:0:0:0:0:
358,192,24299,1,0,0:0:0:70:Snare.wav
51,192,24501,128,0,24805:0:0:0:0:
256,192,24501,1,0,0:0:0:70:Kick.wav
153,192,24704,1,0,0:0:0:0:
460,192,24704,1,0,0:0:0:70:Hit.wav
358,192,24805,1,0,0:0:0:0:
51,192,24907,1,0,0:0:0:0:
460,192,24907,1,0,0:0:0:0:
256,192,24907,1,0,0:0:0:70:Kick.wav
358,192,25109,1,0,0:0:0:70:Snare.wav
256,192,25109,1,0,0:0:0:0:
153,192,25211,1,0,0:0:0:0:
51,192,25312,1,0,0:0:0:0:
460,192,25312,1,0,0:0:0:70:Hit.wav
256,192,25515,1,0,0:0:0:70:Kick.wav
358,192,25515,1,0,0:0:0:70:Splash.wav
153,192,25515,128,0,25718:0:0:0:0:
460,192,25718,1,0,0:0:0:70:Hit.wav
153,192,25819,128,0,26022:0:0:0:0:
256,192,25819,1,0,0:0:0:70:Kick.wav
358,192,25920,1,0,0:0:0:70:Snare.wav
460,192,26123,1,0,0:0:0:70:Hit.wav
51,192,26123,128,0,26427:0:0:0:0:
460,192,26326,1,0,0:0:0:70:Hit.wav
256,192,26528,1,0,0:0:0:70:Kick.wav
153,192,26528,1,0,0:0:0:0:
358,192,26731,1,0,0:0:0:70:Snare.wav
153,192,26731,1,0,0:0:0:0:
460,192,26934,1,0,0:0:0:70:Hit.wav
51,192,26934,1,0,0:0:0:0:
256,192,27136,1,0,0:0:0:70:Kick.wav
51,192,27136,128,0,27339:0:0:0:0:
460,192,27339,1,0,0:0:0:70:Hit.wav
51,192,27440,128,0,27643:0:0:0:0:
256,192,27440,1,0,0:0:0:70:Kick.wav
358,192,27542,1,0,0:0:0:70:Snare.wav
460,192,27745,1,0,0:0:0:70:Hit.wav
153,192,27745,128,0,28049:0:0:0:0:
460,192,27947,1,0,0:0:0:0:
51,192,27947,1,0,0:0:0:0:
256,192,27947,1,0,0:0:0:50:Kick.wav
358,192,28049,1,0,0:0:0:35:Snare.wav
256,192,28150,1,0,0:0:0:50:Kick.wav
153,192,28150,1,0,0:0:0:0:
51,192,28251,1,0,0:0:0:0:
358,192,28353,1,0,0:0:0:70:Snare.wav
153,192,28353,1,0,0:0:0:0:
256,192,28555,1,0,0:0:0:55:Kick.wav
51,192,28555,1,0,0:0:0:0:
256,192,28758,1,0,0:0:0:70:Kick.wav
460,192,28758,1,0,0:0:0:0:
460,192,28961,1,0,0:0:0:0:
153,192,28961,1,0,0:0:0:0:
256,192,29062,1,0,0:0:0:0:
358,192,29163,1,0,0:0:0:0:
256,192,29366,1,0,0:0:0:0:
51,192,29366,1,0,0:0:0:0:
460,192,29569,1,0,0:0:0:0:
153,192,29569,1,0,0:0:0:0:
51,192,29569,1,0,0:0:0:0:
358,192,29670,1,0,0:0:0:0:
256,192,29772,1,0,0:0:0:0:
153,192,29873,1,0,0:0:0:0:
256,192,29974,1,0,0:0:0:0:
51,192,29974,1,0,0:0:0:0:
358,192,30076,1,0,0:0:0:0:
256,192,30177,1,0,0:0:0:0:
153,192,30278,1,0,0:0:0:0:
51,192,30380,1,0,0:0:0:0:
256,192,30380,1,0,0:0:0:0:
460,192,30582,1,0,0:0:0:0:
51,192,30684,1,0,0:0:0:0:
358,192,30684,1,0,0:0:0:0:
51,192,30785,1,0,0:0:0:0:
358,192,30785,1,0,0:0:0:0:
51,192,30988,1,0,0:0:0:0:
358,192,30988,1,0,0:0:0:0:
358,192,31190,1,0,0:0:0:0:
256,192,31258,1,0,0:0:0:0:
358,192,31326,1,0,0:0:0:0:
460,192,31393,1,0,0:0:0:0:
51,192,31393,128,0,31799:0:0:0:0:
153,192,31393,128,0,31799:0:0:0:0:
358,192,31799,1,0,0:0:0:0:
256,192,32001,1,0,0:0:0:0:
460,192,32001,1,0,0:0:0:0:
460,192,32204,1,0,0:0:0:0:
256,192,32305,1,0,0:0:0:0:
358,192,32407,1,0,0:0:0:0:
460,192,32609,1,0,0:0:0:0:
256,192,32609,1,0,0:0:0:0:
51,192,32609,128,0,33218:0:0:0:0:
153,192,32711,1,0,0:0:0:0:
460,192,32812,1,0,0:0:0:0:
256,192,32812,1,0,0:0:0:0:
256,192,33015,1,0,0:0:0:0:
358,192,33218,1,0,0:0:0:0:
153,192,33420,1,0,0:0:0:0:
51,192,33522,1,0,0:0:0:0:
256,192,33623,1,0,0:0:0:0:
460,192,33826,1,0,0:0:0:0:
256,192,33927,1,0,0:0:0:0:
358,192,34028,1,0,0:0:0:0:
256,192,34231,1,0,0:0:0:0:
51,192,34231,128,0,34839:0:0:0:0:
460,192,34231,1,0,0:0:0:0:
153,192,34332,1,0,0:0:0:0:
256,192,34434,1,0,0:0:0:0:
460,192,34434,1,0,0:0:0:0:
358,192,34535,1,0,0:0:0:0:
256,192,34636,1,0,0:0:0:0:
358,192,34839,1,0,0:0:0:0:
153,192,34940,1,0,0:0:0:0:
51,192,35042,1,0,0:0:0:0:
153,192,35143,1,0,0:0:0:0:
256,192,35245,1,0,0:0:0:0:
460,192,35447,1,0,0:0:0:0:
256,192,35549,1,0,0:0:0:0:
358,192,35650,1,0,0:0:0:0:
256,192,35853,1,0,0:0:0:0:
51,192,35853,1,0,0:0:0:0:
153,192,35954,1,0,0:0:0:0:
256,192,36055,1,0,0:0:0:0:
460,192,36055,1,0,0:0:0:0:
153,192,36157,1,0,0:0:0:0:
256,192,36258,1,0,0:0:0:0:
51,192,36258,1,0,0:0:0:0:
358,192,36359,1,0,0:0:0:0:
460,192,36461,1,0,0:0:0:0:
153,192,36461,1,0,0:0:0:0:
358,192,36562,1,0,0:0:0:0:
256,192,36663,1,0,0:0:0:0:
460,192,36663,1,0,0:0:0:0:
358,192,36765,1,0,0:0:0:0:
256,192,36866,1,0,0:0:0:0:
51,192,36866,1,0,0:0:0:0:
460,192,36866,1,0,0:0:0:0:
153,192,36968,1,0,0:0:0:0:
51,192,37069,1,0,0:0:0:0:
358,192,37069,1,0,0:0:0:0:
153,192,37170,1,0,0:0:0:0:
460,192,37170,1,0,0:0:0:0:
256,192,37272,1,0,0:0:0:0:
358,192,37272,1,0,0:0:0:0:
153,192,37373,1,0,0:0:0:0:
256,192,37474,1,0,0:0:0:0:
460,192,37474,1,0,0:0:0:0:
153,192,37576,1,0,0:0:0:0:
256,192,37677,1,0,0:0:0:0:
51,192,37677,1,0,0:0:0:0:
358,192,37778,1,0,0:0:0:0:
256,192,37880,1,0,0:0:0:0:
153,192,37880,1,0,0:0:0:0:
358,192,37981,1,0,0:0:0:0:
51,192,37981,1,0,0:0:0:0:
153,192,38082,1,0,0:0:0:45:Snare.wav
460,192,38082,1,0,0:0:0:0:
153,192,38184,1,0,0:0:0:45:Snare.wav
358,192,38184,1,0,0:0:0:0:
460,192,38285,1,0,0:0:0:0:
51,192,38285,1,0,0:0:0:50:Kick.wav
358,192,38386,1,0,0:0:0:0:
51,192,38488,1,0,0:0:0:0:
153,192,38488,1,0,0:0:0:70:Splash.wav
460,192,38488,128,0,40109:0:0:0:0:
256,192,38488,1,0,0:0:0:70:Kick.wav
51,192,38690,1,0,0:0:0:0:
51,192,38893,1,0,0:0:0:0:
358,192,38893,1,0,0:0:0:70:Snare.wav
51,192,39096,1,0,0:0:0:0:
153,192,39299,1,0,0:0:0:0:
256,192,39299,1,0,0:0:0:70:Kick.wav
153,192,39501,1,0,0:0:0:0:
256,192,39501,1,0,0:0:0:70:Kick.wav
153,192,39704,1,0,0:0:0:0:
358,192,39704,1,0,0:0:0:70:Snare.wav
153,192,39907,1,0,0:0:0:0:
51,192,40109,1,0,0:0:0:0:
256,192,40109,1,0,0:0:0:70:Kick.wav
358,192,40109,128,0,40920:0:0:0:0:
51,192,40312,1,0,0:0:0:0:
51,192,40515,1,0,0:0:0:0:
460,192,40515,1,0,0:0:0:70:Snare.wav
51,192,40718,1,0,0:0:0:0:
256,192,40718,1,0,0:0:0:70:Kick.wav
153,192,40920,1,0,0:0:0:0:
256,192,40920,1,0,0:0:0:70:Kick.wav
460,192,40920,128,0,41731:0:0:0:0:
153,192,41123,1,0,0:0:0:0:
256,192,41123,1,0,0:0:0:70:Kick.wav
153,192,41326,1,0,0:0:0:0:
358,192,41326,1,0,0:0:0:70:Snare.wav
153,192,41528,1,0,0:0:0:0:
51,192,41731,1,0,0:0:0:0:
358,192,41731,1,0,0:0:0:70:Splash.wav
256,192,41731,1,0,0:0:0:70:Kick.wav
460,192,42136,1,0,0:0:0:70:Snare.wav
256,192,42542,1,0,0:0:0:70:Kick.wav
256,192,42745,1,0,0:0:0:70:Kick.wav
460,192,42947,1,0,0:0:0:70:Splash.wav
51,192,42947,128,0,43353:0:0:0:0:
460,192,43353,1,0,0:0:0:0:
153,192,43353,1,0,0:0:0:0:
256,192,43454,1,0,0:0:0:0:
358,192,43555,1,0,0:0:0:0:
153,192,43657,1,0,0:0:0:0:
460,192,43657,1,0,0:0:0:0:
256,192,43758,1,0,0:0:0:0:
358,192,43758,1,0,0:0:0:0:
358,192,43961,1,0,0:0:0:0:
460,192,43961,1,0,0:0:0:0:
153,192,44062,1,0,0:0:0:0:
256,192,44163,1,0,0:0:0:0:
51,192,44265,1,0,0:0:0:0:
358,192,44265,1,0,0:0:0:0:
153,192,44366,1,0,0:0:0:0:
256,192,44366,1,0,0:0:0:0:
256,192,44569,1,0,0:0:0:0:
358,192,44569,1,0,0:0:0:0:
460,192,44569,1,0,0:0:0:0:
51,192,44670,1,0,0:0:0:0:
153,192,44772,1,0,0:0:0:0:
460,192,44772,1,0,0:0:0:0:
256,192,44873,1,0,0:0:0:0:
51,192,44974,128,0,45785:0:0:0:0:
460,192,44974,1,0,0:0:0:0:
358,192,44974,1,0,0:0:0:0:
256,192,45177,1,0,0:0:0:0:
358,192,45380,1,0,0:0:0:0:
460,192,45380,1,0,0:0:0:0:
256,192,45582,1,0,0:0:0:0:
153,192,45785,128,0,46089:0:0:0:0:
358,192,45785,1,0,0:0:0:0:
460,192,45785,1,0,0:0:0:0:
256,192,45988,1,0,0:0:0:0:
460,192,46089,1,0,0:0:0:0:
358,192,46140,1,0,0:0:0:0:
51,192,46190,128,0,46495:0:0:0:0:
460,192,46190,1,0,0:0:0:0:
358,192,46292,1,0,0:0:0:0:
256,192,46393,1,0,0:0:0:0:
358,192,46596,1,0,0:0:0:0:
153,192,46596,128,0,47407:0:0:0:0:
51,192,46900,1,0,0:0:0:0:
358,192,47001,1,0,0:0:0:0:
51,192,47204,1,0,0:0:0:0:
358,192,47407,1,0,0:0:0:0:
51,192,47711,1,0,0:0:0:0:
358,192,47812,1,0,0:0:0:0:
256,192,48015,1,0,0:0:0:0:
256,192,48116,1,0,0:0:0:0:
153,192,48218,1,0,0:0:0:0:
51,192,48218,1,0,0:0:0:0:
358,192,48522,1,0,0:0:0:0:
51,192,48623,1,0,0:0:0:0:
358,192,48826,1,0,0:0:0:0:
51,192,49028,1,0,0:0:0:0:
358,192,49332,1,0,0:0:0:0:
51,192,49434,1,0,0:0:0:0:
153,192,49636,1,0,0:0:0:0:
153,192,49738,1,0,0:0:0:0:
256,192,49839,1,0,0:0:0:0:
358,192,49839,1,0,0:0:0:0:
51,192,50143,1,0,0:0:0:0:
358,192,50245,1,0,0:0:0:0:
51,192,50447,1,0,0:0:0:0:
358,192,50650,1,0,0:0:0:0:
51,192,50954,1,0,0:0:0:0:
358,192,51055,1,0,0:0:0:0:
256,192,51258,1,0,0:0:0:0:
256,192,51359,1,0,0:0:0:0:
358,192,51461,1,0,0:0:0:0:
153,192,51461,1,0,0:0:0:0:
51,192,51765,1,0,0:0:0:0:
358,192,51866,1,0,0:0:0:0:
51,192,52069,1,0,0:0:0:0:
460,192,52272,1,0,0:0:0:0:
51,192,52272,1,0,0:0:0:0:
358,192,52339,1,0,0:0:0:0:
256,192,52407,1,0,0:0:0:0:
358,192,52474,1,0,0:0:0:0:
256,192,52542,1,0,0:0:0:0:
153,192,52609,1,0,0:0:0:0:
51,192,52677,1,0,0:0:0:0:
256,192,52677,1,0,0:0:0:0:
153,192,52745,1,0,0:0:0:0:
51,192,52812,1,0,0:0:0:0:
153,192,52880,1,0,0:0:0:0:
460,192,52880,1,0,0:0:0:0:
256,192,52947,1,0,0:0:0:0:
460,192,52981,1,0,0:0:0:0:
358,192,53015,1,0,0:0:0:0:
51,192,53082,1,0,0:0:0:0:
153,192,53082,1,0,0:0:0:0:
153,192,53285,1,0,0:0:0:0:
51,192,53285,1,0,0:0:0:0:
358,192,53690,1,0,0:0:0:0:
358,192,53893,1,0,0:0:0:0:
358,192,53995,1,0,0:0:0:0:
256,192,54096,1,0,0:0:0:0:
358,192,54299,1,0,0:0:0:0:
51,192,54704,1,0,0:0:0:0:
358,192,54704,1,0,0:0:0:0:
153,192,54907,1,0,0:0:0:0:
51,192,54907,1,0,0:0:0:0:
358,192,55312,1,0,0:0:0:0:
358,192,55515,1,0,0:0:0:0:
358,192,55616,1,0,0:0:0:0:
256,192,55718,1,0,0:0:0:0:
358,192,55920,1,0,0:0:0:0:
256,192,56123,1,0,0:0:0:0:
358,192,56224,1,0,0:0:0:0:
256,192,56326,1,0,0:0:0:0:
51,192,56326,1,0,0:0:0:0:
460,192,56326,1,0,0:0:0:0:
256,192,56528,1,0,0:0:0:0:
460,192,56731,1,0,0:0:0:0:
358,192,56731,1,0,0:0:0:0:
153,192,56731,128,0,57542:0:0:0:0:
358,192,57035,1,0,0:0:0:0:
460,192,57136,1,0,0:0:0:0:
256,192,57136,1,0,0:0:0:0:
256,192,57339,1,0,0:0:0:0:
460,192,57542,1,0,0:0:0:0:
358,192,57542,1,0,0:0:0:0:
51,192,57542,128,0,57947:0:0:0:0:
460,192,57745,1,0,0:0:0:0:
256,192,57745,1,0,0:0:0:0:
256,192,57947,1,0,0:0:0:0:
153,192,57947,128,0,58353:0:0:0:0:
460,192,57947,1,0,0:0:0:0:
256,192,58150,1,0,0:0:0:0:
460,192,58353,1,0,0:0:0:0:
358,192,58353,1,0,0:0:0:0:
51,192,58353,128,0,59163:0:0:0:0:
358,192,58657,1,0,0:0:0:0:
460,192,58758,1,0,0:0:0:0:
256,192,58758,1,0,0:0:0:0:
256,192,58961,1,0,0:0:0:0:
460,192,59163,1,0,0:0:0:0:
358,192,59163,1,0,0:0:0:0:
153,192,59163,128,0,59569:0:0:0:0:
460,192,59366,1,0,0:0:0:0:
256,192,59366,1,0,0:0:0:0:
51,192,59569,1,0,0:0:0:0:
256,192,59569,128,0,59772:0:0:0:0:
460,192,59772,1,0,0:0:0:0:
51,192,59974,1,0,0:0:0:0:
256,192,59974,128,0,60177:0:0:0:0:
460,192,60177,1,0,0:0:0:0:
51,192,60380,1,0,0:0:0:0:
256,192,60380,128,0,60582:0:0:0:0:
460,192,60582,1,0,0:0:0:0:
51,192,60785,1,0,0:0:0:0:
256,192,60785,128,0,60988:0:0:0:0:
460,192,60988,1,0,0:0:0:0:
51,192,61190,1,0,0:0:0:0:
460,192,61190,1,0,0:0:0:0:
153,192,61292,1,0,0:0:0:0:
256,192,61393,1,0,0:0:0:0:
358,192,61495,1,0,0:0:0:0:
153,192,61596,1,0,0:0:0:0:
256,192,61697,1,0,0:0:0:0:
358,192,61799,1,0,0:0:0:0:
460,192,61900,1,0,0:0:0:0:
51,192,62001,1,0,0:0:0:0:
256,192,62001,1,0,0:0:0:0:
153,192,62204,1,0,0:0:0:0:
358,192,62272,1,0,0:0:0:0:
256,192,62339,1,0,0:0:0:0:
460,192,62407,1,0,0:0:0:0:
51,192,62407,1,0,0:0:0:0:
153,192,62407,1,0,0:0:0:0:
256,192,62609,1,0,0:0:0:0:
358,192,62812,1,0,0:0:0:0:
256,192,62812,1,0,0:0:0:0:
460,192,63015,1,0,0:0:0:0:
358,192,63218,1,0,0:0:0:0:
256,192,63218,1,0,0:0:0:0:
153,192,63420,1,0,0:0:0:0:
460,192,63420,1,0,0:0:0:0:
51,192,63623,1,0,0:0:0:0:
256,192,63623,1,0,0:0:0:0:
460,192,63826,1,0,0:0:0:0:
256,192,64028,1,0,0:0:0:0:
153,192,64028,1,0,0:0:0:0:
460,192,64231,1,0,0:0:0:0:
358,192,64231,1,0,0:0:0:0:
153,192,64434,1,0,0:0:0:0:
256,192,64434,1,0,0:0:0:0:
460,192,64636,1,0,0:0:0:0:
153,192,64738,1,0,0:0:0:0:
256,192,64839,1,0,0:0:0:0:
153,192,64839,1,0,0:0:0:0:
460,192,65042,1,0,0:0:0:0:
51,192,65042,1,0,0:0:0:0:
256,192,65245,1,0,0:0:0:0:
153,192,65245,1,0,0:0:0:0:
460,192,65447,1,0,0:0:0:0:
256,192,65650,1,0,0:0:0:0:
460,192,65853,1,0,0:0:0:0:
153,192,65853,1,0,0:0:0:0:
358,192,65954,1,0,0:0:0:0:
256,192,66055,1,0,0:0:0:0:
153,192,66055,128,0,66359:0:0:0:0:
51,192,66055,1,0,0:0:0:0:
460,192,66258,1,0,0:0:0:0:
256,192,66461,1,0,0:0:0:0:
51,192,66461,128,0,66765:0:0:0:0:
153,192,66461,1,0,0:0:0:0:
460,192,66663,1,0,0:0:0:0:
256,192,66866,1,0,0:0:0:0:
153,192,66866,128,0,67170:0:0:0:0:
51,192,66866,1,0,0:0:0:0:
460,192,67069,1,0,0:0:0:0:
256,192,67272,1,0,0:0:0:0:
358,192,67272,128,0,67576:0:0:0:0:
51,192,67272,1,0,0:0:0:0:
460,192,67474,1,0,0:0:0:0:
256,192,67677,1,0,0:0:0:0:
51,192,67677,1,0,0:0:0:0:
460,192,67677,1,0,0:0:0:0:
460,192,67880,1,0,0:0:0:0:
256,192,67880,1,0,0:0:0:0:
358,192,67981,1,0,0:0:0:0:
153,192,67981,1,0,0:0:0:0:
256,192,68082,1,0,0:0:0:0:
51,192,68082,1,0,0:0:0:0:
460,192,68082,1,0,0:0:0:0:
460,192,68285,1,0,0:0:0:0:
256,192,68285,1,0,0:0:0:0:
358,192,68386,1,0,0:0:0:0:
153,192,68386,1,0,0:0:0:0:
256,192,68488,1,0,0:0:0:0:
51,192,68488,1,0,0:0:0:0:
460,192,68488,1,0,0:0:0:0:
153,192,68690,1,0,0:0:0:0:
358,192,68690,1,0,0:0:0:0:
460,192,68690,1,0,0:0:0:0:
256,192,68893,1,0,0:0:0:0:
51,192,68893,1,0,0:0:0:0:
153,192,68893,1,0,0:0:0:0:
358,192,69096,1,0,0:0:0:0:
153,192,69096,1,0,0:0:0:0:
256,192,69096,1,0,0:0:0:0:
460,192,69197,1,0,0:0:0:0:
358,192,69299,1,0,0:0:0:0:
256,192,69299,1,0,0:0:0:0:
460,192,69299,1,0,0:0:0:0:
460,192,69501,1,0,0:0:0:0:
51,192,69501,1,0,0:0:0:0:
358,192,69603,1,0,0:0:0:0:
358,192,69704,1,0,0:0:0:0:
51,192,69704,1,0,0:0:0:0:
460,192,69907,1,0,0:0:0:0:
153,192,69907,1,0,0:0:0:0:
358,192,70109,1,0,0:0:0:0:
51,192,70109,1,0,0:0:0:0:
460,192,70312,1,0,0:0:0:0:
358,192,70413,1,0,0:0:0:0:
51,192,70413,1,0,0:0:0:0:
358,192,70515,1,0,0:0:0:0:
153,192,70515,1,0,0:0:0:0:
460,192,70718,1,0,0:0:0:0:
51,192,70718,1,0,0:0:0:0:
358,192,70920,1,0,0:0:0:0:
460,192,71123,1,0,0:0:0:0:
256,192,71123,1,0,0:0:0:0:
358,192,71224,1,0,0:0:0:0:
358,192,71326,1,0,0:0:0:0:
460,192,71528,1,0,0:0:0:0:
51,192,71528,1,0,0:0:0:0:
358,192,71731,1,0,0:0:0:0:
256,192,71731,1,0,0:0:0:0:
460,192,71934,1,0,0:0:0:0:
51,192,71934,1,0,0:0:0:0:
358,192,72035,1,0,0:0:0:0:
358,192,72136,1,0,0:0:0:0:
153,192,72136,1,0,0:0:0:0:
460,192,72339,1,0,0:0:0:0:
256,192,72542,1,0,0:0:0:0:
358,192,72542,1,0,0:0:0:0:
460,192,72745,1,0,0:0:0:0:
256,192,72846,1,0,0:0:0:0:
358,192,72846,1,0,0:0:0:0:
256,192,72947,1,0,0:0:0:0:
358,192,72947,1,0,0:0:0:0:
51,192,73150,1,0,0:0:0:0:
460,192,73150,1,0,0:0:0:0:
358,192,73251,1,0,0:0:0:0:
256,192,73353,1,0,0:0:0:0:
358,192,73353,1,0,0:0:0:0:
51,192,73555,1,0,0:0:0:0:
153,192,73555,1,0,0:0:0:0:
460,192,73555,1,0,0:0:0:0:
153,192,73758,1,0,0:0:0:0:
51,192,73758,1,0,0:0:0:0:
460,192,73758,1,0,0:0:0:0:
460,192,74163,1,0,0:0:0:0:
153,192,74163,1,0,0:0:0:0:
358,192,74265,1,0,0:0:0:0:
460,192,74366,1,0,0:0:0:0:
51,192,74366,1,0,0:0:0:0:
358,192,74468,1,0,0:0:0:0:
256,192,74569,1,0,0:0:0:0:
153,192,74569,1,0,0:0:0:0:
358,192,74670,1,0,0:0:0:0:
256,192,74772,1,0,0:0:0:0:
51,192,74772,1,0,0:0:0:0:
358,192,74873,1,0,0:0:0:0:
256,192,74974,1,0,0:0:0:0:
460,192,74974,1,0,0:0:0:0:
153,192,75076,1,0,0:0:0:0:
358,192,75076,1,0,0:0:0:0:
256,192,75177,1,0,0:0:0:0:
460,192,75177,1,0,0:0:0:0:
358,192,75278,1,0,0:0:0:0:
51,192,75278,1,0,0:0:0:0:
153,192,75380,1,0,0:0:0:0:
460,192,75380,1,0,0:0:0:0:
358,192,75582,1,0,0:0:0:0:
51,192,75582,1,0,0:0:0:0:
256,192,75785,1,0,0:0:0:0:
153,192,75785,128,0,76596:0:0:0:0:
358,192,75785,1,0,0:0:0:0:
460,192,75988,1,0,0:0:0:0:
358,192,76190,1,0,0:0:0:0:
256,192,76190,1,0,0:0:0:0:
460,192,76393,1,0,0:0:0:0:
51,192,76393,1,0,0:0:0:0:
51,192,76596,128,0,77407:0:0:0:0:
358,192,76596,1,0,0:0:0:0:
256,192,76596,1,0,0:0:0:0:
460,192,76799,1,0,0:0:0:0:
358,192,77001,1,0,0:0:0:0:
153,192,77001,1,0,0:0:0:0:
460,192,77204,1,0,0:0:0:0:
256,192,77204,1,0,0:0:0:0:
256,192,77407,128,0,78218:0:0:0:0:
153,192,77407,1,0,0:0:0:0:
358,192,77407,1,0,0:0:0:0:
460,192,77609,1,0,0:0:0:0:
358,192,77812,1,0,0:0:0:0:
51,192,77812,1,0,0:0:0:0:
460,192,78015,1,0,0:0:0:0:
153,192,78015,1,0,0:0:0:0:
153,192,78218,128,0,78623:0:0:0:0:
358,192,78218,1,0,0:0:0:0:
51,192,78218,1,0,0:0:0:0:
460,192,78420,1,0,0:0:0:0:
51,192,78623,128,0,79028:0:0:0:0:
358,192,78623,1,0,0:0:0:0:
460,192,78826,1,0,0:0:0:0:
358,192,78826,1,0,0:0:0:0:
153,192,78927,1,0,0:0:0:0:
256,192,79028,128,0,79332:0:0:0:0:
358,192,79028,1,0,0:0:0:0:
460,192,79231,1,0,0:0:0:0:
153,192,79434,128,0,79738:0:0:0:0:
358,192,79434,1,0,0:0:0:0:
256,192,79434,1,0,0:0:0:0:
460,192,79636,1,0,0:0:0:0:
256,192,79839,128,0,80143:0:0:0:0:
358,192,79839,1,0,0:0:0:0:
153,192,79839,1,0,0:0:0:0:
460,192,80042,1,0,0:0:0:0:
51,192,80245,128,0,80549:0:0:0:0:
358,192,80245,1,0,0:0:0:0:
153,192,80245,1,0,0:0:0:0:
460,192,80447,1,0,0:0:0:0:
460,192,80650,1,0,0:0:0:0:
460,192,80751,1,0,0:0:0:0:
358,192,80853,1,0,0:0:0:0:
153,192,80853,1,0,0:0:0:0:
256,192,80954,1,0,0:0:0:0:
51,192,80954,1,0,0:0:0:0:
460,192,81055,1,0,0:0:0:0:
460,192,81157,1,0,0:0:0:0:
358,192,81258,1,0,0:0:0:0:
153,192,81258,1,0,0:0:0:0:
256,192,81359,1,0,0:0:0:0:
51,192,81359,1,0,0:0:0:0:
460,192,81461,1,0,0:0:0:0:
358,192,81562,1,0,0:0:0:0:
153,192,81562,1,0,0:0:0:0:
51,192,81663,1,0,0:0:0:0:
256,192,81663,1,0,0:0:0:0:
153,192,81765,1,0,0:0:0:0:
358,192,81765,1,0,0:0:0:0:
51,192,81866,1,0,0:0:0:0:
256,192,81866,1,0,0:0:0:0:
153,192,81968,1,0,0:0:0:0:
358,192,81968,1,0,0:0:0:0:
460,192,82069,1,0,0:0:0:0:
460,192,82170,1,0,0:0:0:0:
51,192,82272,1,0,0:0:0:0:
153,192,82272,1,0,0:0:0:0:
358,192,82272,1,0,0:0:0:0:
256,192,82272,128,0,83893:0:0:0:0:
358,192,82677,1,0,0:0:0:0:
51,192,83082,1,0,0:0:0:0:
358,192,83082,1,0,0:0:0:0:
358,192,83488,1,0,0:0:0:0:
51,192,83893,1,0,0:0:0:0:
358,192,83893,1,0,0:0:0:0:
358,192,84299,1,0,0:0:0:0:
153,192,84299,128,0,85312:0:0:0:0:
51,192,84704,1,0,0:0:0:0:
358,192,84704,1,0,0:0:0:0:
358,192,85109,1,0,0:0:0:0:
460,192,85515,1,0,0:0:0:0:
51,192,85515,1,0,0:0:0:0:
358,192,85515,1,0,0:0:0:0:
153,192,85718,1,0,0:0:0:0:
256,192,85819,1,0,0:0:0:0:
358,192,85819,1,0,0:0:0:0:
153,192,85920,1,0,0:0:0:0:
51,192,86123,1,0,0:0:0:0:
358,192,86123,1,0,0:0:0:0:
460,192,86123,1,0,0:0:0:0:
153,192,86326,1,0,0:0:0:0:
256,192,86427,1,0,0:0:0:0:
358,192,86427,1,0,0:0:0:0:
153,192,86528,1,0,0:0:0:0:
51,192,86731,1,0,0:0:0:0:
460,192,86731,1,0,0:0:0:0:
256,192,86832,1,0,0:0:0:0:
358,192,86934,1,0,0:0:0:0:
256,192,86934,1,0,0:0:0:0:
460,192,87136,1,0,0:0:0:0:
256,192,87136,1,0,0:0:0:0:
153,192,87136,128,0,87238:0:0:0:0:
460,192,87542,1,0,0:0:0:0:
51,192,87745,128,0,88353:0:0:0:0:
460,192,87947,1,0,0:0:0:0:
460,192,88353,1,0,0:0:0:0:
256,192,88353,1,0,0:0:0:0:
51,192,88758,1,0,0:0:0:0:
358,192,88758,1,0,0:0:0:0:
51,192,89163,1,0,0:0:0:0:
51,192,89569,1,0,0:0:0:0:
153,192,89569,1,0,0:0:0:0:
256,192,89670,1,0,0:0:0:0:
460,192,89772,1,0,0:0:0:0:
358,192,89839,1,0,0:0:0:0:
256,192,89907,1,0,0:0:0:0:
153,192,89974,1,0,0:0:0:0:
256,192,90076,1,0,0:0:0:0:
358,192,90177,1,0,0:0:0:0:
256,192,90278,1,0,0:0:0:0:
153,192,90380,1,0,0:0:0:0:
51,192,90380,1,0,0:0:0:0:
358,192,90380,1,0,0:0:0:0:
51,192,90684,1,0,0:0:0:0:
153,192,90684,1,0,0:0:0:0:
358,192,90684,1,0,0:0:0:0:
51,192,90988,1,0,0:0:0:0:
153,192,90988,1,0,0:0:0:0:
358,192,90988,1,0,0:0:0:0:
153,192,91190,1,0,0:0:0:0:
51,192,91190,1,0,0:0:0:0:
358,192,91190,1,0,0:0:0:0:
460,192,91190,128,0,91596:0:0:0:0:
51,192,91596,1,0,0:0:0:0:
256,192,91596,1,0,0:0:0:0:
153,192,91799,1,0,0:0:0:0:
256,192,92001,1,0,0:0:0:0:
358,192,92001,1,0,0:0:0:0:
460,192,92001,1,0,0:0:0:0:
51,192,92204,1,0,0:0:0:0:
256,192,92305,1,0,0:0:0:0:
460,192,92305,1,0,0:0:0:0:
256,192,92407,1,0,0:0:0:0:
51,192,92609,1,0,0:0:0:0:
460,192,92660,1,0,0:0:0:0:
358,192,92711,1,0,0:0:0:0:
256,192,92812,1,0,0:0:0:0:
153,192,92812,1,0,0:0:0:0:
51,192,93015,1,0,0:0:0:0:
358,192,93015,1,0,0:0:0:0:
256,192,93116,1,0,0:0:0:0:
256,192,93218,1,0,0:0:0:0:
153,192,93218,1,0,0:0:0:0:
51,192,93420,1,0,0:0:0:0:
460,192,93420,1,0,0:0:0:0:
256,192,93623,1,0,0:0:0:0:
358,192,93623,1,0,0:0:0:0:
51,192,93826,1,0,0:0:0:0:
256,192,93927,1,0,0:0:0:0:
358,192,93927,1,0,0:0:0:0:
256,192,94028,1,0,0:0:0:0:
51,192,94231,1,0,0:0:0:0:
460,192,94231,1,0,0:0:0:0:
358,192,94332,1,0,0:0:0:0:
256,192,94434,1,0,0:0:0:0:
153,192,94434,1,0,0:0:0:0:
51,192,94636,1,0,0:0:0:0:
358,192,94636,1,0,0:0:0:0:
256,192,94738,1,0,0:0:0:0:
256,192,94839,1,0,0:0:0:0:
460,192,94839,1,0,0:0:0:0:
51,192,95042,1,0,0:0:0:0:
153,192,95042,1,0,0:0:0:0:
256,192,95245,1,0,0:0:0:0:
153,192,95245,1,0,0:0:0:0:
358,192,95245,1,0,0:0:0:0:
51,192,95447,1,0,0:0:0:0:
256,192,95549,1,0,0:0:0:0:
460,192,95549,1,0,0:0:0:0:
256,192,95650,1,0,0:0:0:0:
51,192,95853,1,0,0:0:0:0:
153,192,95853,1,0,0:0:0:0:
256,192,96055,1,0,0:0:0:0:
153,192,96055,1,0,0:0:0:0:
51,192,96258,1,0,0:0:0:0:
256,192,96359,1,0,0:0:0:0:
460,192,96359,1,0,0:0:0:0:
256,192,96461,1,0,0:0:0:0:
51,192,96663,1,0,0:0:0:0:
153,192,96663,1,0,0:0:0:0:
460,192,96866,1,0,0:0:0:0:
256,192,96866,1,0,0:0:0:0:
358,192,96866,1,0,0:0:0:0:
153,192,97069,1,0,0:0:0:0:
358,192,97069,1,0,0:0:0:0:
51,192,97272,1,0,0:0:0:0:
256,192,97272,1,0,0:0:0:0:
153,192,97474,1,0,0:0:0:0:
358,192,97474,1,0,0:0:0:0:
51,192,97677,1,0,0:0:0:0:
256,192,97677,1,0,0:0:0:0:
460,192,97677,1,0,0:0:0:0:
153,192,97745,1,0,0:0:0:0:
358,192,97745,1,0,0:0:0:0:
256,192,97812,1,0,0:0:0:0:
51,192,97812,1,0,0:0:0:0:
460,192,97880,1,0,0:0:0:0:
358,192,97880,1,0,0:0:0:0:
51,192,98082,128,0,98285:0:0:0:0:
358,192,98082,128,0,98285:0:0:0:0:
460,192,98082,1,0,0:0:0:0:
153,192,98285,1,0,0:0:0:0:
153,192,98386,1,0,0:0:0:0:
256,192,98488,1,0,0:0:0:0:
460,192,98488,1,0,0:0:0:0:
358,192,98488,1,0,0:0:0:0:
51,192,98690,1,0,0:0:0:0:
256,192,98792,1,0,0:0:0:0:
460,192,98792,1,0,0:0:0:0:
256,192,98893,1,0,0:0:0:0:
51,192,99096,1,0,0:0:0:0:
460,192,99096,1,0,0:0:0:0:
358,192,99197,1,0,0:0:0:0:
256,192,99299,1,0,0:0:0:0:
153,192,99299,1,0,0:0:0:0:
51,192,99501,1,0,0:0:0:0:
358,192,99501,1,0,0:0:0:0:
256,192,99603,1,0,0:0:0:0:
256,192,99704,1,0,0:0:0:0:
153,192,99704,1,0,0:0:0:0:
51,192,99907,1,0,0:0:0:0:
460,192,99907,1,0,0:0:0:0:
256,192,100109,1,0,0:0:0:0:
358,192,100109,1,0,0:0:0:0:
51,192,100312,1,0,0:0:0:0:
256,192,100413,1,0,0:0:0:0:
358,192,100413,1,0,0:0:0:0:
256,192,100515,1,0,0:0:0:0:
51,192,100718,1,0,0:0:0:0:
460,192,100718,1,0,0:0:0:0:
358,192,100819,1,0,0:0:0:0:
256,192,100920,1,0,0:0:0:0:
153,192,100920,1,0,0:0:0:0:
51,192,101123,1,0,0:0:0:0:
358,192,101123,1,0,0:0:0:0:
256,192,101224,1,0,0:0:0:0:
51,192,101224,1,0,0:0:0:0:
256,192,101326,1,0,0:0:0:0:
460,192,101326,1,0,0:0:0:0:
153,192,101326,1,0,0:0:0:0:
358,192,101427,1,0,0:0:0:0:
256,192,101478,1,0,0:0:0:0:
51,192,101528,1,0,0:0:0:0:
153,192,101528,1,0,0:0:0:0:
460,192,101630,1,0,0:0:0:0:
51,192,101731,1,0,0:0:0:0:
256,192,101832,1,0,0:0:0:0:
51,192,101934,1,0,0:0:0:0:
256,192,102035,1,0,0:0:0:0:
153,192,102136,1,0,0:0:0:0:
358,192,102238,1,0,0:0:0:0:
153,192,102339,1,0,0:0:0:0:
358,192,102440,1,0,0:0:0:0:
256,192,102542,1,0,0:0:0:0:
460,192,102643,1,0,0:0:0:0:
256,192,102745,1,0,0:0:0:0:
460,192,102846,1,0,0:0:0:0:
358,192,102947,1,0,0:0:0:0:
153,192,103049,1,0,0:0:0:0:
358,192,103150,1,0,0:0:0:0:
153,192,103251,1,0,0:0:0:0:
256,192,103353,1,0,0:0:0:0:
460,192,103353,1,0,0:0:0:0:
153,192,103555,1,0,0:0:0:0:
358,192,103555,1,0,0:0:0:0:
256,192,103758,1,0,0:0:0:0:
460,192,103758,1,0,0:0:0:0:
51,192,103961,1,0,0:0:0:0:
256,192,103961,1,0,0:0:0:0:
153,192,104163,1,0,0:0:0:0:
358,192,104163,1,0,0:0:0:0:
256,192,104839,1,0,0:0:0:0:
256,192,104907,1,0,0:0:0:0:
358,192,104974,1,0,0:0:0:0:
51,192,104974,1,0,0:0:0:0:
460,192,105042,1,0,0:0:0:0:
153,192,105042,1,0,0:0:0:0:
358,192,105109,1,0,0:0:0:0:
51,192,105109,1,0,0:0:0:0:
460,192,105177,128,0,110447:0:0:0:0:
153,192,105785,1,0,0:0:0:0:
256,192,106190,1,0,0:0:0:0:
153,192,106393,1,0,0:0:0:0:
51,192,106545,1,0,0:0:0:0:
256,192,106731,1,0,0:0:0:0:
153,192,106900,1,0,0:0:0:0:
51,192,107069,1,0,0:0:0:0:
153,192,107204,1,0,0:0:0:0:
256,192,107373,1,0,0:0:0:0:
358,192,107407,128,0,110447:0:0:0:0:
153,192,107609,1,0,0:0:0:0:
51,192,107812,1,0,0:0:0:0:
153,192,108065,1,0,0:0:0:0:
256,192,108353,1,0,0:0:0:0:
51,192,108961,1,0,0:0:0:0:
51,192,110447,128,0,111258:0:0:0:0:
256,192,110447,128,0,111258:0:0:0:0:
