osu file format v14

[General]
AudioFilename: Ao no Ichibanboshi.mp3
AudioLeadIn: 0
PreviewTime: 62714
Countdown: 0
SampleSet: Normal
StackLeniency: 0.2
Mode: 0
LetterboxInBreaks: 0
WidescreenStoryboard: 0

[Editor]
Bookmarks: 3221,6464,19437,32410,43761,56734,63221,76194,87545,92410,105383
DistanceSpacing: 1.5
BeatDivisor: 4
GridSize: 4
TimelineZoom: 0.9

[Metadata]
Title:Ao no Ichibanboshi
TitleUnicode:青の一番星
Artist:Shiomi Syuko (CV : Ru Tin)
ArtistUnicode:塩見周子 (CV : ルゥ ティン)
Creator:Fumika
Version:MASTER+
Source:アイドルマスター シンデレラガールズ
Tags:Netsukawa THE IDOLM@STER CINDERELLA GIRLS STARLIGHT STAGE im@s IOSYS ARM The Blue First Star
BeatmapID:1171160
BeatmapSetID:553069

[Difficulty]
HPDrainRate:7.5
CircleSize:3.8
OverallDifficulty:8.5
ApproachRate:9.2
SliderMultiplier:2.22
SliderTickRate:1

[Events]
//Background and Video events
Video,-2900,"Ao no Ichibanboshi.avi"
0,0,"Syuko.jpg",0,0
//Break Periods
2,32812,62245
//Storyboard Layer 0 (Background)
//Storyboard Layer 1 (Fail)
//Storyboard Layer 2 (Pass)
//Storyboard Layer 3 (Foreground)
//Storyboard Sound Samples

[TimingPoints]
3221.16406282132,405.405405405405,4,1,1,80,1,0
63221,-89.2857142857143,4,1,1,80,0,1
76092,-89.2857142857143,4,1,1,80,0,0
76194,-89.2857142857143,4,1,1,80,0,1
82680,-100,4,1,1,80,0,1
87545,-100,4,1,1,80,0,0
92410,-100,4,1,1,80,0,1
102140,-100,4,1,1,80,0,0

[Colours]
Combo1 : 255,128,64
Combo2 : 128,255,255
Combo3 : 128,0,128
Combo4 : 0,128,192
Combo5 : 128,255,128
Combo6 : 255,128,192
Combo7 : 254,203,1
Combo8 : 254,1,89

[HitObjects]
60,316,3221,5,4,0:0:0:0:
88,300,3322,1,0,0:0:0:0:
116,292,3423,1,0,0:0:0:0:
148,292,3525,1,0,0:0:0:0:
180,304,3626,1,0,0:0:0:0:
208,324,3727,1,0,0:0:0:0:
240,332,3829,1,0,0:0:0:0:
272,324,3930,1,0,0:0:0:0:
376,344,4031,5,0,0:0:0:0:
388,312,4133,1,0,0:0:0:0:
400,280,4234,1,0,0:0:0:0:
412,248,4336,1,0,0:0:0:0:
440,232,4437,5,0,0:0:0:0:
436,200,4538,1,0,0:0:0:0:
432,168,4640,1,0,0:0:0:0:
428,136,4741,1,0,0:0:0:0:
372,48,4842,5,0,0:0:0:0:
340,40,4944,1,0,0:0:0:0:
308,40,5045,1,0,0:0:0:0:
276,52,5146,1,0,0:0:0:0:
256,76,5248,1,0,0:0:0:0:
244,108,5349,1,0,0:0:0:0:
244,140,5450,1,0,0:0:0:0:
256,172,5552,1,0,0:0:0:0:
244,256,5653,5,0,0:0:0:0:
176,304,5754,1,0,0:0:0:0:
92,288,5856,2,0,B|72:264|72:264|60:236,1,55.5
108,104,6059,5,0,0:0:0:0:
192,112,6160,1,0,0:0:0:0:
276,120,6261,1,0,0:0:0:0:
360,128,6363,1,0,0:0:0:0:
428,176,6464,6,0,B|460:216|440:256|440:256|444:288,1,111,4|0,0:0|0:0,0:0:0:0:
388,344,6768,2,0,P|324:360|244:296,1,166.5
344,136,7173,1,0,0:0:0:0:
344,136,7275,2,0,L|336:248,1,111
68,320,7680,2,0,L|60:208,1,111
400,52,8086,6,0,P|440:96|432:176,1,111
376,268,8390,2,0,P|332:188|384:116,1,166.5
496,268,8795,1,0,0:0:0:0:
496,268,8896,2,0,B|444:288|444:288|384:272,1,111
144,140,9200,1,0,0:0:0:0:
144,140,9302,2,0,B|196:120|196:120|249:134,1,111
68,344,9707,6,0,L|60:216,1,111,4|0,0:0|0:0,0:0:0:0:
80,96,10011,2,0,L|84:152,1,55.5
432,64,10315,1,0,0:0:0:0:
272,292,10518,6,0,L|280:144,1,111
323,52,10822,2,0,L|320:108,1,55.5
68,40,11126,1,0,0:0:0:0:
392,256,11329,5,4,0:0:0:0:
464,48,11531,1,0,0:0:0:0:
164,296,11734,1,0,0:0:0:0:
56,100,11937,1,0,0:0:0:0:
388,68,12140,5,0,0:0:0:0:
388,68,12207,1,0,0:0:0:0:
388,68,12275,1,0,0:0:0:0:
388,68,12342,1,0,0:0:0:0:
164,296,12545,1,0,0:0:0:0:
56,100,12748,2,0,B|36:100|36:100|24:104|24:104|0:104,1,55.5
212,36,12950,6,0,B|260:28|292:52|292:52|301:73|296:96,1,111
264,156,13254,2,0,P|240:212|348:280,1,166.5
472,212,13660,1,0,0:0:0:0:
472,212,13761,2,0,P|424:184|348:208,1,111
132,340,14167,2,0,P|186:346|232:319,1,111
428,48,14572,6,0,L|432:160,1,111
440,300,14876,2,0,P|412:228|468:164,1,166.5
500,240,15281,1,0,0:0:0:0:
440,300,15383,6,0,L|364:308,1,55.5
252,352,15586,2,0,L|244:276,1,55.5
200,168,15788,2,0,L|276:160,1,55.5
384,112,15991,2,0,L|392:188,1,55.5
432,272,16194,5,0,0:0:0:0:
408,308,16295,1,0,0:0:0:0:
372,332,16396,1,0,0:0:0:0:
328,332,16498,1,0,0:0:0:0:
236,268,16599,5,0,0:0:0:0:
192,244,16700,1,0,0:0:0:0:
144,236,16802,1,0,0:0:0:0:
100,256,16903,1,0,0:0:0:0:
68,360,17004,5,0,0:0:0:0:
68,304,17106,1,0,0:0:0:0:
68,248,17207,1,0,0:0:0:0:
68,192,17309,1,0,0:0:0:0:
44,112,17410,5,0,0:0:0:0:
84,40,17511,1,0,0:0:0:0:
168,24,17613,1,0,0:0:0:0:
236,72,17714,1,0,0:0:0:0:
248,152,17815,6,0,L|244:220,1,55.5
368,56,18018,2,0,L|372:-12,1,55.5
248,152,18221,6,0,L|180:148,1,55.5
344,272,18424,2,0,L|412:276,1,55.5
368,56,18626,5,0,0:0:0:0:
84,36,19031,6,0,P|44:80|56:148,1,111
212,276,19437,2,0,P|236:180|176:128,1,166.5,4|0,0:0|0:0,0:0:0:0:
280,204,19842,2,0,P|340:216|384:192,1,111
456,44,20248,2,0,L|452:156,1,111
236,332,20653,2,0,L|240:220,1,111
32,36,21059,6,0,P|0:76|56:180,1,166.5
180,152,21464,2,0,P|136:104|80:104,1,111
344,264,21869,2,0,P|408:268|452:216,1,111
460,160,22140,1,0,0:0:0:0:
460,160,22207,1,0,0:0:0:0:
460,160,22275,1,0,0:0:0:0:
272,48,22477,1,0,0:0:0:0:
160,240,22680,6,0,P|100:240|56:152,1,166.5
140,44,23086,2,0,B|152:100|152:100|144:160,1,111
360,328,23491,2,0,B|348:272|348:272|356:212,1,111
480,36,23896,1,0,0:0:0:0:
508,200,24099,1,0,0:0:0:0:
256,84,24302,6,0,P|192:76|144:160,1,166.5
164,236,24707,1,0,0:0:0:0:
376,296,24910,1,0,0:0:0:0:
444,84,25113,6,0,L|468:4,1,55.5
368,128,25315,2,0,P|308:112|284:56,1,111
460,356,25923,6,0,L|452:184,1,166.5
424,52,26329,2,0,P|404:104|432:156,1,111
224,56,26734,2,0,P|176:56|124:100,1,111
244,284,27140,1,0,0:0:0:0:
376,104,27342,1,0,0:0:0:0:
164,36,27545,6,0,L|172:224,1,166.5
88,312,27950,2,0,L|92:192,1,111
292,300,28356,2,0,P|348:316|400:288,1,111
440,164,28660,1,0,0:0:0:0:
440,164,28761,2,0,P|384:148|332:176,1,111
124,352,29167,1,0,0:0:0:0:
40,148,29369,6,0,L|36:88,1,55.5
72,224,29572,2,0,P|124:248|180:224,1,111
276,140,29876,1,0,0:0:0:0:
276,140,29977,2,0,P|328:128|380:156,1,111
428,220,30281,1,0,0:0:0:0:
428,220,30383,2,0,L|420:276,1,55.5
500,300,30586,2,0,L|508:360,1,55.5
428,220,30788,6,0,P|420:128|492:96,1,166.5
500,176,31194,1,0,0:0:0:0:
340,332,31396,1,0,0:0:0:0:
144,60,31802,1,0,0:0:0:0:
40,336,32207,5,0,0:0:0:0:
40,336,32309,1,0,0:0:0:0:
40,336,32410,2,0,L|32:216,1,111
256,192,62815,5,8,0:0:0:0:
256,192,63221,5,4,0:0:0:0:
256,192,63423,1,8,0:0:0:0:
256,192,63525,1,8,0:0:0:0:
256,192,63626,1,0,0:0:0:0:
