osu file format v14

[General]
AudioFilename: audio.mp3
AudioLeadIn: 0
PreviewTime: 53372
Countdown: 0
SampleSet: Soft
StackLeniency: 0.5
Mode: 0
LetterboxInBreaks: 0
WidescreenStoryboard: 1

[Editor]
DistanceSpacing: 1
BeatDivisor: 4
GridSize: 32
TimelineZoom: 1

[Metadata]
Title:Koi no Su*Ichakoraizu
TitleUnicode:こいのす☆イチャコライズ
Artist:Shiode Misaki
ArtistUnicode:塩出美彩希
Creator:Dored
Version:Love Nest
Source:こいのす☆イチャコライズ
Tags:Japanese Pop Jpop J-pop eRONDO 仲村芽衣子 Nakamura Meiko 三ツ矢新 Mitsuya Arata 諸田英慈 Morota Eiji maru Eroge Galgame Visual Novel Opening Short Ver Rage Quit Rage_Quit Present AngelSnow Fushimi Rio Fushimi_Rio imoutosan Iceluin
BeatmapID:2824755
BeatmapSetID:1365609

[Difficulty]
HPDrainRate:5
CircleSize:4.1
OverallDifficulty:7.2
ApproachRate:8
SliderMultiplier:1.7
SliderTickRate:1

[Events]
//Background and Video events
0,0,"Ichika1.jpg",0,0
//Break Periods
//Storyboard Layer 0 (Background)
//Storyboard Layer 1 (Fail)
//Storyboard Layer 2 (Pass)
//Storyboard Layer 3 (Foreground)
//Storyboard Layer 4 (Overlay)
//Storyboard Sound Samples

[TimingPoints]
-840,472.44094488189,4,2,1,50,1,0
577,-111.111111111111,4,2,1,50,0,0
6719,-111.111111111111,4,2,1,55,0,0
7663,-111.111111111111,4,2,1,60,0,0
8608,-99.9999999999999,4,2,1,70,0,0
21955,-99.9999999999999,4,2,1,55,0,0
23490,-111.111111111111,4,2,1,60,0,0
46404,-99.9999999999999,4,2,1,65,0,0
53018,-99.9999999999999,4,2,1,40,0,0
53490,-99.9999999999999,4,2,1,70,0,0
53963,-90.9090909090909,4,2,1,80,0,1
83963,-90.9090909090909,4,2,1,80,0,0

[Colours]
Combo1 : 247,89,152
Combo2 : 255,206,239
Combo3 : 251,119,235
Combo4 : 255,204,136

[HitObjects]
397,163,577,5,0,0:0:0:0:
397,163,813,1,0,0:0:0:0:
341,249,1049,6,0,P|416:236|491:222,1,152.999995330811,2|2,1:2|0:0,0:0:0:0:
338,352,1876,1,0,1:0:0:0:
322,362,1994,2,0,P|284:351|248:342,1,76.4999976654053,2|0,0:0|1:0,0:0:0:0:
189,288,2348,2,0,P|152:298|115:307,1,76.4999976654053,2|0,0:0|1:0,0:0:0:0:
54,360,2703,1,2,0:0:0:0:
89,178,2939,6,0,L|164:190,1,76.4999976654053,0|0,1:0|0:0,0:0:0:0:
189,288,3411,1,2,0:0:0:0:
8,233,3648,2,0,P|-7:160|31:96,1,152.999995330811,2|0,0:0|1:0,0:0:0:0:
161,25,4356,1,2,0:0:0:0:
89,178,4593,1,2,0:0:0:0:
245,135,4829,6,0,P|207:125|170:115,1,76.4999976654053,2|0,1:2|0:0,0:0:0:0:
325,79,5301,1,2,0:0:0:0:
275,246,5537,2,0,P|261:190|245:135,1,114.749996498108,2|0,0:0|0:0,0:0:0:0:
216,59,6010,1,2,1:2:0:0:
380,160,6246,2,0,P|416:170|453:179,1,76.4999976654053,2|2,0:0|0:0,0:0:0:0:
499,311,6719,5,2,0:0:0:0:
427,270,6955,1,2,0:0:0:0:
345,285,7191,1,2,0:0:0:0:
292,348,7427,1,10,3:2:0:0:
288,357,7545,1,8,3:2:0:0:
289,366,7663,5,8,3:2:0:0:
388,291,7900,1,10,3:2:0:0:
415,169,8136,1,10,3:2:0:0:
358,58,8372,1,10,3:2:0:0:
242,9,8608,6,0,P|253:49|263:91,1,85,4|0,1:0|0:0,0:0:0:0:
326,209,8963,1,0,3:0:0:0:
310,223,9081,2,0,P|269:211|227:201,1,85,10|0,3:2|0:0,0:0:0:0:
56,160,9553,2,0,P|97:149|138:138,1,85,2|0,1:2|3:0,0:0:0:0:
170,126,9908,1,2,3:2:0:0:
170,126,10026,1,8,0:0:0:0:
234,338,10262,6,0,P|171:284|90:298,1,170,2|2,0:0|3:2,0:0:0:0:
66,322,10852,1,0,3:0:0:0:
66,322,10971,1,10,3:2:0:0:
227,201,11207,2,0,P|308:224|391:244,1,170,2|0,0:0|3:0,0:0:0:0:
490,196,11915,1,10,0:0:0:0:
384,345,12152,1,2,0:0:0:0:
490,196,12388,6,0,P|478:155|468:113,1,85,2|0,1:2|0:0,0:0:0:0:
394,21,12742,1,0,0:0:0:0:
384,40,12860,2,0,P|343:51|301:61,1,85,10|0,0:0|0:0,0:0:0:0:
356,157,13333,1,2,1:2:0:0:
213,24,13569,2,0,P|201:65|191:107,1,85,2|8,3:2|0:0,0:0:0:0:
59,300,14041,6,0,P|46:215|29:132,1,170,2|0,0:0|3:0,0:0:0:0:
19,100,14632,1,0,3:0:0:0:
19,100,14750,1,10,3:2:0:0:
188,207,14986,1,2,3:2:0:0:
191,106,15222,5,2,1:2:0:0:
106,53,15459,1,2,3:2:0:0:
16,224,15695,5,10,0:0:0:0:
276,159,15931,1,2,0:0:0:0:
106,53,16167,6,0,P|117:93|127:135,1,85,2|0,1:2|0:0,0:0:0:0:
4,242,16522,1,0,3:0:0:0:
16,224,16640,2,0,P|56:235|98:245,1,85,10|0,3:2|0:0,0:0:0:0:
270,293,17112,2,0,P|228:302|187:314,1,85,2|0,1:2|3:0,0:0:0:0:
158,332,17467,1,2,3:2:0:0:
158,332,17585,1,8,0:0:0:0:
310,204,17821,6,0,P|364:267|350:348,1,170,2|2,0:0|3:2,0:0:0:0:
326,374,18411,1,0,3:0:0:0:
326,374,18530,1,10,3:2:0:0:
217,175,18766,2,0,P|253:124|313:105,1,127.5,2|0,0:0|0:0,0:0:0:0:
387,127,19238,1,0,3:0:0:0:
187,33,19474,5,10,0:0:0:0:
310,204,19711,1,2,0:0:0:0:
115,162,19947,2,0,L|238:129,1,127.5,0|0,1:0|3:0,0:0:0:0:
313,105,20419,5,10,0:0:0:0:
190,276,20656,1,2,0:0:0:0:
385,234,20892,2,0,L|261:201,1,127.5,2|0,1:2|0:0,0:0:0:0:
187,182,21364,5,10,0:0:0:0:
310,353,21600,1,2,0:0:0:0:
370,52,21837,1,0,1:0:0:0:
256,192,21955,12,8,23254,0:0:0:0:
241,325,23490,5,0,0:0:0:0:
228,338,23608,1,0,0:0:0:0:
215,351,23726,2,0,P|177:340|141:331,1,76.4999976654053,2|0,1:2|0:0,0:0:0:0:
213,232,24199,1,10,0:0:0:0:
93,201,24435,1,0,0:0:0:0:
102,215,24553,1,0,3:0:0:0:
106,230,24671,1,2,1:2:0:0:
4,261,24908,1,2,1:2:0:0:
182,141,25144,1,8,0:0:0:0:
66,50,25380,6,0,P|80:125|93:200,1,152.999995330811,2|0,0:0|0:0,0:0:0:0:
182,141,26089,2,0,P|218:131|256:121,1,76.4999976654053,10|0,0:0|0:0,0:0:0:0:
333,59,26443,1,0,3:0:0:0:
325,42,26561,2,0,P|287:32|250:22,1,76.4999976654053,2|2,1:2|1:2,0:0:0:0:
337,181,27034,2,0,P|397:137|471:145,1,152.999995330811,10|0,0:0|1:0,0:0:0:0:
512,298,27742,5,2,0:0:0:0:
471,145,27978,2,0,P|460:181|451:218,1,76.4999976654053,10|0,0:0|0:0,0:0:0:0:
391,349,28451,2,0,P|381:312|371:275,1,76.4999976654053,2|0,1:2|1:0,0:0:0:0:
451,218,28923,1,10,0:0:0:0:
291,332,29160,2,0,P|254:321|217:312,1,76.4999976654053,2|0,0:0|1:0,0:0:0:0:
371,275,29632,5,2,0:0:0:0:
234,210,29868,2,0,P|271:200|307:190,1,76.4999976654053,10|0,0:0|0:0,0:0:0:0:
337,181,30222,1,0,3:0:0:0:
337,181,30341,1,2,1:2:0:0:
217,312,30577,1,2,1:2:0:0:
164,143,30813,2,0,P|175:106|184:69,1,76.4999976654053,10|0,0:0|0:0,0:0:0:0:
113,0,31285,5,0,1:0:0:0:
17,223,31522,5,2,0:0:0:0:
109,223,31758,1,10,0:0:0:0:
184,275,31994,1,2,0:0:0:0:
215,361,32230,5,2,1:2:0:0:
272,252,32467,1,2,1:2:0:0:
256,130,32703,1,10,0:0:0:0:
173,39,32939,1,2,0:0:0:0:
399,0,33175,5,0,1:0:0:0:
485,223,33411,5,2,0:0:0:0:
393,243,33648,1,10,0:0:0:0:
306,208,33884,1,2,0:0:0:0:
256,130,34120,5,2,1:2:0:0:
272,252,34356,1,2,1:2:0:0:
215,361,34593,2,0,L|178:351,1,38.2499988327027,10|0,0:0|0:0,0:0:0:0:
124,277,34829,2,0,L|87:286,1,38.2499988327027,2|0,0:0|0:0,0:0:0:0:
19,349,35065,6,0,P|10:311|0:274,1,76.4999976654053,0|2,1:0|0:0,0:0:0:0:
150,183,35537,1,10,0:0:0:0:
41,128,35774,1,0,3:0:0:0:
34,143,35892,1,0,3:0:0:0:
33,158,36010,1,2,1:2:0:0:
192,45,36246,1,2,1:2:0:0:
150,183,36482,1,10,0:0:0:0:
75,20,36719,1,2,0:0:0:0:
240,135,36955,6,0,P|276:125|314:116,1,76.4999976654053,0|2,1:0|0:0,0:0:0:0:
438,47,37427,2,0,P|428:83|419:121,1,76.4999976654053,10|2,0:0|3:2,0:0:0:0:
416,153,37782,1,0,3:0:0:0:
416,153,37900,1,2,1:2:0:0:
292,28,38136,1,2,3:2:0:0:
275,210,38372,2,0,P|218:214|172:182,1,114.749996498108,10|0,0:0|0:0,0:0:0:0:
150,106,38845,5,2,1:2:0:0:
9,280,39317,2,0,P|46:286|84:293,1,76.4999976654053,10|0,0:0|3:0,0:0:0:0:
113,306,39671,1,0,3:0:0:0:
113,306,39789,1,2,1:2:0:0:
173,182,40026,1,0,1:0:0:0:
221,370,40262,2,0,P|204:314|191:259,1,114.749996498108,10|0,0:0|0:0,0:0:0:0:
173,182,40734,6,0,B|254:172|234:230|316:219,1,152.999995330811,2|8,1:2|0:0,0:0:0:0:
403,109,41443,1,0,3:0:0:0:
390,120,41561,1,0,3:0:0:0:
377,126,41679,2,0,P|339:132|301:137,1,76.4999976654053,2|0,1:2|1:0,0:0:0:0:
461,249,42152,2,0,P|474:194|490:139,1,114.749996498108,10|0,0:0|0:0,0:0:0:0:
487,58,42624,6,0,P|427:14|353:22,1,152.999995330811,2|8,1:2|0:0,0:0:0:0:
242,51,43333,1,0,3:0:0:0:
223,48,43451,1,0,3:0:0:0:
206,39,43569,2,0,P|212:76|219:114,1,76.4999976654053,2|0,1:2|1:0,0:0:0:0:
403,109,44041,2,0,P|386:164|373:219,1,114.749996498108,10|0,0:0|0:0,0:0:0:0:
357,298,44514,5,2,1:2:0:0:
296,166,44750,1,2,0:0:0:0:
470,257,44986,1,10,0:0:0:0:
240,271,45222,1,2,0:0:0:0:
403,109,45459,2,0,P|439:119|477:128,1,76.4999976654053,0|0,1:0|1:0,0:0:0:0:
323,29,45931,5,10,0:0:0:0:
373,219,46167,1,2,3:2:0:0:
323,29,46404,6,0,P|283:40|241:50,1,85,2|0,1:2|0:0,0:0:0:0:
192,114,46758,2,0,P|152:103|110:93,1,85,2|0,1:2|0:0,0:0:0:0:
81,10,47112,2,0,P|24:68|42:148,1,170,2|2,1:2|1:2,0:0:0:0:
238,208,47821,1,8,0:0:0:0:
109,92,48057,1,2,3:2:0:0:
148,332,48293,6,0,P|157:290|169:249,1,85,2|0,1:2|0:0,0:0:0:0:
238,208,48648,2,0,P|226:167|216:125,1,85,2|0,1:2|0:0,0:0:0:0:
165,55,49002,2,0,P|223:111|303:93,1,170,2|2,1:2|1:2,0:0:0:0:
455,49,49711,2,0,P|413:39|372:27,1,85,10|2,0:0|3:2,0:0:0:0:
282,0,50183,5,2,1:2:0:0:
354,273,50419,1,2,0:0:0:0:
511,136,50656,5,10,0:0:0:0:
238,208,50892,2,0,L|247:249,1,42.5,2|2,0:0|3:2,0:0:0:0:
375,365,51128,5,2,1:2:0:0:
303,92,51364,1,2,1:2:0:0:
146,229,51600,5,10,0:0:0:0:
419,157,51837,1,2,1:2:0:0:
419,157,52309,5,10,1:2:0:0:
238,208,52545,1,10,1:2:0:0:
103,76,52782,1,10,1:2:0:0:
207,122,53018,5,0,3:0:0:0:
188,132,53136,1,0,3:0:0:0:
170,142,53254,1,0,3:0:0:0:
152,153,53372,1,0,3:0:0:0:
134,164,53490,1,6,3:2:0:0:
342,252,53726,1,2,0:0:0:0:
93,329,53963,6,0,P|137:316|183:304,1,93.5000028533936,4|0,1:0|0:0,0:0:0:0:
342,252,54435,2,0,P|296:240|251:227,1,93.5000028533936,10|0,0:0|0:0,0:0:0:0:
107,106,54908,2,0,P|161:147|229:140,1,140.25000428009,2|2,1:2|0:0,0:0:0:0:
287,89,55380,1,8,0:0:0:0:
43,30,55616,6,0,P|70:116|91:210,1,187.000005706787,2|0,0:0|0:0,0:0:0:0:
229,139,56325,1,10,0:0:0:0:
250,127,56443,1,2,0:0:0:0:
273,120,56561,1,2,0:0:0:0:
297,120,56679,1,2,0:0:0:0:
320,125,56797,1,2,1:2:0:0:
412,197,57034,1,0,3:0:0:0:
325,11,57270,5,10,0:0:0:0:
269,229,57506,1,2,0:0:0:0:
139,113,57742,6,0,P|183:126|229:138,1,93.5000028533936,2|0,1:2|0:0,0:0:0:0:
91,210,58215,1,10,0:0:0:0:
224,41,58451,1,2,0:0:0:0:
31,120,58687,1,0,1:0:0:0:
269,229,58923,1,2,0:0:0:0:
19,291,59160,1,8,0:0:0:0:
193,175,59396,6,0,P|180:219|168:265,1,93.5000028533936,2|0,0:0|1:0,0:0:0:0:
53,64,59868,2,0,P|66:108|78:154,1,93.5000028533936,2|8,0:0|0:0,0:0:0:0:
234,11,60341,1,2,0:0:0:0:
229,26,60459,1,2,0:0:0:0:
224,41,60577,2,0,L|270:45,1,46.7500014266968,2|0,1:2|0:0,0:0:0:0:
85,67,60813,2,0,L|131:71,1,46.7500014266968,2|0,0:0|0:0,0:0:0:0:
356,95,61049,5,10,0:0:0:0:
274,270,61285,1,2,3:2:0:0:
266,255,61404,1,0,3:0:0:0:
258,240,61522,2,0,P|214:253|168:265,1,93.5000028533936,2|0,1:2|0:0,0:0:0:0:
10,322,61994,2,0,P|55:333|100:347,1,93.5000028533936,10|0,0:0|0:0,0:0:0:0:
205,130,62467,2,0,P|185:197|168:265,1,140.25000428009,2|2,1:2|0:0,0:0:0:0:
201,334,62939,1,8,0:0:0:0:
296,96,63175,6,0,P|230:34|143:54,1,187.000005706787,2|2,0:0|0:0,0:0:0:0:
258,240,63884,1,10,0:0:0:0:
81,151,64120,1,2,3:2:0:0:
97,155,64238,1,0,3:0:0:0:
113,154,64356,2,0,P|158:142|203:128,1,93.5000028533936,0|0,1:0|3:0,0:0:0:0:
390,64,64829,5,10,0:0:0:0:
258,240,65065,1,2,0:0:0:0:
512,176,65301,6,0,P|443:183|389:142,1,140.25000428009,2|0,1:2|0:0,0:0:0:0:
390,64,65774,1,10,0:0:0:0:
258,240,66010,2,0,P|267:194|275:148,1,93.5000028533936,2|0,0:0|1:0,0:0:0:0:
370,246,66482,1,2,0:0:0:0:
150,207,66719,2,0,P|159:252|167:298,1,93.5000028533936,10|2,0:0|0:0,0:0:0:0:
57,278,67191,5,0,1:0:0:0:
275,148,67427,1,0,3:0:0:0:
161,69,67663,1,8,0:0:0:0:
251,328,67900,1,0,3:0:0:0:
269,326,68018,1,0,3:0:0:0:
285,319,68136,1,0,1:0:0:0:
57,278,68372,1,0,1:0:0:0:
275,148,68608,5,10,0:0:0:0:
136,374,68845,1,2,1:2:0:0:
4,208,69081,6,0,P|49:196|94:182,1,93.5000028533936,4|0,1:0|0:0,0:0:0:0:
251,328,69553,2,0,P|206:314|160:302,1,93.5000028533936,10|0,0:0|0:0,0:0:0:0:
222,67,70026,2,0,P|181:121|188:189,1,140.25000428009,2|2,1:2|0:0,0:0:0:0:
247,239,70498,1,8,0:0:0:0:
455,99,70734,6,0,P|363:119|274:147,1,187.000005706787,2|0,0:0|0:0,0:0:0:0:
135,37,71443,1,10,0:0:0:0:
153,52,71561,1,2,0:0:0:0:
175,63,71679,1,2,0:0:0:0:
199,68,71797,1,2,0:0:0:0:
222,67,71915,1,2,1:2:0:0:
320,12,72152,1,0,3:0:0:0:
188,189,72388,5,10,0:0:0:0:
25,31,72624,1,2,0:0:0:0:
80,215,72860,6,0,P|94:260|106:306,1,93.5000028533936,2|0,1:2|0:0,0:0:0:0:
188,189,73333,1,10,0:0:0:0:
0,300,73569,1,2,0:0:0:0:
203,348,73805,1,0,1:0:0:0:
106,110,74041,1,2,0:0:0:0:
331,241,74278,1,8,0:0:0:0:
141,190,74514,6,0,P|185:203|231:215,1,93.5000028533936,2|0,0:0|1:0,0:0:0:0:
0,300,74986,2,0,P|44:286|90:274,1,93.5000028533936,2|8,0:0|0:0,0:0:0:0:
261,146,75459,1,2,0:0:0:0:
248,157,75577,1,2,0:0:0:0:
235,168,75695,2,0,L|231:214,1,46.7500014266968,2|0,1:2|0:0,0:0:0:0:
177,35,75931,2,0,L|173:81,1,46.7500014266968,2|0,0:0|0:0,0:0:0:0:
158,307,76167,5,10,0:0:0:0:
373,361,76404,1,2,3:2:0:0:
357,357,76522,1,0,3:0:0:0:
341,353,76640,2,0,P|295:364|250:378,1,93.5000028533936,2|0,1:2|0:0,0:0:0:0:
370,198,77112,2,0,P|414:211|460:222,1,93.5000028533936,10|0,0:0|0:0,0:0:0:0:
252,95,77585,2,0,P|320:78|387:57,1,140.25000428009,2|2,1:2|0:0,0:0:0:0:
459,85,78057,1,8,0:0:0:0:
219,187,78293,6,0,P|157:121|177:34,1,187.000005706787,2|2,0:0|0:0,0:0:0:0:
333,120,79002,1,10,0:0:0:0:
260,301,79238,1,2,3:2:0:0:
254,316,79356,1,0,3:0:0:0:
248,331,79474,2,0,P|203:317|157:306,1,93.5000028533936,0|0,1:0|3:0,0:0:0:0:
0,320,79947,5,10,0:0:0:0:
219,187,80183,1,2,0:0:0:0:
16,44,80419,6,0,P|36:110|53:178,1,140.25000428009,2|0,1:2|0:0,0:0:0:0:
71,254,80892,1,10,0:0:0:0:
219,107,81128,2,0,P|173:95|128:81,1,93.5000028533936,2|0,0:0|1:0,0:0:0:0:
299,37,81600,1,2,0:0:0:0:
182,230,81837,2,0,P|226:216|272:204,1,93.5000028533936,10|2,0:0|0:0,0:0:0:0:
466,65,82309,6,0,P|461:89|457:111,1,46.7500014266968,2|0,1:2|0:0,0:0:0:0:
443,222,82545,1,0,3:0:0:0:
271,204,82782,6,0,P|275:226|279:250,1,46.7500014266968,10|0,0:0|0:0,0:0:0:0:
294,361,83018,1,0,3:0:0:0:
347,124,83254,5,2,1:2:0:0:
93,256,83490,1,2,1:2:0:0:
393,316,83726,1,10,0:0:0:0:
205,26,83963,1,2,1:2:0:0:
