osu file format v14

[General]
AudioFilename: audio.mp3
AudioLeadIn: 0
PreviewTime: 53372
Countdown: 0
SampleSet: None
StackLeniency: 0.7
Mode: 0
LetterboxInBreaks: 0
WidescreenStoryboard: 1

[Editor]
DistanceSpacing: 1
BeatDivisor: 2
GridSize: 32
TimelineZoom: 1

[Metadata]
Title:Koi no Su*Ichakoraizu
TitleUnicode:こいのす☆イチャコライズ
Artist:Shiode Misaki
ArtistUnicode:塩出美彩希
Creator:Dored
Version:Easy
Source:こいのす☆イチャコライズ
Tags:Japanese Pop Jpop J-pop eRONDO 仲村芽衣子 Nakamura Meiko 三ツ矢新 Mitsuya Arata 諸田英慈 Morota Eiji maru Eroge Galgame Visual Novel Opening Short Ver Rage Quit Rage_Quit Present AngelSnow Fushimi Rio Fushimi_Rio imoutosan Iceluin
BeatmapID:2824756
BeatmapSetID:1365609

[Difficulty]
HPDrainRate:2
CircleSize:3.2
OverallDifficulty:2.4
ApproachRate:3
SliderMultiplier:0.999999999999999
SliderTickRate:1

[Events]
//Background and Video events
0,0,"Sachi2.jpg",0,0
//Break Periods
//Storyboard Layer 0 (Background)
//Storyboard Layer 1 (Fail)
//Storyboard Layer 2 (Pass)
//Storyboard Layer 3 (Foreground)
//Storyboard Layer 4 (Overlay)
//Storyboard Sound Samples

[TimingPoints]
-840,472.44094488189,4,2,1,50,1,0
6719,-100,4,2,1,55,0,0
7663,-100,4,2,1,60,0,0
8608,-100,4,2,1,70,0,0
22073,-100,4,2,1,55,0,0
23726,-100,4,2,1,60,0,0
50183,-100,4,2,1,65,0,0
53490,-100,4,2,1,70,0,0
53963,-100,4,2,1,80,0,1
83963,-100,4,2,1,80,0,0

[Colours]
Combo1 : 247,89,152
Combo2 : 255,206,239
Combo3 : 251,119,235
Combo4 : 255,204,136

[HitObjects]
48,48,6718,5,2,0:0:0:0:
97,133,7191,1,2,0:0:0:0:
193,159,7663,1,8,3:2:0:0:
279,108,8135,1,10,3:2:0:0:
304,12,8608,6,0,L|207:37,1,99.9999999999999,4|10,1:0|3:2,0:0:0:0:
279,108,9553,2,0,P|328:107|371:131,1,99.9999999999999,2|8,1:2|0:0,0:0:0:0:
467,103,10498,2,0,L|441:6,2,99.9999999999999,0|10|0,1:0|3:2|1:0,0:0:0:0:
494,198,11915,1,10,0:0:0:0:
399,225,12388,6,0,P|350:211|302:200,1,99.9999999999999,2|10,1:2|0:0,0:0:0:0:
256,289,13333,2,0,P|212:313|163:312,1,99.9999999999999,2|8,1:2|0:0,0:0:0:0:
74,266,14278,1,0,1:0:0:0:
117,177,14750,2,0,P|165:165|213:152,1,99.9999999999999,10|2,3:2|1:2,0:0:0:0:
302,200,15695,1,10,0:0:0:0:
371,131,16167,6,0,L|346:34,1,99.9999999999999,2|10,1:2|3:2,0:0:0:0:
249,59,17112,2,0,P|199:59|156:35,1,99.9999999999999,2|8,1:2|0:0,0:0:0:0:
116,127,18057,2,0,L|19:102,2,99.9999999999999,0|10|0,1:0|3:2|1:0,0:0:0:0:
213,152,19474,1,10,0:0:0:0:
141,222,19947,6,0,P|154:270|165:318,1,99.9999999999999,0|10,1:0|0:0,0:0:0:0:
256,362,20892,2,0,P|267:313|280:265,1,99.9999999999999,2|10,1:2|0:0,0:0:0:0:
347,190,21837,2,0,P|428:179|369:307,1,300,0|8,1:0|0:0,0:0:0:0:
280,265,23726,6,0,L|183:290,1,99.9999999999999,2|10,1:2|0:0,0:0:0:0:
83,289,24671,2,0,L|95:337,2,50,2|2|8,1:2|1:2|0:0,0:0:0:0:
133,202,25616,2,0,P|183:202|226:178,1,99.9999999999999,0|10,1:0|0:0,0:0:0:0:
256,82,26561,1,2,1:2:0:0:
172,27,27034,1,10,0:0:0:0:
108,105,27506,6,0,P|121:153|132:201,1,99.9999999999999,0|10,1:0|0:0,0:0:0:0:
83,289,28451,2,0,L|34:301,2,50,2|0|10,1:2|1:0|0:0,0:0:0:0:
183,289,29396,1,0,1:0:0:0:
232,201,29868,2,0,P|280:214|328:225,1,99.9999999999999,10|2,0:0|1:2,0:0:0:0:
424,192,30813,1,10,0:0:0:0:
348,126,31285,5,0,1:0:0:0:
414,50,31758,2,0,P|462:63|510:74,2,99.9999999999999,10|2|10,0:0|1:2|0:0,0:0:0:0:
348,126,33175,1,0,1:0:0:0:
272,60,33648,2,0,P|224:73|176:84,2,99.9999999999999,10|2|10,0:0|1:2|0:0,0:0:0:0:
348,126,35065,6,0,P|335:174|324:222,1,99.9999999999999,0|10,1:0|0:0,0:0:0:0:
381,304,36010,2,0,L|429:291,2,50,2|2|10,1:2|1:2|0:0,0:0:0:0:
299,362,36955,2,0,P|255:338|206:338,1,99.9999999999999,0|10,1:0|0:0,0:0:0:0:
112,373,37900,1,2,1:2:0:0:
50,295,38372,1,10,0:0:0:0:
105,211,38845,6,0,L|202:236,2,99.9999999999999,2|10|2,1:2|0:0|1:2,0:0:0:0:
43,133,40262,1,10,0:0:0:0:
98,49,40734,2,0,P|141:72|190:72,1,99.9999999999999,2|8,1:2|0:0,0:0:0:0:
272,15,41679,1,2,1:2:0:0:
351,75,42152,1,10,0:0:0:0:
431,18,42624,6,0,P|444:66|455:114,1,99.9999999999999,2|8,1:2|0:0,0:0:0:0:
512,196,43569,2,0,P|498:244|487:292,1,99.9999999999999,2|10,1:2|0:0,0:0:0:0:
416,363,44514,2,0,P|372:339|322:340,2,99.9999999999999,2|10|0,1:2|0:0|1:0,0:0:0:0:
487,292,45931,1,10,0:0:0:0:
427,211,46404,6,0,L|354:230,2,74.9999999999999,2|2|2,1:2|1:2|1:2,0:0:0:0:
455,114,47585,1,2,1:2:0:0:
336,24,48293,2,0,L|355:96,2,74.9999999999999,2|2|2,1:2|1:2|1:2,0:0:0:0:
278,161,49711,1,10,0:0:0:0:
192,107,50183,5,2,1:2:0:0:
114,172,50656,1,10,0:0:0:0:
151,266,51128,2,0,P|199:277|247:290,1,99.9999999999999,2|10,1:2|0:0,0:0:0:0:
292,313,51837,1,2,1:2:0:0:
350,231,52309,2,0,L|398:218,2,50,10|10|10,1:2|1:2|1:2,0:0:0:0:
495,266,53490,1,6,3:2:0:0:
489,155,53963,6,0,P|475:106|464:58,1,99.9999999999999,4|10,1:0|0:0,0:0:0:0:
373,16,54908,2,0,P|324:15|281:39,1,99.9999999999999,2|8,1:2|0:0,0:0:0:0:
208,108,55852,2,0,P|159:109|116:85,2,99.9999999999999,0|10|2,1:0|0:0|1:2,0:0:0:0:
303,137,57270,1,10,0:0:0:0:
230,205,57742,6,0,P|181:219|133:230,1,99.9999999999999,2|10,1:2|0:0,0:0:0:0:
33,203,58687,2,0,P|46:251|57:299,1,99.9999999999999,0|8,1:0|0:0,0:0:0:0:
104,321,59396,2,0,P|152:323|196:301,2,99.9999999999999,2|2|2,0:0|0:0|0:0,0:0:0:0:
57,299,60577,1,2,1:2:0:0:
133,229,61049,1,10,0:0:0:0:
33,203,61522,6,0,P|21:154|8:106,1,99.9999999999999,2|10,1:2|0:0,0:0:0:0:
75,32,62467,2,0,P|123:20|171:6,1,99.9999999999999,2|8,1:2|0:0,0:0:0:0:
238,82,63411,2,0,P|215:125|217:175,2,99.9999999999999,0|10|0,1:0|0:0|1:0,0:0:0:0:
313,15,64829,1,10,0:0:0:0:
379,89,65301,6,0,P|427:100|475:113,1,99.9999999999999,2|10,1:2|0:0,0:0:0:0:
512,149,66010,1,2,0:0:0:0:
427,202,66482,2,0,P|403:195|378:188,2,50,2|10|2,0:0|0:0|0:0,0:0:0:0:
463,237,67191,2,0,P|485:280|483:330,1,99.9999999999999,0|8,1:0|0:0,0:0:0:0:
394,376,68136,1,0,1:0:0:0:
327,303,68608,1,10,0:0:0:0:
238,348,69081,6,0,P|190:334|141:322,1,99.9999999999999,4|10,1:0|0:0,0:0:0:0:
112,226,70026,2,0,P|161:226|204:202,1,99.9999999999999,2|8,1:2|0:0,0:0:0:0:
137,128,70971,2,0,P|149:79|162:31,2,99.9999999999999,0|10|2,1:0|0:0|1:2,0:0:0:0:
43,92,72388,1,10,0:0:0:0:
25,190,72860,6,0,P|39:239|50:287,1,99.9999999999999,2|10,1:2|0:0,0:0:0:0:
141,322,73805,2,0,P|184:297|233:298,1,99.9999999999999,0|8,1:0|0:0,0:0:0:0:
272,330,74514,2,0,P|320:341|368:354,2,99.9999999999999,2|2|2,0:0|0:0|0:0,0:0:0:0:
233,298,75695,1,2,1:2:0:0:
301,225,76167,1,10,0:0:0:0:
204,202,76640,6,0,P|218:153|229:105,1,99.9999999999999,2|10,1:2|0:0,0:0:0:0:
289,25,77585,2,0,P|332:49|381:48,1,99.9999999999999,2|8,1:2|0:0,0:0:0:0:
405,145,78530,2,0,P|356:156|308:169,2,99.9999999999999,0|10|0,1:0|0:0|1:0,0:0:0:0:
480,211,79947,1,10,0:0:0:0:
440,302,80419,6,0,P|396:277|347:278,1,99.9999999999999,2|10,1:2|0:0,0:0:0:0:
308,310,81128,1,2,0:0:0:0:
227,251,81600,2,0,P|220:226|213:202,2,50,2|10|2,0:0|0:0|0:0,0:0:0:0:
187,282,82309,1,2,1:2:0:0:
96,239,82782,1,10,0:0:0:0:
53,330,83254,2,0,P|28:323|4:316,2,50,2|2|10,1:2|1:2|0:0,0:0:0:0:
96,357,83963,1,2,1:2:0:0:
