osu file format v14

[General]
AudioFilename: ww.mp3
AudioLeadIn: 1500
PreviewTime: 547
Countdown: 0
SampleSet: Soft
StackLeniency: 0.7
Mode: 2
LetterboxInBreaks: 1
WidescreenStoryboard: 1

[Editor]
DistanceSpacing: 0.7
BeatDivisor: 4
GridSize: 4
TimelineZoom: 3.199999

[Metadata]
Title:Wonderful World
TitleUnicode:Wonderful World
Artist:Shintani Ryoko
ArtistUnicode:新谷良子
Creator:Sooty
Version:Amazing Grace
Source:
Tags:そして明日の世界より―― And from the tomorrow's world
BeatmapID:1324249
BeatmapSetID:628074

[Difficulty]
HPDrainRate:7
CircleSize:4
OverallDifficulty:9.5
ApproachRate:9.5
SliderMultiplier:1.4
SliderTickRate:1

[Events]
//Background and Video events
0,0,"BG_2x.png",0,0
//Break Periods
2,91650,99461
//Storyboard Layer 0 (Background)
//Storyboard Layer 1 (Fail)
//Storyboard Layer 2 (Pass)
//Storyboard Layer 3 (Foreground)
//Storyboard Sound Samples

[TimingPoints]
677,517.241379310345,4,2,4,20,1,0
677,-133.333333333333,4,2,4,20,0,0
2745,-133.333333333333,4,2,1,20,0,0
4297,-133.333333333333,4,2,4,20,0,0
4814,-133.333333333333,4,2,1,20,0,0
5849,-133.333333333333,4,2,4,20,0,0
7918,-133.333333333333,4,2,1,20,0,0
8629,-133.333333333333,4,2,1,5,0,0
8952,-133.333333333333,4,2,4,20,0,0
11021,-133.333333333333,4,2,1,20,0,0
12573,-133.333333333333,4,2,4,20,0,0
13090,-133.333333333333,4,2,1,20,0,0
14642,-133.333333333333,4,2,1,40,0,0
15159,258.620689655172,4,1,1,35,1,0
15385,258.620689655172,4,1,1,35,1,0
16193,258.620689655172,4,1,1,35,1,0
21721,258.620689655172,4,1,1,35,1,0
22399,258.620689655172,4,1,1,35,1,0
23433,-100,4,2,4,55,0,0
23498,-100,4,2,1,55,0,0
29640,-100,4,1,1,40,0,0
31709,-100,4,2,4,55,0,0
31967,-100,4,2,1,45,0,0
47226,-100,4,2,1,55,0,0
48261,-100,4,2,3,60,0,0
48325,-100,4,2,1,60,0,0
49263,258.620689655172,4,2,1,60,1,0
51364,258.620689655172,4,2,1,60,1,0
52398,-100,4,2,1,60,0,0
55485,276.497695852535,4,2,1,60,1,0
55905,258.620689655172,4,2,1,60,1,0
56519,258.620689655172,4,2,1,60,1,0
56519,-100,4,2,3,60,0,0
56583,-100,4,2,1,60,0,0
57021,258.620689655172,4,2,1,60,1,0
58605,258.620689655172,4,2,1,60,1,0
60673,-100,4,1,1,50,0,0
61175,258.620689655172,4,1,1,50,1,0
62468,-100,4,2,3,60,0,0
62745,258.620689655172,4,1,1,65,1,0
63779,-100,4,1,1,25,0,0
64038,-100,4,1,1,65,0,0
65460,-100,4,1,1,30,0,0
65977,-100,4,1,1,40,0,0
66365,-100,4,1,1,45,0,0
66495,-100,4,1,1,48,0,0
66559,-100,4,1,1,50,0,0
66591,-100,4,1,1,52,0,0
66624,-100,4,1,1,54,0,0
66656,-100,4,1,1,56,0,0
66688,-100,4,1,1,58,0,0
66721,-100,4,1,1,60,0,0
66753,-100,4,1,1,62,0,0
66785,-100,4,1,1,64,0,0
66818,-100,4,1,1,66,0,0
66850,-100,4,1,1,68,0,0
66883,517.241379310345,4,2,1,70,1,0
67012,-100,4,2,4,35,0,0
71020,-100,4,2,1,35,0,0
71150,-100,4,2,4,35,0,0
73089,-100,4,2,1,100,0,0
73122,-100,4,2,1,5,0,0
73154,-100,4,2,4,5,0,0
73607,-100,4,2,4,10,0,0
73671,-100,4,2,4,15,0,0
73736,-100,4,2,4,20,0,0
73801,-100,4,2,4,25,0,0
73865,-100,4,2,4,30,0,0
73930,-100,4,2,4,35,0,0
73995,-100,4,2,4,40,0,0
74059,-100,4,2,4,45,0,0
74124,258.620689655172,4,1,2,35,1,0
74641,-100,4,1,2,50,0,0
75158,-100,4,1,1,70,0,1
81430,-100,4,2,1,75,0,1
82399,-100,4,1,1,70,0,1
84339,-100,4,2,4,70,0,1
84727,-100,4,1,1,70,0,1
88477,-100,4,1,1,70,0,1
90029,-100,4,2,1,90,0,1
90417,-100,4,1,1,25,0,0
91192,-100,4,2,1,45,0,0
91710,-100,4,2,1,45,0,0
99986,-100,4,2,4,55,0,0
103348,-100,4,2,1,55,0,0
103736,-100,4,2,4,55,0,0
107486,-100,4,2,2,35,0,0
108261,-100,4,2,1,75,0,0
108779,-100,4,2,1,55,0,0
109296,-100,4,1,1,55,0,0
110330,-100,4,2,1,75,0,0
111365,-100,4,2,4,75,0,0
112399,-100,4,2,1,55,0,0
113434,-100,4,2,2,55,0,0
114468,-100,4,2,1,55,0,0
116020,-100,4,2,2,55,0,0
116279,-100,4,2,2,70,0,0
116408,-100,4,2,2,95,0,0
116537,-58.8235294117647,4,2,2,95,0,0
116667,-100,4,1,1,55,0,0
121176,258.620689655172,4,1,1,55,1,0
124813,258.620689655172,4,1,1,55,1,0
131019,-100,4,1,1,60,0,0
134656,-100,4,2,4,40,0,0
134672,-100,4,2,4,43,0,0
134705,-100,4,2,4,46,0,0
134737,-100,4,2,4,49,0,0
134769,-100,4,2,4,52,0,0
134802,-100,4,2,4,55,0,0
134834,-100,4,2,4,58,0,0
134866,-100,4,2,4,61,0,0
134899,-100,4,2,4,70,0,0
134931,-100,4,2,4,73,0,0
134963,-100,4,2,4,76,0,0
134996,-100,4,2,4,79,0,0
135028,-100,4,2,4,82,0,0
135060,-100,4,2,4,85,0,0
135093,-100,4,2,4,88,0,0
135125,-100,4,2,4,91,0,0
135158,517.241379310345,4,2,1,100,1,0
135222,-100,4,2,4,45,0,0
139295,-66.6666666666667,4,2,1,45,0,0
139360,-66.6666666666667,4,2,4,45,0,0
140847,-100,4,2,4,45,0,0
141364,-133.333333333333,4,2,1,70,0,0
142011,-133.333333333333,4,2,1,10,0,0
142399,-100,4,2,4,45,0,0
143433,-100,4,2,1,45,0,0
147571,-100,4,2,1,75,0,0
148606,-100,4,1,1,25,0,0
149640,258.620689655172,4,1,1,40,1,0
149640,-133.333333333333,4,1,1,40,0,0
151708,-100,4,1,1,50,0,0
153777,-100,4,1,1,60,0,0
154812,-50,4,2,1,80,0,0
155006,-100,4,2,1,5,0,0
155846,-100,4,1,1,70,0,1
162111,-100,4,2,1,75,0,1
163089,-100,4,1,1,70,0,1
172398,-133.333333333333,4,1,1,40,0,0
179090,258.620689655172,4,1,1,40,1,0
179090,-133.333333333333,4,1,1,40,0,0
181708,258.620689655172,4,1,1,40,1,0
181708,-133.333333333333,4,1,1,40,0,0
186864,258.620689655172,4,1,1,40,1,0
186864,-133.333333333333,4,1,1,40,0,0
187898,-133.333333333333,4,2,4,70,0,0
188949,258.620689655172,4,1,3,40,1,0
188949,-66.6666666666667,4,1,3,40,0,0
189336,-100,4,1,3,40,0,0
192165,258.620689655172,4,1,3,40,1,0
193086,258.620689655172,4,1,3,40,1,0
200440,258.620689655172,4,1,3,40,1,0
201361,258.620689655172,4,1,3,40,1,0
203429,-100,4,2,4,40,0,0
203947,-100,4,2,4,60,0,0
204464,-100,4,2,4,80,0,0
204981,-50,4,2,1,40,0,0
205498,517.241379310345,4,2,4,90,1,0
205498,-50,4,2,4,90,0,0
206015,-100,4,2,4,90,0,0
207566,-100,4,2,1,50,0,0
208084,-100,4,2,4,50,0,0
209118,-100,4,2,1,50,0,0
209635,-100,4,2,4,50,0,0
210153,-100,4,2,1,50,0,0
211704,-100,4,2,4,50,0,0
213256,-100,4,2,1,50,0,0
213773,258.620689655172,4,1,1,35,1,0
215841,-100,4,1,1,45,0,0
217910,-100,4,1,1,55,0,0
219979,-66.6666666666667,4,1,1,55,0,0
221014,-100,4,2,1,55,0,0
222048,-90.9090909090909,4,1,3,50,0,1
226190,258.620689655172,4,1,3,50,1,1
226190,-90.9090909090909,4,1,3,50,0,1
238604,-100,4,1,3,50,0,1
246879,-90.9090909090909,4,1,1,65,0,1
251534,-90.9090909090909,4,1,1,40,0,1
253086,-90.9090909090909,4,1,1,55,0,0
253991,-90.9090909090909,4,1,1,50,0,1
254121,-100,4,1,1,50,0,1
254896,-100,4,2,4,50,0,1
255155,-66.6666666666667,4,1,1,50,0,0
255543,-100,4,1,1,50,0,0
256189,-100,4,2,4,70,0,0
256448,-100,4,2,1,70,0,0
257224,-100,4,1,1,50,0,0
258258,-100,4,2,4,60,0,0
258517,-100,4,2,1,60,0,0
259293,-100,4,1,1,50,0,0
260327,-100,4,2,4,50,0,0
260586,-100,4,2,1,50,0,0
261362,-100,4,1,1,50,0,0
262396,-100,4,2,4,40,0,0
262655,-100,4,2,1,40,0,0
263431,-100,4,1,1,40,0,0
264465,-100,4,2,4,40,0,0
264724,-100,4,1,1,40,0,0
267311,-100,4,2,4,90,0,0
267569,-100,4,1,1,45,0,0
268086,-100,4,1,1,50,0,0

[Colours]
Combo1 : 166,83,83
Combo2 : 65,50,194
Combo3 : 255,128,255
Combo4 : 128,255,255

[HitObjects]
188,192,1194,6,0,L|76:192,2,105.000004005432,2|0|0,0:0|0:0|0:0,0:0:0:0:
384,228,2745,2,0,B|480:192|480:192|384:144,1,210.000008010865,4|0,0:0|0:0,0:0:0:0:
164,128,4297,2,0,L|100:128,1,52.5000020027161,2|0,0:0|0:0,0:0:0:0:
440,124,4814,6,0,L|368:40,1,105.000004005432,2|0,0:0|0:0,0:0:0:0:
156,128,5849,2,0,L|264:128,1,105.000004005432,2|0,0:0|0:0,0:0:0:0:
476,192,6883,2,0,L|460:300,1,105.000004005432,2|0,0:0|0:0,0:0:0:0:
40,192,7918,6,0,L|264:192,1,210.000008010865,4|0,0:0|0:0,0:0:0:0:
416,192,9470,6,0,L|296:192,1,105.000004005432,2|0,0:0|0:0,0:0:0:0:
92,192,10504,2,0,L|24:192,1,52.5000020027161
384,192,11021,2,0,L|513:192,2,105.000004005432,4|0|0,0:0|0:0|0:0,0:0:0:0:
112,192,12573,6,0,L|164:192,1,52.5000020027161,2|0,0:0|0:0,0:0:0:0:
368,192,13090,2,0,L|489:192,1,105.000004005432,2|0,0:0|0:0,0:0:0:0:
384,280,13866,5,2,0:0:0:0:
276,280,14125,1,0,0:0:0:0:
332,200,14383,1,0,0:0:0:0:
384,280,14642,2,0,L|448:280,1,52.5000020027161,2|0,0:0|0:0,0:0:0:0:
83,284,15159,6,8,L|83:208,1,70,12|8,0:0|0:0,0:0:0:0:
428,284,15385,2,8,L|428:208,1,70,12|8,0:0|0:0,0:0:0:0:
152,192,18779,5,8,0:0:0:0:
360,192,18908,1,8,0:0:0:0:
152,192,19038,2,0,L|152:300,1,105,8|0,0:0|0:0,0:0:0:0:
392,156,19296,6,0,L|488:156,1,70,12|0,0:0|0:0,0:0:0:0:
104,152,19555,2,0,L|20:152,1,70,12|0,0:0|0:0,0:0:0:0:
332,116,21721,6,0,L|384:128,1,35,8|0,0:0|0:0,0:0:0:0:
164,152,21850,2,0,L|28:192,1,140,8|0,0:0|0:0,0:0:0:0:
316,192,22238,1,2,0:0:0:0:
92,272,22399,5,0,0:0:0:0:
28,272,22528,1,0,0:0:0:0:
384,272,22657,1,0,0:0:0:0:
448,272,22786,1,0,0:0:0:0:
128,272,22916,5,8,0:0:0:0:
64,272,23046,1,8,0:0:0:0:
384,272,23174,1,10,0:0:0:0:
448,272,23305,1,10,0:0:0:0:
116,192,23433,6,0,L|80:44,1,140,4|0,0:0|0:0,0:0:0:0:
359,192,23821,1,0,0:0:0:0:
128,272,23950,2,0,P|52:272|0:224,1,140,2|0,0:0|0:0,0:0:0:0:
328,276,24338,6,0,L|328:200,1,70,2|0,0:0|0:0,0:0:0:0:
184,208,24597,2,0,L|260:208,1,70,2|0,0:0|0:0,0:0:0:0:
328,128,24855,1,0,0:0:0:0:
68,128,24985,6,0,L|220:128,1,140,2|0,0:0|0:0,0:0:0:0:
308,24,25373,2,0,L|304:72,1,35
136,128,25502,6,0,P|116:196|144:276,1,140,2|0,0:0|0:0,0:0:0:0:
236,264,25890,1,0,0:0:0:0:
460,264,26019,2,0,L|480:188,1,70,2|0,0:0|0:0,0:0:0:0:
368,192,26278,1,0,0:0:0:0:
152,32,26407,5,2,0:0:0:0:
132,68,26473,1,0,0:0:0:0:
124,112,26536,1,6,0:0:0:0:
128,156,26602,1,0,0:0:0:0:
148,192,26667,2,0,L|204:192,1,35
352,192,26795,5,6,0:0:0:0:
380,224,26860,1,0,0:0:0:0:
388,272,26924,2,0,L|352:272,1,35
140,280,27055,5,6,0:0:0:0:
105,280,27118,1,0,0:0:0:0:
76,280,27184,2,0,L|32:280,1,35
452,324,27312,5,6,0:0:0:0:
472,292,27378,2,0,L|496:252,1,35
264,252,27571,6,0,P|272:200|316:160,1,105,2|0,0:0|0:0,0:0:0:0:
360,156,27830,2,0,L|264:156,1,70
80,268,28088,6,0,L|152:356,1,105,2|0,0:0|0:0,0:0:0:0:
176,328,28347,2,0,L|252:328,1,70
471,86,28605,6,0,L|439:174,1,70,2|0,0:0|0:0,0:0:0:0:
184,68,28865,2,0,L|192:152,1,70,2|0,0:0|0:0,0:0:0:0:
396,296,29124,2,0,L|388:216,1,70,2|0,0:0|0:0,0:0:0:0:
372,200,29317,1,0,0:0:0:0:
104,232,29381,2,0,L|112:332,1,70,2|0,0:0|0:0,0:0:0:0:
389,226,29641,5,14,0:0:0:0:
400,184,29769,1,10,0:0:0:0:
416,132,29898,1,10,0:0:0:0:
96,152,30028,1,6,0:0:0:0:
256,192,30417,5,2,0:0:0:0:
248,228,30545,1,2,0:0:0:0:
236,272,30674,1,2,0:0:0:0:
504,252,30805,1,6,0:0:0:0:
368,192,31193,5,2,0:0:0:0:
104,192,31322,2,0,P|68:264|124:296,1,140,4|0,0:0|0:0,0:0:0:0:
436,104,31710,6,0,P|448:172|436:264,1,140,4|8,0:0|0:0,0:0:0:0:
276,276,32227,2,0,L|216:204,2,70,0|0|8,0:0|0:0|0:0,0:0:0:0:
372,276,32615,1,0,0:0:0:0:
80,276,32743,6,0,P|64:204|72:128,1,140,2|8,0:0|0:0,0:0:0:0:
300,112,33131,1,2,0:0:0:0:
220,88,33261,1,0,0:0:0:0:
136,92,33391,1,2,0:0:0:0:
408,184,33519,5,10,0:0:0:0:
69,138,33779,2,0,L|93:294,1,140,2|8,0:0|0:0,0:0:0:0:
176,280,34167,1,0,0:0:0:0:
408,276,34296,6,0,L|476:260,2,70,0|2|8,0:0|0:0|0:0,0:0:0:0:
312,272,34684,1,0,0:0:0:0:
88,272,34812,6,0,P|40:236|96:208,1,140,2|8,0:0|0:0,0:0:0:0:
312,272,35200,2,0,P|356:216|308:192,1,140,2|2,0:0|0:0,0:0:0:0:
90,205,35588,6,0,L|88:288,1,70,8|0,0:0|0:0,0:0:0:0:
320,192,35847,2,0,L|404:232,1,70,2|0,0:0|0:0,0:0:0:0:
500,116,36105,2,0,L|476:196,1,70,8|0,0:0|0:0,0:0:0:0:
464,236,36299,1,0,0:0:0:0:
272,148,36365,2,0,L|220:204,1,70,2|0,0:0|0:0,0:0:0:0:
368,280,36624,2,0,L|456:280,1,70,8|2,0:0|0:0,0:0:0:0:
152,272,36881,6,0,L|80:272,2,70,0|2|8,0:0|0:0|0:0,0:0:0:0:
244,272,37269,1,0,0:0:0:0:
452,340,37398,2,0,P|484:272|448:200,1,140,2|8,0:0|0:0,0:0:0:0:
180,200,37786,1,0,0:0:0:0:
432,152,37917,6,0,P|364:140|288:160,1,140,2|8,0:0|0:0,0:0:0:0:
156,228,38305,2,0,L|244:228,1,70,0|2,0:0|0:0,0:0:0:0:
112,144,38562,2,0,L|40:144,1,70,0|8,0:0|0:0,0:0:0:0:
156,144,38822,1,2,0:0:0:0:
428,80,38950,5,0,0:0:0:0:
428,80,39016,1,0,0:0:0:0:
428,80,39081,1,2,0:0:0:0:
156,100,39210,1,10,0:0:0:0:
344,100,39338,1,2,0:0:0:0:
52,168,39467,6,0,L|128:204,1,70,2|0,0:0|0:0,0:0:0:0:
460,168,39727,2,0,L|392:200,1,70,10|0,0:0|0:0,0:0:0:0:
120,128,39986,6,0,P|112:196|152:276,1,140,2|8,0:0|0:0,0:0:0:0:
232,232,40374,1,0,0:0:0:0:
464,256,40503,2,0,L|324:256,1,140,2|8,0:0|0:0,0:0:0:0:
184,252,40891,1,2,0:0:0:0:
384,148,41019,6,0,L|436:148,2,35,0|0|2,0:0|0:0|0:0,0:0:0:0:
240,148,41279,1,8,0:0:0:0:
312,88,41408,1,0,0:0:0:0:
176,88,41536,2,0,L|104:88,1,70,2|0,0:0|0:0,0:0:0:0:
420,104,41796,6,0,L|377:184,1,70,10|0,0:0|0:0,0:0:0:0:
112,128,42055,2,0,L|143:200,1,70,2|0,0:0|0:0,0:0:0:0:
428,248,42312,2,0,L|387:324,1,70,8|0,0:0|0:0,0:0:0:0:
88,248,42572,2,0,L|40:328,1,70,2|0,0:0|0:0,0:0:0:0:
344,196,42831,6,0,L|424:196,1,70,8|2,0:0|0:0,0:0:0:0:
92,188,43088,2,0,L|60:108,2,70,0|2|8,0:0|0:0|0:0,0:0:0:0:
344,120,43477,2,0,L|304:196,1,70,0|2,0:0|0:0,0:0:0:0:
268,260,43736,1,0,0:0:0:0:
484,192,43865,6,0,L|420:224,1,70,8|0,0:0|0:0,0:0:0:0:
152,144,44124,2,0,P|88:156|48:232,1,140,2|8,0:0|0:0,0:0:0:0:
152,144,44512,1,0,0:0:0:0:
388,284,44641,2,0,L|468:284,1,70,2|0,0:0|0:0,0:0:0:0:
348,200,44898,2,0,L|428:200,1,70,8|2,0:0|0:0,0:0:0:0:
84,236,45158,6,0,L|168:236,2,70,0|2|8,0:0|0:0|0:0,0:0:0:0:
184,164,45546,1,0,0:0:0:0:
388,104,45674,2,0,P|444:152|456:216,1,140,2|8,0:0|0:0,0:0:0:0:
344,204,46062,1,0,0:0:0:0:
120,216,46193,6,0,P|192:224|264:224,1,140,2|8,0:0|0:0,0:0:0:0:
364,216,46581,1,0,0:0:0:0:
168,120,46710,1,2,0:0:0:0:
436,108,46838,5,2,0:0:0:0:
448,144,46903,1,0,0:0:0:0:
432,184,46967,1,8,0:0:0:0:
300,132,47097,1,2,0:0:0:0:
108,128,47226,6,0,L|196:168,1,70,2|0,0:0|0:0,0:0:0:0:
304,204,47486,1,10,0:0:0:0:
108,204,47615,1,8,0:0:0:0:
320,220,47743,6,0,L|268:220,1,35,10|0,0:0|0:0,0:0:0:0:
84,216,47873,2,0,L|136:216,1,35,10|0,0:0|0:0,0:0:0:0:
324,248,48002,2,0,L|272:248,1,35,10|0,0:0|0:0,0:0:0:0:
80,252,48131,2,0,L|128:252,1,35,10|0,0:0|0:0,0:0:0:0:
404,284,48261,6,0,L|256:284,1,140,6|8,0:0|0:0,0:0:0:0:
368,104,48778,2,0,L|228:160,1,140,2|8,0:0|0:0,0:0:0:0:
92,136,49167,6,0,L|128:120,1,35
304,132,49263,2,0,L|264:212,1,70,2|0,0:0|0:0,0:0:0:0:
132,248,49521,1,8,0:0:0:0:
108,248,49586,1,0,0:0:0:0:
132,248,49650,1,2,0:0:0:0:
236,248,49780,2,0,L|332:196,1,105
488,196,50038,2,0,L|384:196,1,105,10|0,0:0|0:0,0:0:0:0:
136,192,50297,6,0,P|88:148|64:68,1,140,2|8,0:0|0:0,0:0:0:0:
320,120,50814,2,0,L|408:240,1,140,2|8,0:0|0:0,0:0:0:0:
496,236,51202,5,0,0:0:0:0:
168,228,51332,2,0,L|104:260,1,70,2|0,0:0|0:0,0:0:0:0:
348,168,51622,1,8,0:0:0:0:
128,168,51751,1,2,0:0:0:0:
448,232,51881,2,0,L|356:248,1,70,0|2,0:0|0:0,0:0:0:0:
324,256,52075,1,0,0:0:0:0:
268,264,52139,2,0,L|156:264,1,105,8|0,0:0|0:0,0:0:0:0:
400,128,52398,6,0,L|476:128,1,70,2|0,0:0|0:0,0:0:0:0:
360,76,52657,2,0,L|432:76,1,70,8|0,0:0|0:0,0:0:0:0:
296,80,52915,6,0,L|224:148,1,70,2|0,0:0|0:0,0:0:0:0:
104,156,53174,2,0,L|192:180,1,70,8|0,0:0|0:0,0:0:0:0:
204,184,53368,1,0,0:0:0:0:
440,208,53432,6,0,L|404:300,1,70,2|0,0:0|0:0,0:0:0:0:
240,304,53691,2,0,L|316:264,1,70,8|2,0:0|0:0,0:0:0:0:
96,112,53950,2,0,L|108:188,1,70,0|2,0:0|0:0,0:0:0:0:
240,68,54208,1,8,0:0:0:0:
108,64,54338,1,0,0:0:0:0:
312,120,54467,5,2,0:0:0:0:
220,116,54596,1,0,0:0:0:0:
300,168,54726,2,0,L|284:256,1,70,8|0,0:0|0:0,0:0:0:0:
100,188,54984,2,0,L|128:264,1,70,2|0,0:0|0:0,0:0:0:0:
416,212,55243,2,0,L|344:252,1,70,8|0,0:0|0:0,0:0:0:0:
106,141,55485,6,0,L|156:276,1,140,2|8,0:0|0:0,0:0:0:0:
432,144,55905,2,0,L|296:112,1,140,2|2,0:0|0:0,0:0:0:0:
72,144,56293,2,0,L|124:140,1,35,8|0,0:0|0:0,0:0:0:0:
256,80,56422,2,0,L|200:88,1,35,8|0,0:0|0:0,0:0:0:0:
80,176,56520,6,0,L|224:176,1,140,6|8,0:0|0:0,0:0:0:0:
452,248,57021,2,0,L|392:112,1,140,2|8,0:0|0:0,0:0:0:0:
284,108,57408,5,0,0:0:0:0:
60,136,57538,2,0,L|60:224,1,70,2|0,0:0|0:0,0:0:0:0:
92,228,57732,1,0,0:0:0:0:
188,292,57796,2,0,L|188:204,1,70,8|2,0:0|0:0,0:0:0:0:
168,180,57990,1,0,0:0:0:0:
92,228,58055,2,0,L|92:308,1,70,0|2,0:0|0:0,0:0:0:0:
136,328,58249,1,0,0:0:0:0:
262,314,58314,2,0,L|196:232,1,105,8|0,0:0|0:0,0:0:0:0:
380,264,58605,6,0,B|432:264|432:264|500:208,1,140,2|8,0:0|0:0,0:0:0:0:
172,56,59122,2,0,P|152:116|168:200,1,140,2|8,0:0|0:0,0:0:0:0:
288,140,59510,6,0,L|340:124,1,35
128,128,59639,2,0,L|44:156,2,70,2|0|8,0:0|0:0|0:0,0:0:0:0:
264,164,60027,1,2,0:0:0:0:
476,220,60156,1,0,0:0:0:0:
260,244,60286,1,2,0:0:0:0:
36,220,60415,1,8,0:0:0:0:
260,244,60544,6,0,L|304:272,1,35
127,147,60673,2,0,L|63:103,1,70,2|0,0:0|0:0,0:0:0:0:
384,148,60932,2,0,L|456:96,1,70,2|8,0:0|0:0,0:0:0:0:
187,110,61175,6,0,L|122:151,1,70,10|0,0:0|0:0,0:0:0:0:
320,144,61433,2,0,L|336:228,1,70,2|0,0:0|0:0,0:0:0:0:
248,240,61691,1,2,0:0:0:0:
472,260,61821,1,8,0:0:0:0:
180,296,61951,5,2,0:0:0:0:
152,252,62015,1,2,0:0:0:0:
152,204,62080,1,8,0:0:0:0:
188,168,62145,1,8,0:0:0:0:
384,148,62209,6,0,L|280:156,1,105,12|0,0:0|0:0,0:0:0:0:
48,100,62468,2,0,L|164:92,1,105,12|0,0:0|0:0,0:0:0:0:
384,148,62745,6,0,L|364:228,1,70,8|0,0:0|0:0,0:0:0:0:
128,236,63003,2,0,L|148:164,1,70,8|0,0:0|0:0,0:0:0:0:
444,168,64038,6,0,L|424:244,1,70,8|0,0:0|0:0,0:0:0:0:
88,235,64296,2,0,L|112:160,1,70,8|0,0:0|0:0,0:0:0:0:
444,168,64814,6,0,L|424:248,1,70,8|0,0:0|0:0,0:0:0:0:
88,235,65072,2,0,L|112:144,1,70,8|0,0:0|0:0,0:0:0:0:
120,132,65266,1,0,0:0:0:0:
144,104,65331,1,0,0:0:0:0:
388,68,65460,5,8,0:0:0:0:
400,104,65525,1,0,0:0:0:0:
384,140,65590,1,0,0:0:0:0:
136,260,65719,5,2,0:0:0:0:
100,288,65783,1,0,0:0:0:0:
136,308,65848,1,10,0:0:0:0:
344,192,65977,1,8,0:0:0:0:
96,192,66107,6,0,L|52:192,1,35,2|0,0:0|0:0,0:0:0:0:
184,192,66236,1,2,0:0:0:0:
284,192,66301,1,0,0:0:0:0:
444,192,66365,2,0,L|496:192,1,35,2|2,0:0|0:0,0:0:0:0:
344,192,66495,1,2,0:0:0:0:
236,192,66559,1,0,0:0:0:0:
60,112,66592,5,0,0:0:0:0:
44,128,66624,1,0,0:0:0:0:
32,148,66656,1,0,0:0:0:0:
24,168,66689,1,0,0:0:0:0:
20,192,66721,1,0,0:0:0:0:
20,216,66753,1,0,0:0:0:0:
28,244,66786,1,0,0:0:0:0:
40,264,66818,1,0,0:0:0:0:
52,280,66850,1,0,0:0:0:0:
328,88,66883,6,0,L|484:88,3,140,4|0|0|0,0:0|0:0|0:0|0:0,0:0:0:0:
176,136,68951,2,0,L|44:192,1,140,2|0,0:0|0:0,0:0:0:0:
444,144,69727,6,0,P|432:240|360:312,1,192.5,2|0,0:0|0:0,0:0:0:0:
292,304,70503,2,0,P|288:236|256:176,1,122.5,2|0,0:0|0:0,0:0:0:0:
100,104,71020,6,0,L|180:192,2,105,4|0|0,0:0|0:0|0:0,0:0:0:0:
284,92,72055,2,0,L|412:92,1,122.5,2|0,0:0|0:0,0:0:0:0:
348,152,72572,2,0,L|480:192,1,122.5,2|0,0:0|0:0,0:0:0:0:
292,216,73089,6,2,L|264:216,7,17.5,4|2|2|2|2|2|2|2,0:0|0:0|0:0|0:0|0:0|0:0|0:0|0:0,0:0:0:0:
248,172,73607,6,2,L|256:168,14,8.75
8,132,74124,6,0,L|0:152,1,17.5,8|0,0:0|0:0,0:0:0:0:
104,136,74253,2,0,L|116:148,1,17.5
244,136,74382,2,0,L|256:156,1,17.5
392,132,74511,2,0,L|404:152,1,17.5
112,236,74641,6,0,L|104:252,1,17.5,8|0,0:0|0:0,0:0:0:0:
352,220,74770,2,0,L|368:232,1,17.5
184,300,74899,2,0,L|176:320,1,17.5
424,296,75028,2,0,L|444:312,1,26.25
96,88,75158,6,0,P|44:112|8:188,1,140,6|8,0:0|0:0,0:0:0:0:
116,188,75546,1,0,0:0:0:0:
456,192,75675,2,0,L|332:88,1,140,2|8,0:0|0:0,0:0:0:0:
116,92,76063,6,0,L|196:92,1,70,2|0,0:0|0:0,0:0:0:0:
292,96,76322,1,2,0:0:0:0:
56,192,76451,2,0,L|8:192,2,35,2|0|8,0:0|0:0|0:0,0:0:0:0:
336,192,76710,1,10,0:0:0:0:
220,192,76839,1,0,0:0:0:0:
416,240,76968,6,8,P|448:192|440:136,1,105,10|8,0:0|0:0,0:0:0:0:
212,132,77227,2,0,P|160:164|216:192,1,140,8|8,0:0|0:0,0:0:0:0:
320,232,77615,1,0,0:0:0:0:
512,276,77744,6,0,L|371:245,1,140,2|8,0:0|0:0,0:0:0:0:
136,188,78132,2,0,L|176:272,1,70,2|8,0:0|0:0,0:0:0:0:
282,140,78391,1,2,0:0:0:0:
50,88,78520,6,0,L|142:88,1,70,8|0,0:0|0:0,0:0:0:0:
406,92,78779,2,0,L|326:92,1,70,6|0,0:0|0:0,0:0:0:0:
144,164,79037,2,0,L|204:164,1,35,8|8,0:0|0:0,0:0:0:0:
312,196,79167,2,0,L|256:196,1,35,8|8,0:0|0:0,0:0:0:0:
38,240,79296,6,0,L|182:240,1,140,0|8,0:0|0:0,0:0:0:0:
388,240,79684,1,0,0:0:0:0:
120,316,79813,2,0,P|40:308|0:248,1,140,2|8,0:0|0:0,0:0:0:0:
256,128,80201,1,2,0:0:0:0:
472,160,80330,6,0,L|392:180,1,70,2|0,0:0|0:0,0:0:0:0:
152,172,80589,2,0,L|216:228,1,70,8|0,0:0|0:0,0:0:0:0:
448,248,80848,2,0,L|376:268,1,70,2|0,0:0|0:0,0:0:0:0:
140,280,81106,2,0,L|56:296,1,70,8|0,0:0|0:0,0:0:0:0:
332,180,81365,6,0,L|428:120,1,105,2|0,0:0|0:0,0:0:0:0:
104,204,81623,2,0,L|-16:264,1,105,6|0,0:0|0:0,0:0:0:0:
228,140,81882,2,0,L|296:100,3,70,6|0|0|0,0:0|0:0|0:0|0:0,0:0:0:0:
480,128,82399,6,0,P|480:172|456:208,1,70,8|0,0:0|0:0,0:0:0:0:
200,192,82658,1,8,0:0:0:0:
392,192,82787,1,8,0:0:0:0:
120,284,82917,6,0,L|68:256,1,35,2|0,0:0|0:0,0:0:0:0:
136,292,83046,2,0,L|180:316,1,35
440,300,83175,2,0,L|496:332,1,35,2|0,0:0|0:0,0:0:0:0:
420,288,83305,2,0,L|364:256,1,35
52,84,83434,6,0,L|196:84,1,140,6|8,0:0|0:0,0:0:0:0:
396,84,83822,1,0,0:0:0:0:
188,172,83951,2,0,P|164:244|176:312,1,140,2|8,0:0|0:0,0:0:0:0:
392,280,84339,5,2,0:0:0:0:
420,232,84404,1,2,0:0:0:0:
416,176,84468,1,2,0:0:0:0:
248,248,84533,1,2,0:0:0:0:
216,204,84598,1,2,0:0:0:0:
456,200,84727,2,0,L|512:148,1,70,8|0,0:0|0:0,0:0:0:0:
308,144,84986,2,0,L|264:84,1,70
56,192,85244,6,0,L|128:192,1,70,8|0,0:0|0:0,0:0:0:0:
380,252,85503,2,0,L|484:184,1,105,2|0,0:0|0:0,0:0:0:0:
196,176,85761,2,0,L|144:124,1,70,10|0,0:0|0:0,0:0:0:0:
452,74,86020,2,0,P|488:122|459:201,1,140,2|8,0:0|0:0,0:0:0:0:
100,280,86408,6,0,P|68:216|60:128,1,140,2|2,0:0|0:0,0:0:0:0:
312,72,86796,2,0,L|236:120,1,70,8|0,0:0|0:0,0:0:0:0:
220,128,86990,1,0,0:0:0:0:
58,148,87055,2,0,L|72:232,1,70,2|0,0:0|0:0,0:0:0:0:
364,292,87313,2,0,L|424:284,1,35,8|8,0:0|0:0,0:0:0:0:
196,292,87442,2,0,L|140:276,1,35,8|0,0:0|0:0,0:0:0:0:
352,256,87572,6,0,B|492:256,1,140,6|8,0:0|0:0,0:0:0:0:
392,72,88089,1,2,0:0:0:0:
200,68,88218,2,0,L|200:140,1,70,8|0,0:0|0:0,0:0:0:0:
456,136,88477,1,2,0:0:0:0:
144,140,88606,5,10,0:0:0:0:
48,140,88736,1,0,0:0:0:0:
320,216,88865,1,10,0:0:0:0:
224,216,88994,1,0,0:0:0:0:
512,312,89123,6,0,L|480:327,1,35,10|0,0:0|0:0,0:0:0:0:
396,324,89253,2,0,L|365:305,1,35
80,324,89382,2,0,L|48:284,1,35,10|0,0:0|0:0,0:0:0:0:
28,248,89511,2,0,L|16:200,1,35
256,112,89641,5,8,0:0:0:0:
496,112,89770,1,8,0:0:0:0:
120,112,89899,1,8,0:0:0:0:
392,112,90029,2,0,L|332:64,1,70,2|0,0:0|0:0,0:0:0:0:
228,128,91192,6,0,P|288:122|268:142,1,140,2|0,0:0|0:0,0:0:0:0:
408,144,99986,6,0,P|412:200|392:252,1,105,6|0,0:0|0:0,0:0:0:0:
348,248,100244,1,0,0:0:0:0:
216,144,100373,2,0,L|272:144,1,35
408,144,100503,2,0,L|408:64,1,70,2|0,0:0|0:0,0:0:0:0:
80,248,100761,1,2,0:0:0:0:
168,248,100891,1,2,0:0:0:0:
192,248,101149,5,2,0:0:0:0:
424,248,101279,2,0,L|504:248,1,70,2|0,0:0|0:0,0:0:0:0:
304,192,101537,2,0,L|272:112,1,70,2|0,0:0|0:0,0:0:0:0:
408,132,101796,2,0,L|376:52,1,70
156,196,102055,6,0,L|72:276,1,105,2|0,0:0|0:0,0:0:0:0:
156,272,102313,1,0,0:0:0:0:
340,272,102442,2,0,L|404:272,1,35
504,272,102572,2,0,L|360:272,1,140,2|0,0:0|0:0,0:0:0:0:
96,140,102960,5,0,0:0:0:0:
212,140,103089,1,2,0:0:0:0:
96,140,103218,1,0,0:0:0:0:
424,144,103348,2,0,L|480:192,1,70,4|0,0:0|0:0,0:0:0:0:
396,192,103736,1,0,0:0:0:0:
376,192,103865,1,0,0:0:0:0:
360,192,103994,1,0,0:0:0:0:
136,192,104123,6,0,L|280:192,1,140,2|0,0:0|0:0,0:0:0:0:
384,112,104511,2,0,L|336:112,1,35
208,112,104641,1,0,0:0:0:0:
80,192,104770,2,0,L|40:260,2,70
288,168,105158,5,2,0:0:0:0:
380,212,105287,1,0,0:0:0:0:
380,300,105417,1,0,0:0:0:0:
288,336,105546,1,0,0:0:0:0:
404,80,105675,2,0,L|440:44,2,35,2|0|0,0:0|0:0|0:0,0:0:0:0:
204,80,105934,2,0,P|168:140|184:220,1,140,2|0,0:0|0:0,0:0:0:0:
432,288,106322,6,0,L|472:296,2,35,2|0|0,0:0|0:0|0:0,0:0:0:0:
243,279,106580,1,0,0:0:0:0:
466,294,106710,2,0,L|432:286,1,35,2|0,0:0|0:0,0:0:0:0:
243,223,106839,2,0,P|195:219|247:203,1,140,2|0,0:0|0:0,0:0:0:0:
504,84,107227,6,0,L|428:84,1,70,2|0,0:0|0:0,0:0:0:0:
140,84,107486,1,8,0:0:0:0:
336,84,107615,1,8,0:0:0:0:
140,84,107744,1,8,0:0:0:0:
336,84,107873,1,8,0:0:0:0:
32,192,108003,2,0,L|144:192,1,105,4|0,0:0|0:0,0:0:0:0:
480,192,108261,5,4,0:0:0:0:
80,192,108779,1,2,0:0:0:0:
240,192,108908,1,2,0:0:0:0:
305,216,109037,2,0,L|221:184,1,70,2|0,0:0|0:0,0:0:0:0:
32,192,109296,5,0,0:0:0:0:
428,264,109555,2,0,P|460:216|460:128,1,140,4|0,0:0|0:0,0:0:0:0:
84,264,109942,2,0,P|52:216|48:136,1,140,4|0,0:0|0:0,0:0:0:0:
462,135,110330,5,4,0:0:0:0:
228,136,110589,1,0,0:0:0:0:
328,136,110718,1,2,0:0:0:0:
28,136,110848,2,0,L|184:136,1,140,2|0,0:0|0:0,0:0:0:0:
100,300,111236,5,2,0:0:0:0:
340,304,111365,2,0,L|416:280,1,70,2|0,0:0|0:0,0:0:0:0:
360,220,111559,1,0,0:0:0:0:
216,220,111623,2,0,L|192:148,1,70,2|0,0:0|0:0,0:0:0:0:
320,152,111882,1,0,0:0:0:0:
180,104,112011,1,0,0:0:0:0:
288,72,112141,2,0,L|216:100,1,70,2|0,0:0|0:0,0:0:0:0:
0,328,112399,5,4,0:0:0:0:
244,328,112658,1,0,0:0:0:0:
176,328,112787,1,2,0:0:0:0:
440,116,112917,2,0,P|440:196|400:248,1,140,2|0,0:0|0:0,0:0:0:0:
112,148,113305,5,2,0:0:0:0:
224,148,113434,2,0,L|304:148,1,70,2|0,0:0|0:0,0:0:0:0:
328,148,113628,1,0,0:0:0:0:
192,224,113692,2,0,L|172:308,1,70,2|0,0:0|0:0,0:0:0:0:
304,296,113951,1,0,0:0:0:0:
396,296,114080,1,0,0:0:0:0:
175,292,114210,2,0,L|108:148,1,140,2|2,0:0|0:0,0:0:0:0:
468,80,114727,6,0,L|480:152,2,70,0|2|2,0:0|0:0|0:0,0:0:0:0:
224,48,115244,6,0,L|196:92,1,35,2|0,0:0|0:0,0:0:0:0:
68,124,115373,2,0,L|112:152,1,35,2|0,0:0|0:0,0:0:0:0:
236,148,115503,1,2,0:0:0:0:
372,148,115632,1,2,0:0:0:0:
496,228,115761,5,2,0:0:0:0:
360,228,115891,1,2,0:0:0:0:
120,228,116020,1,2,0:0:0:0:
80,260,116085,1,0,0:0:0:0:
64,304,116149,1,0,0:0:0:0:
92,340,116214,1,0,0:0:0:0:
344,80,116279,5,2,0:0:0:0:
392,60,116343,1,0,0:0:0:0:
89,82,116408,5,2,0:0:0:0:
45,66,116473,1,0,0:0:0:0:
384,152,116537,6,0,P|464:160|376:200,1,238.00000453949,4|8,0:0|0:0,0:0:0:0:
56,192,117055,2,0,L|200:192,1,140,2|8,0:0|0:0,0:0:0:0:
336,212,117442,1,0,0:0:0:0:
304,168,117507,1,0,0:0:0:0:
276,128,117572,1,2,0:0:0:0:
464,156,117701,6,0,L|480:88,1,70,0|8,0:0|0:0,0:0:0:0:
120,120,118089,2,0,L|136:216,1,70,8|0,0:0|0:0,0:0:0:0:
392,264,118348,2,0,L|380:192,1,70,8|0,0:0|0:0,0:0:0:0:
44,188,118606,6,0,P|80:264|144:280,1,140,2|8,0:0|0:0,0:0:0:0:
468,196,119123,2,0,P|444:132|380:104,1,140,2|8,0:0|0:0,0:0:0:0:
104,104,119511,6,0,L|188:104,1,70,2|0,0:0|0:0,0:0:0:0:
384,192,119770,1,2,0:0:0:0:
28,192,119899,2,0,L|108:192,1,70,8|0,0:0|0:0,0:0:0:0:
360,264,120158,2,0,L|276:264,1,70,2|0,0:0|0:0,0:0:0:0:
168,272,120417,2,0,L|216:264,1,35,8|0,0:0|0:0,0:0:0:0:
348,344,120546,2,0,L|404:332,1,35,8|0,0:0|0:0,0:0:0:0:
508,200,120675,6,0,P|448:181|368:180,1,140,2|8,0:0|0:0,0:0:0:0:
128,96,121176,2,0,L|272:96,1,140,2|8,0:0|0:0,0:0:0:0:
480,268,121564,6,0,L|404:260,1,70,2|0,0:0|0:0,0:0:0:0:
160,228,121823,2,0,L|236:240,2,70,2|8|0,0:0|0:0|0:0,0:0:0:0:
372,152,122211,2,0,B|480:120|480:120|496:72,1,140,2|8,0:0|0:0,0:0:0:0:
196,148,122728,6,0,L|176:60,1,70,2|0,0:0|0:0,0:0:0:0:
332,272,122987,2,0,L|340:344,1,70,8|0,0:0|0:0,0:0:0:0:
180,272,123245,2,0,L|152:372,1,70,2|2,0:0|0:0,0:0:0:0:
292,80,123504,1,8,0:0:0:0:
476,80,123633,1,2,0:0:0:0:
112,80,123763,6,0,P|96:112|100:200,1,105,8|0,0:0|0:0,0:0:0:0:
164,192,124021,1,2,0:0:0:0:
444,192,124151,1,2,0:0:0:0:
256,192,124280,1,10,0:0:0:0:
348,192,124409,1,2,0:0:0:0:
56,240,124538,2,0,L|96:248,1,35,8|0,0:0|0:0,0:0:0:0:
320,248,124668,2,0,L|264:240,1,35,8|0,0:0|0:0,0:0:0:0:
56,176,124813,6,0,L|108:316,1,140,6|8,0:0|0:0,0:0:0:0:
456,224,125330,2,0,L|408:92,1,140,2|8,0:0|0:0,0:0:0:0:
188,92,125718,6,0,L|112:128,1,70,2|0,0:0|0:0,0:0:0:0:
320,92,125977,1,2,0:0:0:0:
200,92,126106,2,0,L|128:92,1,70,8|0,0:0|0:0,0:0:0:0:
320,192,126365,1,2,0:0:0:0:
108,192,126494,2,0,L|56:132,2,70,0|8|0,0:0|0:0|0:0,0:0:0:0:
344,344,126882,6,0,L|484:300,1,140,2|8,0:0|0:0,0:0:0:0:
72,344,127399,2,0,L|216:308,1,140,2|8,0:0|0:0,0:0:0:0:
472,224,127787,5,2,0:0:0:0:
116,224,127917,2,0,L|44:224,2,70,0|2|8,0:0|0:0|0:0,0:0:0:0:
208,224,128305,1,0,0:0:0:0:
416,224,128434,1,2,0:0:0:0:
88,156,128563,1,0,0:0:0:0:
316,156,128692,1,8,0:0:0:0:
408,156,128822,1,0,0:0:0:0:
380,156,128886,1,0,0:0:0:0:
192,76,128951,6,0,P|260:84|344:76,1,140,2|8,0:0|0:0,0:0:0:0:
136,192,129468,2,0,L|112:288,1,70,2|0,0:0|0:0,0:0:0:0:
480,192,129727,2,0,L|488:268,1,70,8|0,0:0|0:0,0:0:0:0:
188,192,129986,5,8,0:0:0:0:
268,192,130115,1,8,0:0:0:0:
488,312,130244,1,2,0:0:0:0:
388,312,130373,1,2,0:0:0:0:
60,280,130503,2,0,L|76:328,1,35,2|0,0:0|0:0,0:0:0:0:
204,316,130632,2,0,L|248:316,1,35,2|0,0:0|0:0,0:0:0:0:
16,200,130761,2,0,P|67:205|132:224,1,105,2|0,0:0|0:0,0:0:0:0:
396,44,131020,6,0,L|468:68,1,70,6|0,0:0|0:0,0:0:0:0:
116,44,131279,2,0,L|40:72,1,70,6|0,0:0|0:0,0:0:0:0:
396,176,132313,6,0,L|424:248,1,70,6|0,0:0|0:0,0:0:0:0:
116,176,132572,2,0,L|84:256,1,70,6|0,0:0|0:0,0:0:0:0:
456,139,133089,6,0,L|396:175,1,70,12|0,0:0|0:0,0:0:0:0:
56,139,133348,2,0,L|120:176,1,70,12|0,0:0|0:0,0:0:0:0:
396,348,133606,5,2,0:0:0:0:
204,348,133736,1,8,0:0:0:0:
144,348,133800,1,0,0:0:0:0:
204,348,133865,1,0,0:0:0:0:
424,272,133994,6,0,L|472:264,1,35,8|0,0:0|0:0,0:0:0:0:
284,264,134123,2,0,L|232:272,1,35,8|0,0:0|0:0,0:0:0:0:
468,192,134253,2,0,L|524:200,1,35,8|0,0:0|0:0,0:0:0:0:
232,192,134382,2,0,L|184:216,1,35,8|0,0:0|0:0,0:0:0:0:
160,228,134511,2,0,L|152:268,1,35
376,60,134641,5,8,0:0:0:0:
400,68,134657,1,0,0:0:0:0:
420,84,134673,1,0,0:0:0:0:
436,104,134689,1,0,0:0:0:0:
448,124,134705,1,0,0:0:0:0:
456,148,134722,1,0,0:0:0:0:
460,168,134738,1,0,0:0:0:0:
460,192,134754,1,0,0:0:0:0:
460,216,134770,1,0,0:0:0:0:
456,236,134786,1,0,0:0:0:0:
448,260,134802,1,0,0:0:0:0:
436,280,134819,1,0,0:0:0:0:
420,300,134835,1,0,0:0:0:0:
400,316,134851,1,0,0:0:0:0:
376,324,134867,1,0,0:0:0:0:
136,60,134899,5,2,0:0:0:0:
116,72,134916,1,0,0:0:0:0:
92,84,134932,1,0,0:0:0:0:
76,104,134948,1,0,0:0:0:0:
64,124,134964,1,0,0:0:0:0:
56,148,134980,1,0,0:0:0:0:
52,168,134996,1,0,0:0:0:0:
52,192,135013,1,0,0:0:0:0:
52,200,135029,1,0,0:0:0:0:
56,224,135045,1,0,0:0:0:0:
68,252,135061,1,0,0:0:0:0:
80,280,135077,1,0,0:0:0:0:
92,300,135093,1,0,0:0:0:0:
112,316,135109,1,0,0:0:0:0:
136,324,135126,1,0,0:0:0:0:
480,192,135158,6,0,L|336:192,2,140,4|0|0,0:0|0:0|0:0,0:0:0:0:
200,192,136709,2,0,L|64:192,1,122.5,2|0,0:0|0:0,0:0:0:0:
32,192,137226,2,0,L|184:192,1,140,2|0,0:0|0:0,0:0:0:0:
360,140,138002,6,0,P|328:248|256:296,1,192.5,2|0,0:0|0:0,0:0:0:0:
208,292,138778,2,0,L|84:292,1,122.5,2|0,0:0|0:0,0:0:0:0:
208,292,139295,6,0,B|336:128|336:128|240:128,1,288.750011014939,4|0,0:0|0:0,0:0:0:0:
324,128,140071,2,0,L|420:128,1,78.7500030040742,2|0,0:0|0:0,0:0:0:0:
504,172,140330,2,0,L|344:280,1,183.750007009506,2|0,0:0|0:0,0:0:0:0:
283,60,140847,2,0,L|355:172,1,122.5,2|0,0:0|0:0,0:0:0:0:
164,88,141364,6,0,P|148:152|160:248,1,157.500006008148,4|0,0:0|0:0,0:0:0:0:
256,192,142399,12,0,143304,0:0:0:0:
348,192,143433,6,0,L|436:192,2,70,2|0|0,0:0|0:0|0:0,0:0:0:0:
244,192,144209,1,0,0:0:0:0:
80,192,144468,2,0,L|120:264,1,70,2|0,0:0|0:0,0:0:0:0:
212,252,144856,1,0,0:0:0:0:
308,252,144985,2,0,L|396:276,1,70,2|0,0:0|0:0,0:0:0:0:
204,96,145502,6,0,L|280:96,2,70,2|0|0,0:0|0:0|0:0,0:0:0:0:
348,96,146278,1,2,0:0:0:0:
496,172,146537,2,0,L|412:172,1,70,2|0,0:0|0:0,0:0:0:0:
320,172,146925,1,0,0:0:0:0:
92,172,147054,2,0,L|140:240,1,70,2|0,0:0|0:0,0:0:0:0:
468,228,147571,5,2,0:0:0:0:
212,228,147830,2,0,L|272:228,1,35
376,148,148089,2,0,L|304:148,1,70
212,148,148476,1,0,0:0:0:0:
12,144,148606,6,0,L|100:144,1,70,2|0,0:0|0:0,0:0:0:0:
424,148,149123,2,0,L|504:148,1,70,2|0,0:0|0:0,0:0:0:0:
82,144,149640,5,8,0:0:0:0:
280,308,149898,2,0,L|320:356,1,52.5000020027161
184,308,150157,2,0,L|112:308,2,52.5000020027161
280,308,150545,1,0,0:0:0:0:
376,308,150674,6,0,L|428:308,2,52.5000020027161,2|0|0,0:0|0:0|0:0,0:0:0:0:
264,232,151062,1,0,0:0:0:0:
152,232,151191,2,0,L|99:232,3,52.5000020027161,2|0|0|0,0:0|0:0|0:0|0:0,0:0:0:0:
396,44,151708,6,0,L|488:68,1,70,8|0,0:0|0:0,0:0:0:0:
312,60,151967,2,0,L|228:36,1,70,8|0,0:0|0:0,0:0:0:0:
44,44,152226,2,0,L|124:68,1,70,8|0,0:0|0:0,0:0:0:0:
232,96,152484,2,0,L|312:120,1,70,8|0,0:0|0:0,0:0:0:0:
496,308,152743,5,8,0:0:0:0:
332,308,152872,1,8,0:0:0:0:
168,308,153002,1,8,0:0:0:0:
4,308,153131,1,8,0:0:0:0:
120,244,153260,1,8,0:0:0:0:
328,248,153390,1,8,0:0:0:0:
140,244,153519,1,8,0:0:0:0:
388,248,153648,1,8,0:0:0:0:
64,48,153777,6,0,L|112:68,1,35,2|0,0:0|0:0,0:0:0:0:
188,56,153907,2,0,L|240:56,1,35,2|0,0:0|0:0,0:0:0:0:
320,56,154036,2,0,L|364:56,1,35,2|0,0:0|0:0,0:0:0:0:
452,56,154165,2,0,L|496:56,1,35,2|0,0:0|0:0,0:0:0:0:
220,140,154295,6,0,L|180:140,1,35,8|0,0:0|0:0,0:0:0:0:
384,140,154424,2,0,L|432:140,1,35,8|0,0:0|0:0,0:0:0:0:
156,140,154553,2,0,L|96:140,1,35,8|0,0:0|0:0,0:0:0:0:
444,140,154683,2,0,L|500:140,1,35,8|0,0:0|0:0,0:0:0:0:
220,328,154812,6,0,B|48:328|48:328|164:284|164:284|164:208|164:208|164:248|164:248|164:96|164:96|16:96,1,700,4|0,0:0|0:0,0:0:0:0:
488,192,155846,6,0,L|348:192,1,140,6|8,0:0|0:0,0:0:0:0:
248,192,156234,1,0,0:0:0:0:
0,304,156364,2,0,L|140:304,1,140,2|8,0:0|0:0,0:0:0:0:
402,235,156752,6,0,L|342:187,1,70,2|0,0:0|0:0,0:0:0:0:
225,191,157010,1,2,0:0:0:0:
472,192,157140,2,0,L|516:172,2,35,8|0|0,0:0|0:0|0:0,0:0:0:0:
228,56,157398,6,0,L|140:88,1,70,2|0,0:0|0:0,0:0:0:0:
284,56,157657,1,8,0:0:0:0:
332,56,157786,1,0,0:0:0:0:
92,152,157915,6,0,L|92:232,1,70,2|0,0:0|0:0,0:0:0:0:
320,256,158174,2,0,P|336:196|336:152,1,105,8|0,0:0|0:0,0:0:0:0:
56,144,158433,2,0,P|8:176|60:216,1,140,2|8,0:0|0:0,0:0:0:0:
336,153,158821,2,0,L|432:153,1,70,2|8,0:0|0:0,0:0:0:0:
324,88,159079,1,0,0:0:0:0:
104,192,159208,6,0,L|26:192,1,70,8|0,0:0|0:0,0:0:0:0:
424,192,159467,2,0,L|496:192,1,70,6|0,0:0|0:0,0:0:0:0:
224,192,159726,2,0,L|188:228,3,35,8|0|0|0,0:0|0:0|0:0|0:0,0:0:0:0:
332,344,159984,6,0,B|444:344|444:344|460:312,1,140,2|8,0:0|0:0,0:0:0:0:
356,296,160372,1,0,0:0:0:0:
120,296,160502,6,0,L|48:296,3,70,2|0|8|0,0:0|0:0|0:0|0:0,0:0:0:0:
220,192,160954,1,0,0:0:0:0:
384,192,161019,2,0,L|408:116,1,70,2|0,0:0|0:0,0:0:0:0:
120,192,161277,2,0,L|180:156,1,70,8|0,0:0|0:0,0:0:0:0:
460,196,161536,2,0,L|480:120,1,70,2|0,0:0|0:0,0:0:0:0:
360,192,161795,2,0,L|288:192,1,70,8|0,0:0|0:0,0:0:0:0:
44,56,162053,6,0,L|160:80,1,105,2|0,0:0|0:0,0:0:0:0:
344,72,162312,2,0,L|472:96,1,105,6|0,0:0|0:0,0:0:0:0:
214,95,162571,2,0,L|138:75,3,70,6|0|0|0,0:0|0:0|0:0|0:0,0:0:0:0:
72,192,163088,5,8,0:0:0:0:
272,192,163217,1,2,0:0:0:0:
172,192,163346,1,2,0:0:0:0:
428,192,163476,1,2,0:0:0:0:
232,288,163605,6,0,L|176:284,1,35,2|0,0:0|0:0,0:0:0:0:
144,256,163734,2,0,L|116:216,1,35,2|0,0:0|0:0,0:0:0:0:
360,288,163864,2,0,L|360:244,1,35,8|0,0:0|0:0,0:0:0:0:
136,288,163993,2,0,L|100:276,1,35,8|0,0:0|0:0,0:0:0:0:
360,112,164122,6,0,B|472:112|472:112|460:80,1,140,6|8,0:0|0:0,0:0:0:0:
360,112,164510,1,0,0:0:0:0:
100,96,164639,2,0,L|192:108,2,70,2|0|8,0:0|0:0|0:0,0:0:0:0:
332,192,165027,2,0,L|384:192,2,35,0|0|2,0:0|0:0|0:0,0:0:0:0:
104,192,165286,2,0,L|32:180,1,70,0|8,0:0|0:0,0:0:0:0:
292,296,165674,2,0,L|336:240,1,70,2|0,0:0|0:0,0:0:0:0:
456,296,165933,6,0,L|388:272,1,70,8|0,0:0|0:0,0:0:0:0:
108,264,166191,2,0,L|192:300,1,70,2|0,0:0|0:0,0:0:0:0:
389,272,166450,2,0,P|437:224|421:172,1,105,8|0,0:0|0:0,0:0:0:0:
176,192,166708,2,0,L|12:160,1,140,2|8,0:0|0:0,0:0:0:0:
288,96,167096,6,0,L|304:168,1,70,2|0,0:0|0:0,0:0:0:0:
57,97,167355,2,0,L|37:169,1,70,2|8,0:0|0:0,0:0:0:0:
155,275,167614,1,0,0:0:0:0:
432,280,167743,1,2,0:0:0:0:
320,280,167872,1,0,0:0:0:0:
187,291,168002,2,0,L|155:275,3,35,8|0|0|0,0:0|0:0|0:0|0:0,0:0:0:0:
340,348,168260,6,0,P|380:300|364:224,1,140,2|8,0:0|0:0,0:0:0:0:
148,93,168777,1,2,0:0:0:0:
344,92,168907,2,0,L|344:20,1,70,0|8,0:0|0:0,0:0:0:0:
148,93,169165,1,2,0:0:0:0:
400,256,169295,6,0,L|368:332,1,70,2|0,0:0|0:0,0:0:0:0:
256,320,169489,1,0,0:0:0:0:
144,320,169553,2,0,L|120:248,1,70,8|0,0:0|0:0,0:0:0:0:
256,256,169747,1,0,0:0:0:0:
400,256,169812,2,0,L|436:172,1,70,2|0,0:0|0:0,0:0:0:0:
256,256,170006,1,0,0:0:0:0:
108,252,170071,2,0,P|84:204|92:140,1,105,8|0,0:0|0:0,0:0:0:0:
432,60,170329,6,0,P|448:124|428:208,1,140,2|0,0:0|0:0,0:0:0:0:
368,120,170652,1,0,0:0:0:0:
108,120,170717,2,0,L|160:120,1,35
368,120,170846,6,0,L|492:140,1,105,4|0,0:0|0:0,0:0:0:0:
256,296,171105,1,0,0:0:0:0:
108,296,171364,6,0,L|60:320,2,35,2|0|0,0:0|0:0|0:0,0:0:0:0:
364,296,171622,2,0,L|434:289,1,70,8|0,0:0|0:0,0:0:0:0:
140,296,171881,1,8,0:0:0:0:
108,296,171946,1,0,0:0:0:0:
140,296,172010,1,0,0:0:0:0:
364,192,172139,2,0,L|432:100,1,105
112,192,172398,6,0,P|56:144|108:128,1,157.500006008148,4|2,0:0|0:0,0:0:0:0:
384,192,172915,2,0,L|424:152,3,52.5000020027161,8|0|0|0,0:0|0:0|0:0|0:0,0:0:0:0:
224,192,173433,5,2,0:0:0:0:
192,160,173497,1,0,0:0:0:0:
224,136,173562,1,0,0:0:0:0:
360,168,173691,2,0,L|404:124,1,52.5000020027161,2|0,0:0|0:0,0:0:0:0:
132,72,173950,2,0,L|172:112,3,52.5000020027161,8|0|0|0,0:0|0:0|0:0|0:0,0:0:0:0:
396,192,174467,6,0,L|460:192,1,52.5000020027161,2|0,0:0|0:0,0:0:0:0:
128,192,174855,1,2,0:0:0:0:
236,192,174984,2,0,L|280:192,2,26.2500010013581,2|0|0,0:0|0:0|0:0,0:0:0:0:
156,64,175243,2,0,L|124:64,2,26.2500010013581,2|0|0,0:0|0:0|0:0,0:0:0:0:
356,64,175502,5,8,0:0:0:0:
424,104,175631,1,8,0:0:0:0:
468,164,175760,1,2,0:0:0:0:
468,232,175889,1,2,0:0:0:0:
424,288,176019,1,8,0:0:0:0:
352,328,176148,1,8,0:0:0:0:
88,288,176277,2,0,P|63:253|52:204,1,78.7500030040742,12|0,0:0|0:0,0:0:0:0:
468,164,176536,6,0,B|456:60|456:60|384:60,1,157.500006008148,4|2,0:0|0:0,0:0:0:0:
161,60,177053,2,0,L|112:40,3,52.5000020027161,8|0|0|0,0:0|0:0|0:0|0:0,0:0:0:0:
324,64,177571,5,0,0:0:0:0:
348,104,177635,1,0,0:0:0:0:
356,148,177700,1,0,0:0:0:0:
344,188,177764,1,0,0:0:0:0:
224,136,177829,2,0,L|160:136,1,52.5000020027161,2|0,0:0|0:0,0:0:0:0:
416,240,178088,2,0,L|476:224,3,52.5000020027161,8|0|0|0,0:0|0:0|0:0|0:0,0:0:0:0:
144,232,178605,6,0,L|112:188,1,52.5000020027161,2|0,0:0|0:0,0:0:0:0:
344,192,178993,1,2,0:0:0:0:
248,192,179090,2,0,L|216:192,2,26.2500010013581,8|0|0,0:0|0:0|0:0,0:0:0:0:
336,60,179349,2,0,L|376:60,2,26.2500010013581,8|0|0,0:0|0:0|0:0,0:0:0:0:
68,60,179607,6,0,L|120:92,3,52.5000020027161,8|0|0|0,0:0|0:0|0:0|0:0,0:0:0:0:
360,192,180125,2,0,L|432:192,1,52.5000020027161,8|0,0:0|0:0,0:0:0:0:
152,192,180383,2,0,L|80:192,1,52.5000020027161,8|0,0:0|0:0,0:0:0:0:
484,192,180642,6,0,B|464:300|464:300|412:300,1,157.500006008148,6|2,0:0|0:0,0:0:0:0:
149,284,181158,2,0,L|97:284,3,52.5000020027161,8|0|0|0,0:0|0:0|0:0|0:0,0:0:0:0:
308,284,181708,5,2,0:0:0:0:
360,284,181772,1,0,0:0:0:0:
308,284,181837,1,0,0:0:0:0:
168,244,181966,2,0,L|240:244,1,52.5000020027161,2|0,0:0|0:0,0:0:0:0:
448,192,182226,2,0,L|396:192,3,52.5000020027161,8|0|0|0,0:0|0:0|0:0|0:0,0:0:0:0:
64,192,182743,6,0,L|128:192,1,52.5000020027161,2|0,0:0|0:0,0:0:0:0:
448,192,183131,1,2,0:0:0:0:
252,192,183260,2,0,L|268:228,2,26.2500010013581,8|0|0,0:0|0:0|0:0,0:0:0:0:
360,116,183519,2,0,L|336:152,2,26.2500010013581,2|0|0,0:0|0:0|0:0,0:0:0:0:
104,120,183777,5,8,0:0:0:0:
228,140,183907,1,8,0:0:0:0:
136,188,184036,1,8,0:0:0:0:
232,212,184165,1,8,0:0:0:0:
176,256,184295,1,2,0:0:0:0:
256,284,184424,1,2,0:0:0:0:
456,304,184553,2,0,L|378:304,1,78.7500030040742,2|0,0:0|0:0,0:0:0:0:
32,224,184812,6,0,B|60:112|60:112|112:112,1,157.500006008148,4|2,0:0|0:0,0:0:0:0:
357,112,185329,2,0,L|410:112,3,52.5000020027161,8|0|0|0,0:0|0:0|0:0|0:0,0:0:0:0:
176,112,185846,5,0,0:0:0:0:
144,144,185911,1,0,0:0:0:0:
144,192,185976,1,0,0:0:0:0:
168,228,186040,1,0,0:0:0:0:
356,196,186105,2,0,L|428:196,1,52.5000020027161,2|0,0:0|0:0,0:0:0:0:
168,228,186347,2,0,L|240:228,3,52.5000020027161,8|0|0|0,0:0|0:0|0:0|0:0,0:0:0:0:
472,228,186864,6,0,L|408:228,1,52.5000020027161,2|0,0:0|0:0,0:0:0:0:
80,228,187251,1,2,0:0:0:0:
380,100,187380,2,0,L|312:124,1,52.5000020027161,8|0,0:0|0:0,0:0:0:0:
132,100,187639,2,0,L|64:124,1,52.5000020027161,8|0,0:0|0:0,0:0:0:0:
332,192,187897,5,2,0:0:0:0:
100,192,188027,1,2,0:0:0:0:
24,248,188156,1,2,0:0:0:0:
112,296,188285,1,2,0:0:0:0:
396,296,188415,6,0,L|436:296,1,26.2500010013581,2|0,0:0|0:0,0:0:0:0:
176,296,188544,2,0,L|128:296,1,26.2500010013581,2|0,0:0|0:0,0:0:0:0:
284,296,188674,2,0,L|332:296,1,26.2500010013581,2|0,0:0|0:0,0:0:0:0:
32,296,188803,2,0,L|5:296,1,26.2500010013581,2|0,0:0|0:0,0:0:0:0:
424,236,188950,6,0,P|496:216|416:180,1,210.000008010865,6|8,0:0|0:0,0:0:0:0:
104,164,189336,1,0,0:0:0:0:
60,160,189402,1,0,0:0:0:0:
36,120,189467,2,0,L|124:120,1,70,2|0,0:0|0:0,0:0:0:0:
360,120,189724,2,0,L|448:120,1,70,8|2,0:0|0:0,0:0:0:0:
320,220,189984,6,0,L|408:220,1,70,0|2,0:0|0:0,0:0:0:0:
124,156,190243,2,0,L|44:156,1,70,8|0,0:0|0:0,0:0:0:0:
152,252,190500,2,0,L|240:252,3,70,2|0|8|0,0:0|0:0|0:0|0:0,0:0:0:0:
472,192,191017,2,0,B|428:136|428:136|348:136,1,140,2|8,0:0|0:0,0:0:0:0:
208,192,191405,1,0,0:0:0:0:
40,192,191535,2,0,L|40:276,1,70,10|0,0:0|0:0,0:0:0:0:
228,160,191793,2,0,L|284:224,1,70,8|0,0:0|0:0,0:0:0:0:
472,192,192053,5,10,0:0:0:0:
282,288,192165,2,2,P|237:265|228:216,1,105,10|2,0:0|0:0,0:0:0:0:
464,208,192424,1,2,0:0:0:0:
464,128,192553,1,10,0:0:0:0:
364,96,192683,1,2,0:0:0:0:
136,104,192812,1,10,0:0:0:0:
48,140,192941,1,2,0:0:0:0:
320,196,193070,6,0,L|488:196,1,140,4|8,0:0|0:0,0:0:0:0:
256,288,193474,1,0,0:0:0:0:
208,288,193539,1,0,0:0:0:0:
168,288,193604,2,0,L|96:288,1,70,2|0,0:0|0:0,0:0:0:0:
12,196,193862,2,0,L|100:196,1,70,8|0,0:0|0:0,0:0:0:0:
212,68,194121,6,0,L|264:140,1,70,2|0,0:0|0:0,0:0:0:0:
456,192,194379,2,0,L|408:124,1,70,8|2,0:0|0:0,0:0:0:0:
208,188,194637,1,2,0:0:0:0:
396,192,194896,1,8,0:0:0:0:
44,132,195155,2,0,P|108:124|184:124,1,140,2|8,0:0|0:0,0:0:0:0:
400,208,195543,5,0,0:0:0:0:
432,208,195608,1,0,0:0:0:0:
460,208,195673,2,0,L|480:136,1,70,2|0,0:0|0:0,0:0:0:0:
232,192,195931,1,10,0:0:0:0:
320,192,196061,1,0,0:0:0:0:
88,112,196190,5,8,0:0:0:0:
16,192,196319,1,8,0:0:0:0:
84,272,196449,1,8,0:0:0:0:
424,112,196706,1,8,0:0:0:0:
496,192,196836,1,8,0:0:0:0:
424,272,196965,1,2,0:0:0:0:
48,76,197224,6,0,P|56:140|120:176,1,140,6|8,0:0|0:0,0:0:0:0:
332,272,197611,1,0,0:0:0:0:
384,272,197676,1,0,0:0:0:0:
424,272,197741,2,0,L|332:272,1,70,2|0,0:0|0:0,0:0:0:0:
232,192,198000,2,0,L|324:192,1,70,8|2,0:0|0:0,0:0:0:0:
24,180,198258,6,0,L|40:280,1,70,0|2,0:0|0:0,0:0:0:0:
160,108,198517,2,0,L|216:176,1,70,8|0,0:0|0:0,0:0:0:0:
408,252,198775,2,0,P|472:240|508:176,1,140,2|8,0:0|0:0,0:0:0:0:
56,80,199293,2,0,L|68:148,1,70,10|0,0:0|0:0,0:0:0:0:
272,80,199551,2,0,L|228:140,1,70,8|0,0:0|0:0,0:0:0:0:
488,152,199810,5,2,0:0:0:0:
456,152,200068,1,8,0:0:0:0:
204,196,200327,1,10,0:0:0:0:
408,240,200440,2,0,P|420:192|404:124,1,105,10|0,0:0|0:0,0:0:0:0:
204,196,200698,1,2,0:0:0:0:
88,152,200827,1,10,0:0:0:0:
52,240,200957,1,2,0:0:0:0:
116,312,201086,1,10,0:0:0:0:
224,316,201215,1,2,0:0:0:0:
456,292,201345,6,0,P|492:244|436:204,1,140,6|8,0:0|0:0,0:0:0:0:
164,72,201748,1,0,0:0:0:0:
124,108,201813,1,0,0:0:0:0:
92,140,201878,2,0,L|112:224,1,70,2|0,0:0|0:0,0:0:0:0:
344,168,202136,2,0,L|440:184,1,70,8|0,0:0|0:0,0:0:0:0:
152,248,202395,2,0,L|83:232,1,70,2|0,0:0|0:0,0:0:0:0:
456,264,202655,2,0,L|372:248,1,70,8|0,0:0|0:0,0:0:0:0:
308,96,202912,6,0,L|228:72,1,70,2|0,0:0|0:0,0:0:0:0:
40,96,203171,2,0,L|124:124,1,70,8|0,0:0|0:0,0:0:0:0:
392,140,203429,6,0,L|388:184,1,35,6|0,0:0|0:0,0:0:0:0:
128,196,203688,2,0,L|168:208,1,35,6|0,0:0|0:0,0:0:0:0:
416,184,203948,2,0,L|460:164,1,35,6|0,0:0|0:0,0:0:0:0:
161,206,204205,2,0,L|153:262,1,35,6|0,0:0|0:0,0:0:0:0:
447,169,204464,2,0,L|496:188,1,35,4|0,0:0|0:0,0:0:0:0:
48,96,204723,2,0,L|-4:96,1,35,4|0,0:0|0:0,0:0:0:0:
312,124,204981,6,0,P|432:240|213:265,1,490,4|0,0:0|0:0,0:0:0:0:
168,200,205498,6,0,P|124:116|212:104,1,210,4|0,0:0|0:0,0:0:0:0:
256,192,206015,1,2,0:0:0:0:
444,192,207049,1,0,0:0:0:0:
160,128,207566,6,0,L|28:128,1,122.5,2|0,0:0|0:0,0:0:0:0:
156,192,208084,1,2,0:0:0:0:
432,192,208601,5,2,0:0:0:0:
224,192,208860,1,2,0:0:0:0:
128,192,208989,1,2,0:0:0:0:
248,272,209118,1,2,0:0:0:0:
340,192,209248,1,2,0:0:0:0:
204,112,209377,1,2,0:0:0:0:
88,188,209506,1,2,0:0:0:0:
288,192,209635,6,0,L|404:192,1,105,4|0,0:0|0:0,0:0:0:0:
500,148,210153,2,0,L|428:148,1,70,2|0,0:0|0:0,0:0:0:0:
324,148,210541,1,0,0:0:0:0:
132,144,210670,2,0,L|70:110,1,70,2|0,0:0|0:0,0:0:0:0:
460,192,211187,1,0,0:0:0:0:
400,192,211316,1,0,0:0:0:0:
252,192,211446,1,2,0:0:0:0:
40,192,211704,5,2,0:0:0:0:
276,124,211963,1,2,0:0:0:0:
340,192,212092,1,2,0:0:0:0:
148,192,212222,1,2,0:0:0:0:
296,256,212480,1,0,0:0:0:0:
492,216,212739,5,2,0:0:0:0:
464,140,212868,1,0,0:0:0:0:
392,88,212998,1,2,0:0:0:0:
288,80,213127,1,0,0:0:0:0:
68,80,213256,1,2,0:0:0:0:
12,156,213385,1,0,0:0:0:0:
64,236,213515,2,0,L|128:236,1,52.5,2|0,0:0|0:0,0:0:0:0:
380,192,213773,6,0,L|456:192,3,70,6|0|0|0,0:0|0:0|0:0|0:0,0:0:0:0:
244,192,214290,2,0,L|164:192,2,70,2|0|0,0:0|0:0|0:0,0:0:0:0:
450,192,214678,1,2,0:0:0:0:
352,140,214807,2,0,L|448:140,1,70,8|0,0:0|0:0,0:0:0:0:
136,116,215066,2,0,L|224:116,3,70,2|0|0|0,0:0|0:0|0:0|0:0,0:0:0:0:
450,192,215583,2,0,L|380:192,1,70,2|0,0:0|0:0,0:0:0:0:
136,192,215841,6,0,L|228:192,1,70,10|0,0:0|0:0,0:0:0:0:
468,236,216100,2,0,L|388:236,1,70,8|0,0:0|0:0,0:0:0:0:
44,232,216359,2,0,L|132:232,2,70,8|0|0,0:0|0:0|0:0,0:0:0:0:
160,304,216747,1,0,0:0:0:0:
264,304,216876,2,0,L|344:304,1,70,8|0,0:0|0:0,0:0:0:0:
112,192,217135,2,0,L|44:148,1,70,12|0,0:0|0:0,0:0:0:0:
336,192,217393,2,0,L|416:192,1,70,8|0,0:0|0:0,0:0:0:0:
108,116,217652,2,0,L|40:68,1,70,12|0,0:0|0:0,0:0:0:0:
344,80,217910,5,2,0:0:0:0:
416,144,218040,1,2,0:0:0:0:
400,240,218169,1,2,0:0:0:0:
312,288,218298,1,2,0:0:0:0:
120,48,218428,1,2,0:0:0:0:
48,120,218557,1,2,0:0:0:0:
64,216,218686,1,2,0:0:0:0:
144,276,218816,1,2,0:0:0:0:
384,192,218945,5,8,0:0:0:0:
460,144,219074,1,8,0:0:0:0:
168,128,219204,1,8,0:0:0:0:
88,92,219333,1,8,0:0:0:0:
324,192,219462,1,8,0:0:0:0:
396,144,219591,1,8,0:0:0:0:
96,192,219721,1,8,0:0:0:0:
24,192,219850,1,8,0:0:0:0:
364,196,219979,6,0,P|416:240|364:244,1,157.500006008148,4|0,0:0|0:0,0:0:0:0:
128,196,220238,2,0,P|72:236|132:252,1,157.500006008148,4|0,0:0|0:0,0:0:0:0:
452,136,220497,2,0,P|508:172|444:200,1,157.500006008148,4|0,0:0|0:0,0:0:0:0:
72,96,220755,2,0,B|-12:152|68:200|68:200|144:200,1,210.000008010865,4|0,0:0|0:0,0:0:0:0:
392,108,222048,6,0,P|456:136|484:212,1,154.000004699707,6|8,0:0|0:0,0:0:0:0:
488,252,222372,1,0,0:0:0:0:
476,288,222436,1,0,0:0:0:0:
444,308,222501,1,0,0:0:0:0:
145,308,222566,2,0,L|68:308,1,77.0000023498536,2|0,0:0|0:0,0:0:0:0:
144,232,222824,1,8,0:0:0:0:
340,136,222954,6,0,P|376:176|324:208,1,115.50000352478,2|0,0:0|0:0,0:0:0:0:
144,180,223212,1,2,0:0:0:0:
92,176,223277,1,0,0:0:0:0:
339,210,223341,2,0,L|438:211,1,77.0000023498536,8|0,0:0|0:0,0:0:0:0:
492,288,223600,2,0,L|412:288,1,77.0000023498536,2|0,0:0|0:0,0:0:0:0:
152,88,223859,6,0,L|48:88,1,77.0000023498536,8|0,0:0|0:0,0:0:0:0:
372,160,224117,2,0,P|412:200|368:224,1,115.50000352478,2|0,0:0|0:0,0:0:0:0:
148,168,224376,2,0,L|16:168,1,115.50000352478,10|0,0:0|0:0,0:0:0:0:
416,92,224635,2,0,B|488:92|488:92|416:48,1,154.000004699707,2|8,0:0|0:0,0:0:0:0:
144,92,225022,2,0,L|188:92,1,38.5000011749268
336,92,225152,2,0,L|256:92,1,77.0000023498536,2|0,0:0|0:0,0:0:0:0:
160,172,225410,6,0,L|76:172,1,77.0000023498536,8|0,0:0|0:0,0:0:0:0:
360,192,225669,2,0,L|444:192,1,77.0000023498536,6|0,0:0|0:0,0:0:0:0:
228,248,225928,2,0,L|144:248,1,77.0000023498536,8|0,0:0|0:0,0:0:0:0:
432,272,226190,2,0,P|496:244|504:152,1,154.000004699707,2|8,0:0|0:0,0:0:0:0:
152,84,226707,6,0,P|132:152|164:240,1,154.000004699707,2|8,0:0|0:0,0:0:0:0:
360,156,227095,2,0,L|264:156,1,77.0000023498536,2|0,0:0|0:0,0:0:0:0:
412,156,227354,1,2,0:0:0:0:
496,232,227483,2,0,L|388:232,1,77.0000023498536,8|0,0:0|0:0,0:0:0:0:
136,192,227742,2,0,L|144:280,1,77.0000023498536,2|0,0:0|0:0,0:0:0:0:
376,320,228001,2,0,L|376:228,1,77.0000023498536,8|0,0:0|0:0,0:0:0:0:
80,140,228259,6,0,L|168:224,1,115.50000352478,2|0,0:0|0:0,0:0:0:0:
434,241,228518,2,0,L|348:164,1,115.50000352478,8|0,0:0|0:0,0:0:0:0:
52,104,228776,2,0,L|128:140,3,77.0000023498536,2|0|0|0,0:0|0:0|0:0|0:0,0:0:0:0:
348,300,229294,5,2,0:0:0:0:
400,232,229423,1,0,0:0:0:0:
372,144,229552,1,8,0:0:0:0:
304,88,229682,1,0,0:0:0:0:
72,132,229811,1,2,0:0:0:0:
164,140,229940,1,2,0:0:0:0:
96,216,230070,1,2,0:0:0:0:
404,240,230199,5,0,0:0:0:0:
444,208,230264,1,0,0:0:0:0:
56,196,230328,2,0,L|12:132,1,77.0000023498536,12|0,0:0|0:0,0:0:0:0:
400,184,230587,1,6,0:0:0:0:
152,52,230716,1,4,0:0:0:0:
128,84,230781,1,0,0:0:0:0:
124,132,230845,1,4,0:0:0:0:
356,136,230975,2,0,L|300:136,1,38.5000011749268,6|0,0:0|0:0,0:0:0:0:
140,176,231104,6,0,L|224:176,1,77.0000023498536,12|0,0:0|0:0,0:0:0:0:
428,236,231363,2,0,P|441:277|416:328,1,77.0000023498536,2|0,0:0|0:0,0:0:0:0:
404,328,231557,1,0,0:0:0:0:
100,252,231621,2,0,L|164:320,1,77.0000023498536,8|0,0:0|0:0,0:0:0:0:
264,252,231880,1,2,0:0:0:0:
204,188,232009,1,0,0:0:0:0:
84,100,232139,6,0,L|72:200,1,77.0000023498536,8|0,0:0|0:0,0:0:0:0:
300,92,232397,2,0,L|320:176,1,77.0000023498536,2|0,0:0|0:0,0:0:0:0:
86,257,232656,2,0,P|46:217|86:173,1,115.50000352478,8|0,0:0|0:0,0:0:0:0:
400,200,232914,2,0,P|435:146|420:56,1,154.000004699707,2|8,0:0|0:0,0:0:0:0:
112,64,233302,6,0,L|56:136,1,77.0000023498536,2|0,0:0|0:0,0:0:0:0:
152,192,233561,2,0,L|92:276,1,77.0000023498536,2|8,0:0|0:0,0:0:0:0:
360,192,233820,2,0,L|416:268,1,77.0000023498536,2|0,0:0|0:0,0:0:0:0:
360,52,234078,2,0,L|412:120,1,77.0000023498536,0|8,0:0|0:0,0:0:0:0:
436,156,234272,1,0,0:0:0:0:
400,168,234337,1,0,0:0:0:0:
352,140,234401,1,0,0:0:0:0:
88,104,234466,6,0,P|48:152|128:152,1,154.000004699707,2|8,0:0|0:0,0:0:0:0:
432,204,234983,2,0,L|484:147,1,77.0000023498536,2|0,0:0|0:0,0:0:0:0:
252,192,235242,1,8,0:0:0:0:
29,147,235371,1,2,0:0:0:0:
252,192,235501,6,0,L|332:192,1,77.0000023498536,2|0,0:0|0:0,0:0:0:0:
140,260,235759,2,0,L|36:260,1,77.0000023498536,8|0,0:0|0:0,0:0:0:0:
336,292,236018,2,0,L|416:264,1,77.0000023498536,2|0,0:0|0:0,0:0:0:0:
100,140,236276,2,0,L|180:184,1,77.0000023498536,8|0,0:0|0:0,0:0:0:0:
196,196,236470,1,0,0:0:0:0:
408,266,236535,6,0,P|468:210|444:146,1,154.000004699707,2|8,0:0|0:0,0:0:0:0:
408,118,236858,1,0,0:0:0:0:
236,160,236923,1,0,0:0:0:0:
196,196,236988,1,0,0:0:0:0:
400,200,237052,2,0,L|504:200,1,77.0000023498536,6|0,0:0|0:0,0:0:0:0:
456,156,237246,1,0,0:0:0:0:
124,148,237311,2,0,L|44:124,1,77.0000023498536,8|0,0:0|0:0,0:0:0:0:
400,328,237570,5,2,0:0:0:0:
112,328,237699,1,2,0:0:0:0:
56,240,237828,2,0,L|32:156,1,77.0000023498536,2|0,0:0|0:0,0:0:0:0:
368,136,238087,2,0,P|392:188|380:252,1,115.50000352478,8|0,0:0|0:0,0:0:0:0:
124,148,238345,2,0,P|124:84|164:24,1,115.50000352478,8|0,0:0|0:0,0:0:0:0:
460,164,238604,6,0,L|460:264,1,70,6|0,0:0|0:0,0:0:0:0:
52,234,238863,2,0,L|52:142,1,70,10|0,0:0|0:0,0:0:0:0:
460,164,239121,2,0,L|448:264,1,70,2|0,0:0|0:0,0:0:0:0:
52,164,239380,2,0,L|64:256,1,70,10|0,0:0|0:0,0:0:0:0:
460,164,239639,6,0,L|432:260,1,70,2|0,0:0|0:0,0:0:0:0:
52,164,239896,2,0,L|76:248,1,70,10|0,0:0|0:0,0:0:0:0:
460,164,240156,2,0,L|416:248,1,70,2|0,0:0|0:0,0:0:0:0:
52,164,240415,2,0,L|88:240,1,70,10|0,0:0|0:0,0:0:0:0:
460,164,240673,6,0,L|500:252,1,70,2|0,0:0|0:0,0:0:0:0:
360,232,240931,2,0,L|324:152,1,70,2|0,0:0|0:0,0:0:0:0:
72,96,241189,2,0,L|-12:96,1,70,10|0,0:0|0:0,0:0:0:0:
440,96,241448,2,0,L|520:96,1,70,10|0,0:0|0:0,0:0:0:0:
180,148,241707,6,0,L|180:244,1,70,2|0,0:0|0:0,0:0:0:0:
220,248,241901,1,0,0:0:0:0:
360,200,241965,2,0,L|360:108,1,70,10|0,0:0|0:0,0:0:0:0:
312,104,242159,1,0,0:0:0:0:
180,148,242224,2,0,L|156:236,1,70,10|0,0:0|0:0,0:0:0:0:
196,232,242418,1,0,0:0:0:0:
360,200,242483,2,0,P|392:149|388:96,1,105,8|0,0:0|0:0,0:0:0:0:
88,104,242741,6,0,L|88:204,1,70,2|0,0:0|0:0,0:0:0:0:
424,210,243000,2,0,L|424:280,1,70,10|0,0:0|0:0,0:0:0:0:
88,104,243259,2,0,L|76:192,1,70,2|0,0:0|0:0,0:0:0:0:
424,280,243518,2,0,L|440:188,1,70,10|0,0:0|0:0,0:0:0:0:
88,104,243776,6,0,L|60:200,1,70,2|0,0:0|0:0,0:0:0:0:
424,280,244034,2,0,L|464:192,1,70,10|0,0:0|0:0,0:0:0:0:
16,188,244293,2,0,L|88:212,1,70,2|0,0:0|0:0,0:0:0:0:
496,196,244552,2,0,L|416:168,1,70,10|0,0:0|0:0,0:0:0:0:
52,127,244810,6,0,L|4:207,1,70,2|0,0:0|0:0,0:0:0:0:
116,240,245069,2,0,L|80:300,1,70,10|0,0:0|0:0,0:0:0:0:
460,127,245327,2,0,L|512:212,1,70,2|0,0:0|0:0,0:0:0:0:
396,240,245586,2,0,L|440:316,1,70,10|0,0:0|0:0,0:0:0:0:
192,144,245845,6,0,L|192:244,1,70,2|0,0:0|0:0,0:0:0:0:
320,212,246103,2,0,L|320:120,1,70,10|0,0:0|0:0,0:0:0:0:
76,80,246362,1,2,0:0:0:0:
312,80,246491,1,2,0:0:0:0:
192,144,246621,1,2,0:0:0:0:
448,144,246750,1,2,0:0:0:0:
100,152,246880,6,0,L|24:208,1,77.0000023498536,6|0,0:0|0:0,0:0:0:0:
112,220,247138,1,2,0:0:0:0:
200,220,247267,1,2,0:0:0:0:
416,260,247396,2,0,L|496:216,1,77.0000023498536,10|0,0:0|0:0,0:0:0:0:
416,176,247655,1,2,0:0:0:0:
328,176,247784,1,2,0:0:0:0:
92,68,247914,6,0,L|56:148,1,77.0000023498536,10|0,0:0|0:0,0:0:0:0:
48,232,248172,1,2,0:0:0:0:
120,296,248302,1,2,0:0:0:0:
376,64,248432,2,0,L|452:132,1,77.0000023498536,10|0,0:0|0:0,0:0:0:0:
460,204,248689,1,2,0:0:0:0:
412,280,248819,1,2,0:0:0:0:
76,96,248948,6,0,L|44:184,1,77.0000023498536,10|0,0:0|0:0,0:0:0:0:
436,288,249207,2,0,L|464:200,1,77.0000023498536,2|0,0:0|0:0,0:0:0:0:
76,96,249465,6,0,L|100:184,1,77.0000023498536,2|0,0:0|0:0,0:0:0:0:
136,188,249659,1,0,0:0:0:0:
184,192,249724,2,0,L|284:220,1,77.0000023498536,10|0,0:0|0:0,0:0:0:0:
468,328,249983,6,0,L|516:252,1,77.0000023498536,10|0,0:0|0:0,0:0:0:0:
420,216,250241,2,0,L|464:144,1,77.0000023498536,2|0,0:0|0:0,0:0:0:0:
124,56,250501,6,0,L|40:72,1,77.0000023498536,2|0,0:0|0:0,0:0:0:0:
92,96,250694,1,0,0:0:0:0:
340,96,250758,2,0,L|468:96,1,115.50000352478,14|0,0:0|0:0,0:0:0:0:
144,188,251017,6,0,P|66:201|28:144,2,154.000004699707,2|4|2,0:0|0:0|0:0,0:0:0:0:
212,144,251621,1,2,0:0:0:0:
296,148,251707,1,2,0:0:0:0:
492,224,251793,5,10,0:0:0:0:
412,228,251879,1,2,0:0:0:0:
336,204,251965,1,2,0:0:0:0:
88,252,252052,5,10,0:0:0:0:
16,188,252138,1,2,0:0:0:0:
72,116,252224,1,2,0:0:0:0:
260,80,252310,5,10,0:0:0:0:
320,160,252396,1,2,0:0:0:0:
248,232,252483,1,2,0:0:0:0:
428,312,252569,5,10,0:0:0:0:
508,236,252655,1,2,0:0:0:0:
456,144,252741,1,2,0:0:0:0:
260,80,252827,5,10,0:0:0:0:
160,96,252914,1,2,0:0:0:0:
204,176,253000,1,2,0:0:0:0:
428,312,253086,6,0,L|264:312,1,154.000004699707,6|0,0:0|0:0,0:0:0:0:
32,304,253474,2,0,L|112:256,1,77.0000023498536,2|0,0:0|0:0,0:0:0:0:
356,192,253991,6,0,L|372:192,6,9.6250002937317
248,192,254121,2,0,P|184:192|140:236,1,105,8|0,0:0|0:0,0:0:0:0:
288,272,254379,2,0,L|440:272,1,140,2|0,0:0|0:0,0:0:0:0:
192,252,254767,1,2,0:0:0:0:
148,228,254832,1,2,0:0:0:0:
112,192,254896,1,2,0:0:0:0:
88,144,254962,1,2,0:0:0:0:
88,104,254977,2,0,L|100:100,9,8.75
336,96,255155,6,0,P|400:144|312:152,1,210.000008010865,6|0,0:0|0:0,0:0:0:0:
176,283,255543,2,0,L|204:227,1,35
284,284,255672,2,0,P|376:244|388:140,1,210,2|0,0:0|0:0,0:0:0:0:
280,176,256190,1,2,0:0:0:0:
104,80,256448,6,0,L|100:168,1,70,2|0,0:0|0:0,0:0:0:0:
320,72,256707,2,0,L|368:112,1,35,2|0,0:0|0:0,0:0:0:0:
412,148,256836,2,0,L|268:136,1,140
124,196,257224,2,0,L|112:280,1,70,2|0,0:0|0:0,0:0:0:0:
328,232,257483,2,0,L|320:320,1,70,2|0,0:0|0:0,0:0:0:0:
94,265,257741,2,0,P|54:173|102:73,1,210,2|0,0:0|0:0,0:0:0:0:
208,80,258259,1,2,0:0:0:0:
448,160,258517,6,0,L|464:252,1,70,2|0,0:0|0:0,0:0:0:0:
312,152,258776,2,0,L|304:244,1,70,2|0,0:0|0:0,0:0:0:0:
72,152,259293,1,2,0:0:0:0:
24,244,259422,1,0,0:0:0:0:
40,336,259552,1,0,0:0:0:0:
112,260,259681,1,0,0:0:0:0:
304,192,259810,1,2,0:0:0:0:
480,192,260327,1,2,0:0:0:0:
300,188,260586,6,0,L|293:118,1,70,2|0,0:0|0:0,0:0:0:0:
92,56,260845,2,0,L|100:152,1,70,2|0,0:0|0:0,0:0:0:0:
400,200,261362,6,0,L|400:288,1,70,6|0,0:0|0:0,0:0:0:0:
100,268,261621,2,0,L|96:172,1,70,2|0,0:0|0:0,0:0:0:0:
292,152,261879,1,0,0:0:0:0:
480,144,262396,1,2,0:0:0:0:
288,108,262655,6,0,L|216:164,1,70,2|0,0:0|0:0,0:0:0:0:
96,144,262914,2,0,L|32:192,1,70,2|0,0:0|0:0,0:0:0:0:
144,232,263172,1,0,0:0:0:0:
332,260,263431,1,2,0:0:0:0:
408,220,263560,1,0,0:0:0:0:
464,144,263689,1,0,0:0:0:0:
424,52,263819,1,0,0:0:0:0:
336,40,263948,1,2,0:0:0:0:
68,48,264465,1,2,0:0:0:0:
224,144,264724,6,0,L|296:184,1,70,2|0,0:0|0:0,0:0:0:0:
440,260,264983,2,0,L|508:296,1,70,2|0,0:0|0:0,0:0:0:0:
120,80,265500,6,0,L|200:128,1,70,8|0,0:0|0:0,0:0:0:0:
328,200,265758,2,0,L|408:244,1,70,8|0,0:0|0:0,0:0:0:0:
68,304,266534,1,0,0:0:0:0:
336,152,266793,6,0,L|292:240,1,70,8|0,0:0|0:0,0:0:0:0:
200,164,267052,2,0,L|152:256,1,70,8|0,0:0|0:0,0:0:0:0:
388,248,267311,1,2,0:0:0:0:
167,226,267569,5,8,0:0:0:0:
275,222,267698,1,8,0:0:0:0:
375,206,267827,1,8,0:0:0:0:
183,146,267957,2,0,L|153:127,1,35,6|0,0:0|0:0,0:0:0:0:
