osu file format v14

[General]
AudioFilename: audio.mp3
AudioLeadIn: 0
PreviewTime: 415
Countdown: 0
SampleSet: Soft
StackLeniency: 0.7
Mode: 2
LetterboxInBreaks: 0
WidescreenStoryboard: 1

[Editor]
Bookmarks: 8095,23455
DistanceSpacing: 2
BeatDivisor: 4
GridSize: 16
TimelineZoom: 1.9

[Metadata]
Title:Neko Atsume no Thema
TitleUnicode:ねこあつめのテーマ
Artist:Shintani Ryo
ArtistUnicode:新谷亮
Creator:Hareimu
Version:Rain
Source:ねこあつめ
Tags:cat collector kitty game hit-point hitpoint ryou exit tunes ねこあつめらぶ(ver.くろ) love ver. version kuro bgm breezy vg vgm video background music mobile tema theme electronic instrumental らぶ videogame
BeatmapID:2225826
BeatmapSetID:1062960

[Difficulty]
HPDrainRate:5
CircleSize:4
OverallDifficulty:8
ApproachRate:8
SliderMultiplier:2
SliderTickRate:2

[Events]
//Background and Video events
0,0,"bg.jpg",0,0
//Break Periods
//Storyboard Layer 0 (Background)
//Storyboard Layer 1 (Fail)
//Storyboard Layer 2 (Pass)
//Storyboard Layer 3 (Foreground)
//Storyboard Layer 4 (Overlay)
//Storyboard Sound Samples

[TimingPoints]
415,480,4,2,0,50,1,0

[Colours]
Combo1 : 234,214,74
Combo2 : 255,163,71
Combo3 : 165,234,96
Combo4 : 98,202,255

[HitObjects]
417,259,415,6,0,L|423:149,1,100,2|0,3:0|0:0,0:0:0:0:
223,157,895,2,0,L|341:158,1,100,2|0,0:2|3:0,0:0:0:0:
122,157,1375,2,0,L|10:155,2,100,2|2|0,0:3|0:2|3:0,0:0:0:0:
423,148,2095,6,0,P|483:216|411:276,1,200,6|6,3:3|3:3,0:0:0:0:
215,275,2815,1,2,3:2:0:0:
165,274,2935,1,0,3:0:0:0:
115,272,3055,2,0,L|229:275,1,100,0|0,3:0|3:0,0:0:0:0:
414,276,3535,2,0,L|305:277,2,100,2|2|0,0:2|3:0|3:0,0:0:0:0:
95,259,4255,6,0,L|89:149,1,100,2|0,3:3|0:0,0:0:0:0:
289,157,4735,2,0,L|171:158,1,100,2|0,0:2|3:0,0:0:0:0:
385,160,5215,2,0,L|497:158,2,100,2|2|0,0:3|0:2|3:0,0:0:0:0:
85,152,5935,6,0,P|25:220|97:280,1,200,6|6,3:3|0:3,0:0:0:0:
310,281,6655,1,2,3:2:0:0:
359,283,6775,1,0,3:0:0:0:
409,278,6895,2,0,L|295:281,1,100,0|0,3:0|3:3,0:0:0:0:
104,284,7375,2,0,L|213:285,1,100,2|2,0:0|3:0,0:0:0:0:
403,284,7855,1,2,0:0:0:0:
103,185,8095,6,0,L|95:80,1,100,2|0,3:0|0:0,0:0:0:0:
295,97,8575,1,2,0:0:0:0:
195,91,8815,2,0,L|187:201,1,100,0|2,3:0|3:3,0:0:0:0:
388,200,9295,2,0,L|395:83,1,100,2|0,0:0|3:0,0:0:0:0:
94,81,9775,6,0,P|39:151|119:212,1,200,6|6,0:3|0:3,0:0:0:0:
307,227,10495,1,2,0:0:0:0:
257,226,10615,1,0,3:0:0:0:
207,225,10735,1,0,3:0:0:0:
307,225,10975,1,0,3:3:0:0:
106,227,11215,2,0,P|41:164|104:99,1,200,2|0,0:0|3:0,0:0:0:0:
409,185,11935,6,0,L|417:80,1,100,2|0,3:3|0:0,0:0:0:0:
217,97,12415,1,2,0:0:0:0:
317,91,12655,2,0,L|325:201,1,100,0|2,3:0|0:3,0:0:0:0:
124,200,13135,2,0,L|117:83,1,100,2|0,0:0|3:0,0:0:0:0:
418,97,13615,6,0,P|473:167|393:228,1,200,6|6,0:3|0:3,0:0:0:0:
205,237,14335,1,2,0:0:0:0:
255,236,14455,1,0,3:0:0:0:
305,235,14575,1,0,3:0:0:0:
469,236,14755,1,0,3:0:0:0:
444,236,14815,2,0,L|326:235,1,100,2|0,3:3|0:0,0:0:0:0:
138,140,15295,2,0,L|38:140,1,100,2|0,0:3|0:0,0:0:0:0:
338,170,15775,6,0,L|464:169,1,100,2|0,3:3|0:0,0:0:0:0:
237,169,16255,1,2,0:0:0:0:
338,170,16495,2,0,L|346:55,1,100,0|2,3:0|3:3,0:0:0:0:
145,90,16975,2,0,L|19:89,1,100,2|0,0:0|3:0,0:0:0:0:
346,209,17455,6,0,P|435:173|462:80,1,200,6|6,0:3|0:3,0:0:0:0:
261,284,18175,1,2,0:0:0:0:
310,285,18295,1,0,3:0:0:0:
360,286,18415,1,0,3:0:0:0:
261,275,18655,1,0,3:3:0:0:
459,299,18895,2,0,P|481:209|402:159,1,200,2|0,0:0|3:0,0:0:0:0:
74,169,19615,6,0,L|174:170,1,100,2|0,3:3|0:0,0:0:0:0:
373,168,20095,1,2,0:0:0:0:
272,169,20335,2,0,L|264:54,1,100,0|2,3:0|0:3,0:0:0:0:
465,69,20815,2,0,L|475:172,1,100,2|0,0:0|3:0,0:0:0:0:
164,78,21295,6,0,P|99:139|165:198,1,200,6|6,0:3|0:3,0:0:0:0:
366,201,22015,1,2,0:0:0:0:
416,201,22135,1,0,3:0:0:0:
465,199,22255,2,0,L|366:201,1,100,0|0,3:0|3:3,0:0:0:0:
166,207,22735,2,0,L|291:205,1,100,4|2,3:0|0:3,0:0:0:0:
66,207,23215,1,2,0:0:0:0:
366,62,23455,6,0,L|483:62,2,100,6|2|0,3:0|0:0|3:0,0:0:0:0:
166,62,24175,2,0,L|159:175,1,100,2|2,0:0|3:0,0:0:0:0:
359,160,24655,2,0,L|471:160,1,100,2|0,0:0|3:0,0:0:0:0:
159,161,25135,6,0,L|361:158,1,200,6|6,0:3|0:3,0:0:0:0:
156,55,25855,1,0,3:0:0:0:
205,52,25975,1,0,3:0:0:0:
255,53,26095,1,0,3:0:0:0:
155,59,26335,1,2,0:0:0:0:
354,326,26575,2,0,L|249:327,2,100,2|2|0,3:2|0:3|0:0,0:0:0:0:
52,319,27295,6,0,L|152:323,2,100,6|0|0,3:0|0:0|3:0,0:0:0:0:
252,325,28015,2,0,L|366:324,1,100,2|2,3:2|3:0,0:0:0:0:
152,323,28495,2,0,L|52:320,1,100,2|0,0:0|3:0,0:0:0:0:
350,315,28975,6,0,L|139:313,1,200,6|6,3:0|3:0,0:0:0:0:
200,312,29575,1,0,3:0:0:0:
324,309,29695,1,2,3:0:0:0:
370,290,29815,1,0,3:0:0:0:
360,240,29935,1,0,3:0:0:0:
300,235,30055,1,0,3:0:0:0:
175,234,30175,2,0,L|281:235,1,100,2|0,3:2|3:0,0:0:0:0:
74,236,30655,2,0,L|66:107,1,100,2|0,3:2|0:0,0:0:0:0:
366,89,31135,6,0,L|256:88,2,100,4|2|0,3:0|0:0|3:0,0:0:0:0:
166,71,31855,2,0,L|162:174,1,100,2|2,0:0|3:0,0:0:0:0:
362,168,32335,2,0,L|465:167,1,100,2|0,0:0|3:0,0:0:0:0:
162,315,32815,6,0,L|373:313,1,200,6|6,3:0|3:0,0:0:0:0:
312,312,33415,1,0,3:0:0:0:
188,309,33535,1,2,3:0:0:0:
142,290,33655,1,0,3:0:0:0:
152,240,33775,1,0,3:0:0:0:
212,235,33895,1,0,3:0:0:0:
336,235,34015,2,0,L|214:235,1,100,2|2,3:2|0:0,0:0:0:0:
435,244,34495,2,0,L|442:128,1,100,2|0,3:0|3:0,0:0:0:0:
106,160,34975,6,0,L|216:159,2,100,6|2|0,3:0|0:0|3:0,0:0:0:0:
305,158,35695,2,0,L|313:52,1,100,2|2,3:2|3:0,0:0:0:0:
112,61,36175,2,0,L|8:60,1,100,2|0,0:0|3:0,0:0:0:0:
312,193,36655,6,0,L|112:195,1,200,6|6,3:0|3:0,0:0:0:0:
311,194,37375,1,2,3:2:0:0:
261,194,37495,1,0,3:0:0:0:
211,194,37615,1,2,3:2:0:0:
410,198,37855,2,0,L|416:73,1,100,2|0,3:0|3:0,0:0:0:0:
214,98,38335,1,2,3:0:0:0:
413,95,38575,1,2,0:0:0:0:
61,187,38815,6,0,L|55:72,1,100,2|0,3:2|0:0,0:0:0:0:
256,88,39295,2,0,L|136:90,1,100,2|0,0:0|3:0,0:0:0:0:
355,85,39775,1,2,3:2:0:0:
155,87,40015,1,2,0:0:0:0:
354,90,40255,2,0,L|466:90,1,100,2|2,0:0|3:0,0:0:0:0:
147,88,40735,5,2,3:0:0:0:
86,90,40855,1,0,0:0:0:0:
50,125,40975,1,0,0:0:0:0:
43,174,41095,1,0,0:0:0:0:
167,179,41215,1,2,0:0:0:0:
117,178,41335,1,0,3:0:0:0:
67,177,41455,1,0,3:0:0:0:
365,88,41695,1,2,3:0:0:0:
426,90,41815,1,0,0:0:0:0:
462,125,41935,1,0,0:0:0:0:
469,174,42055,1,0,0:0:0:0:
345,179,42175,2,0,L|465:177,1,100,2|0,0:0|3:0,0:0:0:0:
144,179,42655,6,0,L|32:177,2,100,2|0|0,3:3|3:0|3:0,0:0:0:0:
343,177,43375,2,0,L|414:177,1,50,0|0,3:0|0:0,0:0:0:0:
207,68,43615,1,2,3:2:0:0:
147,68,43735,1,0,3:0:0:0:
87,68,43855,1,2,3:2:0:0:
306,68,44095,2,0,L|412:68,1,100,2|0,3:0|0:0,0:0:0:0:
56,290,44575,1,6,3:3:0:0:
