osu file format v14

[General]
AudioFilename: audio.mp3
AudioLeadIn: 0
PreviewTime: 415
Countdown: 0
SampleSet: Soft
StackLeniency: 0.7
Mode: 2
LetterboxInBreaks: 0
WidescreenStoryboard: 0

[Editor]
Bookmarks: 8095,23455
DistanceSpacing: 1
BeatDivisor: 16
GridSize: 16
TimelineZoom: 1.9

[Metadata]
Title:Neko Atsume no Thema
TitleUnicode:ねこあつめのテーマ
Artist:Shintani Ryo
ArtistUnicode:新谷亮
Creator:Hareimu
Version:Platter
Source:ねこあつめ
Tags:cat collector kitty game hit-point hitpoint ryou exit tunes ねこあつめらぶ(ver.くろ) love ver. version kuro bgm breezy vg vgm video background music mobile tema theme electronic instrumental らぶ videogame
BeatmapID:2225825
BeatmapSetID:1062960

[Difficulty]
HPDrainRate:4
CircleSize:3
OverallDifficulty:7.3
ApproachRate:7.3
SliderMultiplier:1.7
SliderTickRate:2

[Events]
//Background and Video events
0,0,"bg.jpg",0,0
//Break Periods
//Storyboard Layer 0 (Background)
//Storyboard Layer 1 (Fail)
//Storyboard Layer 2 (Pass)
//Storyboard Layer 3 (Foreground)
//Storyboard Layer 4 (Overlay)
//Storyboard Sound Samples

[TimingPoints]
415,480,4,2,0,50,1,0

[Colours]
Combo1 : 234,214,74
Combo2 : 255,163,71
Combo3 : 165,234,96
Combo4 : 98,202,255

[HitObjects]
131,129,415,5,2,3:0:0:0:
300,128,895,2,0,L|393:126,1,85,2|0,0:2|3:0,0:0:0:0:
299,128,1375,2,0,L|200:129,2,85,2|2|0,0:3|0:2|3:0,0:0:0:0:
89,105,2095,6,0,P|37:165|97:220,1,170,6|6,3:3|3:3,0:0:0:0:
174,217,2815,2,0,L|76:218,2,85,2|0|0,3:2|3:0|3:0,0:0:0:0:
89,105,3535,2,0,P|37:165|97:220,1,170,2|0,0:2|3:0,0:0:0:0:
299,239,4255,5,2,3:3:0:0:
129,250,4735,2,0,L|126:161,1,85,2|0,0:2|3:0,0:0:0:0:
211,161,5215,2,0,L|314:158,2,85,2|2|0,0:3|0:2|3:0,0:0:0:0:
423,109,5935,6,0,P|475:169|415:224,1,170,6|6,3:3|0:3,0:0:0:0:
337,218,6655,2,0,L|433:217,2,85,2|0|0,3:2|3:0|3:3,0:0:0:0:
252,220,7375,2,0,L|440:216,1,170,2|2,0:0|0:0,0:0:0:0:
100,82,8095,6,0,L|15:82,2,85,2|0|2,3:0|0:0|0:0,0:0:0:0:
309,82,8815,2,0,L|394:82,2,85,0|2|2,3:0|3:3|0:0,0:0:0:0:
215,79,9535,1,0,3:0:0:0:
424,78,9775,6,0,P|483:124|427:175,1,170,6|6,0:3|0:3,0:0:0:0:
325,176,10495,2,0,L|228:174,2,85,2|0|0,0:0|3:0|3:3,0:0:0:0:
214,172,11215,2,0,L|33:172,1,170,2|0,0:0|3:0,0:0:0:0:
351,75,11935,6,0,L|436:75,2,85,2|0|2,3:3|0:0|0:0,0:0:0:0:
160,83,12655,2,0,L|157:168,1,85,0|2,3:0|0:3,0:0:0:0:
257,165,13135,2,0,L|342:165,1,85,2|0,0:0|3:0,0:0:0:0:
100,120,13615,6,0,P|45:171|110:223,1,170,6|6,0:3|0:3,0:0:0:0:
201,220,14335,2,0,L|101:220,1,85,2|0,0:0|3:0,0:0:0:0:
329,222,14815,2,0,L|334:121,1,85,2|0,3:3|0:0,0:0:0:0:
120,135,15295,2,0,L|31:137,1,85,2|0,0:3|0:0,0:0:0:0:
342,166,15775,6,0,L|427:168,2,85,2|0|2,3:3|0:0|0:0,0:0:0:0:
137,163,16495,2,0,L|249:160,1,85,0|2,3:0|3:3,0:0:0:0:
340,152,16975,2,0,L|348:44,1,85,2|0,0:0|3:0,0:0:0:0:
157,77,17455,6,0,P|100:126|156:177,1,170,6|6,0:3|0:3,0:0:0:0:
240,180,18175,2,0,L|343:180,2,85,2|0|0,0:0|3:0|3:3,0:0:0:0:
441,178,18895,2,0,P|499:134|441:90,1,170,2|0,0:0|3:0,0:0:0:0:
127,168,19615,6,0,L|42:170,2,85,2|0|2,3:3|0:0|0:0,0:0:0:0:
335,163,20335,2,0,L|223:160,1,85,0|2,3:0|0:3,0:0:0:0:
140,155,20815,2,0,L|132:47,1,85,2|0,0:0|3:0,0:0:0:0:
345,88,21295,6,0,P|409:129|364:190,1,170,6|6,0:3|0:3,0:0:0:0:
262,190,22015,2,0,L|164:190,2,85,2|0|0,0:0|3:0|3:3,0:0:0:0:
476,194,22735,2,0,L|380:194,2,85,4|2|2,3:0|0:3|0:0,0:0:0:0:
141,191,23455,6,0,L|52:192,1,85,6|2,3:0|0:0,0:0:0:0:
141,191,23935,1,0,3:0:0:0:
57,193,24175,2,0,L|53:94,1,85,2|2,0:0|3:0,0:0:0:0:
266,109,24655,2,0,L|350:106,1,85,2|0,0:0|3:0,0:0:0:0:
138,112,25135,6,0,P|80:154|161:210,1,170,6|6,0:3|0:3,0:0:0:0:
214,34,25855,1,0,3:0:0:0:
129,34,26095,1,0,3:0:0:0:
341,345,26335,2,0,L|448:349,1,85,2|2,0:0|3:2,0:0:0:0:
213,342,26815,2,0,L|128:342,1,85,2|0,0:3|0:0,0:0:0:0:
442,197,27295,6,0,L|446:98,1,85,6|0,3:0|0:0,0:0:0:0:
360,115,27775,1,0,3:0:0:0:
444,116,28015,2,0,L|346:117,1,85,2|2,3:2|3:0,0:0:0:0:
146,117,28495,2,0,L|61:116,1,85,2|0,0:0|3:0,0:0:0:0:
274,116,28975,6,0,L|477:115,1,170,6|6,3:0|3:0,0:0:0:0:
401,115,29575,1,0,3:0:0:0:
358,115,29695,1,2,3:0:0:0:
259,111,29935,1,0,3:0:0:0:
301,112,30055,1,0,3:0:0:0:
343,111,30175,1,2,3:2:0:0:
258,112,30415,1,0,3:0:0:0:
470,105,30655,2,0,L|475:211,1,85,2|0,3:2|0:0,0:0:0:0:
142,189,31135,6,0,L|49:187,2,85,4|2|0,3:0|0:0|3:0,0:0:0:0:
354,200,31855,2,0,L|359:108,1,85,2|2,0:0|3:0,0:0:0:0:
145,118,32335,2,0,L|51:119,1,85,2|0,0:0|3:0,0:0:0:0:
272,122,32815,6,0,P|325:180|271:236,1,170,6|6,3:0|3:0,0:0:0:0:
229,235,33415,1,0,3:0:0:0:
186,234,33535,1,2,3:0:0:0:
271,236,33775,2,0,L|336:236,2,42.5,0|0|2,3:0|3:0|3:2,0:0:0:0:
57,245,34255,2,0,L|167:245,2,85,2|2|0,0:0|3:0|3:0,0:0:0:0:
371,250,34975,6,0,L|463:249,2,85,6|2|0,3:0|0:0|3:0,0:0:0:0:
158,253,35695,2,0,L|266:252,1,85,2|2,3:2|3:0,0:0:0:0:
456,109,36175,2,0,L|357:111,1,85,2|0,0:0|3:0,0:0:0:0:
158,110,36655,6,0,L|369:110,1,170,6|6,3:0|3:0,0:0:0:0:
243,273,37375,2,0,L|339:273,1,85,2|2,3:2|3:2,0:0:0:0:
142,272,37855,2,0,L|39:272,3,85,2|0|2|2,3:0|3:0|3:0|0:0,0:0:0:0:
370,270,38815,5,2,3:2:0:0:
435,236,39055,1,0,0:0:0:0:
423,157,39295,1,2,0:0:0:0:
348,131,39535,1,0,3:0:0:0:
135,121,39775,2,0,L|233:119,1,85,2|2,3:2|0:0,0:0:0:0:
433,123,40255,2,0,L|436:215,1,85,2|2,0:0|3:0,0:0:0:0:
129,218,40735,6,0,L|70:217,2,42.5,2|0|0,3:0|0:0|0:0,0:0:0:0:
256,218,41215,2,0,L|364:219,1,85,2|0,0:0|3:0,0:0:0:0:
129,126,41695,2,0,L|70:127,2,42.5,2|0|0,3:0|0:0|0:0,0:0:0:0:
256,123,42175,2,0,L|364:122,1,85,2|0,0:0|3:0,0:0:0:0:
129,141,42655,6,0,L|24:137,2,85,2|0|0,3:3|3:0|3:0,0:0:0:0:
342,142,43375,2,0,L|410:141,1,42.5,0|0,3:0|0:0,0:0:0:0:
342,142,43615,2,0,L|243:141,1,85,2|2,3:2|3:2,0:0:0:0:
44,130,44095,2,0,L|128:128,1,85,2|0,3:0|0:0,0:0:0:0:
451,74,44575,1,6,3:3:0:0:
