osu file format v14

[General]
AudioFilename: audio.mp3
AudioLeadIn: 0
PreviewTime: 415
Countdown: 0
SampleSet: Soft
StackLeniency: 0.7
Mode: 2
LetterboxInBreaks: 0
WidescreenStoryboard: 1

[Editor]
Bookmarks: 8095,23455
DistanceSpacing: 1.3
BeatDivisor: 16
GridSize: 16
TimelineZoom: 1.9

[Metadata]
Title:Neko Atsume no Thema
TitleUnicode:ねこあつめのテーマ
Artist:Shintani Ryo
ArtistUnicode:新谷亮
Creator:Hareimu
Version:Overdose
Source:ねこあつめ
Tags:cat collector kitty game hit-point hitpoint ryou exit tunes ねこあつめらぶ(ver.くろ) love ver. version kuro bgm breezy vg vgm video background music mobile tema theme electronic instrumental らぶ videogame
BeatmapID:3999091
BeatmapSetID:1062960

[Difficulty]
HPDrainRate:6
CircleSize:4.5
OverallDifficulty:8.7
ApproachRate:8.7
SliderMultiplier:2
SliderTickRate:2

[Events]
//Background and Video events
0,0,"bg.jpg",0,0
//Break Periods
//Storyboard Layer 0 (Background)
//Storyboard Layer 1 (Fail)
//Storyboard Layer 2 (Pass)
//Storyboard Layer 3 (Foreground)
//Storyboard Layer 4 (Overlay)
//Storyboard Sound Samples

[TimingPoints]
415,480,4,2,0,50,1,0

[Colours]
Combo1 : 234,214,74
Combo2 : 255,163,71
Combo3 : 165,234,96
Combo4 : 98,202,255

[HitObjects]
159,181,415,6,0,L|36:181,1,100,2|0,3:0|0:0,0:0:0:0:
258,173,895,1,2,0:2:0:0:
58,184,1135,1,0,3:0:0:0:
357,177,1375,1,2,0:3:0:0:
157,174,1615,2,0,L|158:71,1,100,2|0,0:2|3:0,0:0:0:0:
456,179,2095,6,0,L|356:180,2,100,6|0|6,3:3|0:0|3:3,0:0:0:0:
255,193,2815,1,2,3:2:0:0:
354,195,2935,1,0,3:0:0:0:
254,196,3055,1,0,3:0:0:0:
453,200,3295,1,0,3:0:0:0:
149,73,3535,2,0,L|39:73,2,100,2|2|0,0:2|3:0|3:0,0:0:0:0:
453,181,4255,6,0,L|353:181,1,100,2|0,3:3|0:0,0:0:0:0:
153,169,4735,1,2,0:2:0:0:
353,180,4975,1,0,3:0:0:0:
57,175,5215,1,2,0:3:0:0:
257,172,5455,2,0,L|361:171,1,100,2|0,0:2|3:0,0:0:0:0:
56,179,5935,6,0,L|156:180,2,100,6|0|6,3:3|0:0|0:3,0:0:0:0:
257,193,6655,1,2,3:2:0:0:
157,196,6775,1,0,3:0:0:0:
258,196,6895,1,0,3:0:0:0:
59,200,7135,1,0,3:3:0:0:
356,208,7375,2,0,L|250:208,1,100,2|2,0:0|3:0,0:0:0:0:
56,214,7855,1,2,0:0:0:0:
380,73,8095,6,0,L|275:73,1,100,2|0,3:0|0:0,0:0:0:0:
480,77,8575,1,2,0:0:0:0:
158,101,8815,2,0,L|273:102,1,100,0|2,3:0|3:3,0:0:0:0:
59,100,9295,2,0,L|54:210,1,100,2|0,0:0|3:0,0:0:0:0:
375,213,9775,6,0,L|382:102,1,100,6|0,0:3|0:0,0:0:0:0:
181,117,10255,1,6,0:3:0:0:
380,120,10495,1,2,0:0:0:0:
280,119,10615,1,0,3:0:0:0:
380,120,10735,1,0,3:0:0:0:
180,114,10975,1,0,3:3:0:0:
479,83,11215,2,0,L|379:83,2,100,2|2|0,0:0|3:0|3:0,0:0:0:0:
132,73,11905,5,0,0:0:0:0:
132,73,11935,2,0,L|237:73,1,100,2|0,3:3|0:0,0:0:0:0:
32,77,12415,1,2,0:0:0:0:
356,177,12655,2,0,L|241:178,1,100,0|2,3:0|0:3,0:0:0:0:
453,95,13135,2,0,L|333:98,1,100,2|0,0:0|3:0,0:0:0:0:
19,157,13615,6,0,L|127:157,1,100,6|0,0:3|0:0,0:0:0:0:
318,160,14095,1,6,0:3:0:0:
118,160,14335,1,2,0:0:0:0:
217,166,14455,1,0,3:0:0:0:
118,160,14575,1,0,3:0:0:0:
356,160,14755,1,0,3:0:0:0:
381,160,14815,2,0,L|278:158,1,100,2|0,3:3|0:0,0:0:0:0:
481,160,15295,2,0,L|484:46,1,100,2|0,0:3|0:0,0:0:0:0:
157,278,15745,5,0,0:0:0:0:
157,278,15775,2,0,L|153:162,1,100,2|0,3:3|0:0,0:0:0:0:
353,179,16255,1,2,0:0:0:0:
38,75,16495,2,0,L|28:184,1,100,0|2,3:0|3:3,0:0:0:0:
229,170,16975,2,0,L|120:168,1,100,2|0,0:0|3:0,0:0:0:0:
473,168,17455,6,0,L|373:168,2,100,6|0|6,0:3|0:0|0:3,0:0:0:0:
273,173,18175,1,2,0:0:0:0:
173,180,18295,1,0,3:0:0:0:
273,173,18415,1,0,3:0:0:0:
73,172,18655,1,0,3:3:0:0:
371,94,18895,1,2,0:0:0:0:
171,94,19135,2,0,L|56:97,1,100,2|0,3:0|3:0,0:0:0:0:
371,278,19585,5,0,0:0:0:0:
371,278,19615,2,0,L|375:162,1,100,2|0,3:3|0:0,0:0:0:0:
175,179,20095,1,2,0:0:0:0:
474,75,20335,2,0,L|479:180,1,100,0|2,3:0|0:3,0:0:0:0:
277,177,20815,2,0,L|399:175,1,100,2|0,0:0|3:0,0:0:0:0:
39,168,21295,6,0,L|139:168,2,100,6|0|6,0:3|0:0|0:3,0:0:0:0:
238,167,22015,1,2,0:0:0:0:
337,170,22135,1,0,3:0:0:0:
238,167,22255,1,0,3:0:0:0:
437,164,22495,1,0,3:3:0:0:
137,92,22735,1,4,3:0:0:0:
336,88,22975,1,2,0:3:0:0:
30,76,23215,1,2,0:0:0:0:
355,149,23425,5,0,0:0:0:0:
355,149,23455,1,6,3:0:0:0:
155,156,23695,2,0,L|275:157,1,100,2|0,0:0|3:0,0:0:0:0:
54,159,24175,2,0,L|47:56,1,100,2|2,0:0|3:0,0:0:0:0:
347,55,24655,2,0,L|447:55,1,100,2|0,0:0|3:0,0:0:0:0:
147,56,25135,6,0,L|31:55,2,100,6|0|6,0:3|0:0|0:3,0:0:0:0:
346,66,25855,1,0,3:0:0:0:
246,73,25975,1,0,3:0:0:0:
346,66,26095,1,0,3:0:0:0:
46,62,26335,2,0,L|44:168,1,100,2|2,0:0|3:2,0:0:0:0:
453,61,26815,2,0,L|459:178,1,100,2|0,0:3|0:0,0:0:0:0:
157,149,27265,5,0,0:0:0:0:
157,149,27295,2,0,L|263:150,2,100,6|0|0,3:0|0:0|3:0,0:0:0:0:
458,159,28015,2,0,L|465:56,1,100,2|2,3:2|3:0,0:0:0:0:
165,55,28495,2,0,L|65:55,1,100,2|0,0:0|3:0,0:0:0:0:
365,56,28975,6,0,L|481:55,2,100,6|0|6,3:0|0:0|3:0,0:0:0:0:
314,57,29575,1,0,3:0:0:0:
114,150,29695,2,0,L|182:148,1,50,2|0,3:0|3:0,0:0:0:0:
363,142,29935,2,0,L|426:142,1,50,0|0,3:0|3:0,0:0:0:0:
138,330,30175,2,0,L|21:329,1,100,2|0,3:2|3:0,0:0:0:0:
374,330,30655,2,0,L|491:329,1,100,2|0,3:2|0:0,0:0:0:0:
157,149,31105,5,0,0:0:0:0:
157,149,31135,1,4,3:0:0:0:
357,156,31375,2,0,L|237:157,1,100,2|0,0:0|3:0,0:0:0:0:
56,164,31855,2,0,L|50:62,1,100,2|2,0:0|3:0,0:0:0:0:
355,153,32335,2,0,L|465:153,1,100,2|0,0:0|3:0,0:0:0:0:
142,151,32815,6,0,L|43:151,2,100,6|0|6,3:0|0:0|3:0,0:0:0:0:
192,152,33415,1,0,3:0:0:0:
391,148,33535,2,0,L|333:148,1,50,2|0,3:0|3:0,0:0:0:0:
94,65,33775,2,0,L|163:66,1,50,0|0,3:0|3:0,0:0:0:0:
366,236,34015,2,0,L|474:236,1,100,2|2,3:2|0:0,0:0:0:0:
141,236,34495,2,0,L|32:236,1,100,2|0,3:0|3:0,0:0:0:0:
361,95,34945,5,0,0:0:0:0:
361,95,34975,1,6,3:0:0:0:
161,99,35215,1,2,0:0:0:0:
360,102,35455,1,0,3:0:0:0:
58,64,35695,2,0,L|51:174,1,100,2|2,3:2|3:0,0:0:0:0:
347,164,36175,2,0,L|447:163,1,100,2|0,0:0|3:0,0:0:0:0:
97,59,36655,6,0,L|212:61,2,100,6|0|6,3:0|0:0|3:0,0:0:0:0:
296,61,37375,1,2,3:2:0:0:
196,60,37495,1,0,3:0:0:0:
407,107,37615,1,2,3:2:0:0:
205,182,37855,2,0,L|330:182,1,100,2|0,3:0|3:0,0:0:0:0:
105,176,38335,1,2,3:0:0:0:
407,176,38575,1,2,0:0:0:0:
30,50,38815,6,0,L|160:49,1,100,2|0,3:2|0:0,0:0:0:0:
329,61,39295,1,2,0:0:0:0:
129,59,39535,1,0,3:0:0:0:
428,64,39775,1,2,3:2:0:0:
128,60,40015,1,2,0:0:0:0:
327,64,40255,1,2,0:0:0:0:
27,60,40495,1,2,3:0:0:0:
392,258,40735,5,2,3:0:0:0:
440,222,40855,1,0,0:0:0:0:
425,143,40975,1,2,0:3:0:0:
359,140,41095,1,0,0:0:0:0:
279,144,41215,1,2,0:0:0:0:
475,55,41335,1,0,3:0:0:0:
396,56,41455,1,0,3:0:0:0:
97,256,41695,5,2,3:0:0:0:
46,220,41815,1,0,0:0:0:0:
61,141,41935,1,2,0:3:0:0:
130,138,42055,1,0,0:0:0:0:
361,116,42175,2,0,L|469:116,1,100,2|0,0:0|3:0,0:0:0:0:
134,106,42655,6,0,L|26:106,2,100,2|0|0,3:3|3:0|3:0,0:0:0:0:
310,69,43375,1,0,3:0:0:0:
180,69,43495,2,0,L|212:69,1,25
376,278,43615,1,2,3:2:0:0:
440,278,43735,1,0,3:0:0:0:
376,278,43855,1,2,3:2:0:0:
31,197,44095,1,2,3:0:0:0:
170,199,44335,1,0,0:0:0:0:
476,92,44575,1,6,3:3:0:0:
