osu file format v14

[General]
AudioFilename: audio.mp3
AudioLeadIn: 0
PreviewTime: 174
Countdown: 0
SampleSet: Soft
StackLeniency: 0.5
Mode: 1
LetterboxInBreaks: 0
WidescreenStoryboard: 1

[Editor]
Bookmarks: 414,8094,23454,38814,44574
DistanceSpacing: 1.1
BeatDivisor: 4
GridSize: 16
TimelineZoom: 1.6

[Metadata]
Title:Neko Atsume no Thema
TitleUnicode:ねこあつめのテーマ
Artist:Shintani Ryo
ArtistUnicode:新谷亮
Creator:Dopaminos
Version:Muzukashii
Source:ねこあつめ
Tags:cat kitty collector tema theme ryou hit-point hitpoint bgm background music video game electronic instrumental らぶ rabu
BeatmapID:2616350
BeatmapSetID:1257255

[Difficulty]
HPDrainRate:7
CircleSize:3.5
OverallDifficulty:4.5
ApproachRate:5
SliderMultiplier:1.4
SliderTickRate:1

[Events]
//Background and Video events
0,0,"nyan.jpg",0,-110
//Break Periods
//Storyboard Layer 0 (Background)
//Storyboard Layer 1 (Fail)
//Storyboard Layer 2 (Pass)
//Storyboard Layer 3 (Foreground)
//Storyboard Layer 4 (Overlay)
//Storyboard Sound Samples

[TimingPoints]
414,480,4,2,0,50,1,0

[Colours]
Combo1 : 207,207,207
Combo2 : 123,196,192
Combo3 : 156,210,123
Combo4 : 228,205,124

[HitObjects]
256,192,414,5,0,0:0:0:0:
256,192,894,1,8,0:0:0:0:
256,192,1134,1,0,0:0:0:0:
256,192,1374,1,0,0:0:0:0:
256,192,1614,1,8,0:0:0:0:
256,192,1854,1,0,0:0:0:0:
256,192,2094,1,0,0:0:0:0:
256,192,2574,1,0,0:0:0:0:
256,192,2814,1,8,0:0:0:0:
256,192,2934,1,8,0:0:0:0:
256,192,3054,1,8,0:0:0:0:
256,192,3294,1,0,0:0:0:0:
256,192,3534,1,8,0:0:0:0:
256,192,4014,1,8,0:0:0:0:
256,192,4254,1,0,0:0:0:0:
256,192,4734,1,8,0:0:0:0:
256,192,4974,1,0,0:0:0:0:
256,192,5214,1,0,0:0:0:0:
256,192,5454,1,8,0:0:0:0:
256,192,5694,1,0,0:0:0:0:
256,192,5934,1,0,0:0:0:0:
256,192,6414,1,0,0:0:0:0:
256,192,6654,1,8,0:0:0:0:
256,192,6774,1,8,0:0:0:0:
256,192,6894,1,8,0:0:0:0:
256,192,7134,1,0,0:0:0:0:
256,192,7374,1,8,0:0:0:0:
254,175,7854,1,8,0:0:0:0:
252,180,8094,1,0,0:0:0:0:
254,175,8334,1,0,0:0:0:0:
254,175,8574,1,8,0:0:0:0:
252,180,8814,1,0,0:0:0:0:
252,180,9054,1,0,0:0:0:0:
254,175,9294,1,8,0:0:0:0:
254,175,9534,1,8,0:0:0:0:
254,171,9774,1,0,0:0:0:0:
254,171,10254,1,0,0:0:0:0:
254,175,10494,1,8,0:0:0:0:
254,175,10614,1,8,0:0:0:0:
254,171,10734,1,8,0:0:0:0:
254,171,10974,1,0,0:0:0:0:
254,171,11214,1,8,0:0:0:0:
252,180,11694,1,0,0:0:0:0:
254,171,11934,1,8,0:0:0:0:
254,175,12174,1,0,0:0:0:0:
254,175,12414,1,8,0:0:0:0:
252,180,12654,1,0,0:0:0:0:
254,175,12894,1,0,0:0:0:0:
254,175,13134,1,8,0:0:0:0:
254,175,13374,1,8,0:0:0:0:
254,171,13614,1,0,0:0:0:0:
256,192,14094,1,0,0:0:0:0:
256,192,14334,1,8,0:0:0:0:
256,192,14454,1,8,0:0:0:0:
256,192,14574,1,8,0:0:0:0:
256,192,14814,1,0,0:0:0:0:
248,193,15054,1,8,0:0:0:0:
248,193,15294,1,8,0:0:0:0:
248,193,15534,1,8,0:0:0:0:
248,193,15774,1,0,0:0:0:0:
254,175,16254,1,8,0:0:0:0:
254,175,16494,1,0,0:0:0:0:
252,180,16734,1,0,0:0:0:0:
254,175,16974,1,8,0:0:0:0:
254,175,17214,1,8,0:0:0:0:
254,175,17454,1,0,0:0:0:0:
254,175,17934,1,0,0:0:0:0:
254,175,18174,1,8,0:0:0:0:
254,175,18294,1,8,0:0:0:0:
254,175,18414,1,8,0:0:0:0:
254,175,18654,1,0,0:0:0:0:
254,175,18894,1,8,0:0:0:0:
254,175,19374,1,8,0:0:0:0:
254,175,19614,1,0,0:0:0:0:
254,175,19854,1,0,0:0:0:0:
254,175,20094,1,8,0:0:0:0:
254,175,20334,1,0,0:0:0:0:
254,175,20574,1,0,0:0:0:0:
254,175,20814,1,8,0:0:0:0:
254,175,21054,1,8,0:0:0:0:
254,175,21294,1,0,0:0:0:0:
254,175,21774,1,0,0:0:0:0:
254,175,22014,1,8,0:0:0:0:
254,175,22134,1,8,0:0:0:0:
254,175,22254,1,8,0:0:0:0:
254,175,22494,1,0,0:0:0:0:
254,175,22734,1,0,0:0:0:0:
254,175,22974,1,8,0:0:0:0:
254,175,23214,1,8,0:0:0:0:
254,175,23454,1,0,0:0:0:0:
254,175,23694,1,8,0:0:0:0:
254,175,23934,1,8,0:0:0:0:
254,175,24174,1,0,0:0:0:0:
257,185,24654,1,8,0:0:0:0:
254,175,24894,1,0,0:0:0:0:
254,175,25134,1,0,0:0:0:0:
254,175,25614,1,0,0:0:0:0:
254,175,25854,1,8,0:0:0:0:
254,175,25974,1,8,0:0:0:0:
254,175,26094,1,8,0:0:0:0:
254,175,26334,1,0,0:0:0:0:
254,175,26574,1,0,0:0:0:0:
254,175,26814,1,8,0:0:0:0:
254,175,27054,1,8,0:0:0:0:
254,175,27294,1,0,0:0:0:0:
254,175,27774,1,8,0:0:0:0:
254,175,28014,1,0,0:0:0:0:
254,175,28254,1,0,0:0:0:0:
254,175,28494,1,8,0:0:0:0:
254,175,28734,1,0,0:0:0:0:
254,175,28974,1,8,0:0:0:0:
254,175,29454,1,0,0:0:0:0:
254,175,29574,1,0,0:0:0:0:
254,175,29694,1,0,0:0:0:0:
254,175,29934,1,8,0:0:0:0:
254,175,30054,1,8,0:0:0:0:
254,175,30174,1,8,0:0:0:0:
254,175,30414,1,0,0:0:0:0:
254,175,30654,1,8,0:0:0:0:
254,175,31134,1,0,0:0:0:0:
254,175,31374,1,8,0:0:0:0:
254,175,31614,1,8,0:0:0:0:
254,175,31854,1,0,0:0:0:0:
254,175,32334,1,8,0:0:0:0:
254,175,32574,1,0,0:0:0:0:
254,175,32814,1,0,0:0:0:0:
254,175,33294,1,0,0:0:0:0:
254,175,33414,1,0,0:0:0:0:
254,175,33534,1,0,0:0:0:0:
254,175,33774,1,8,0:0:0:0:
254,175,33894,1,8,0:0:0:0:
254,175,34014,1,8,0:0:0:0:
254,175,34254,1,0,0:0:0:0:
254,175,34494,1,8,0:0:0:0:
254,175,34974,1,0,0:0:0:0:
254,175,35214,1,8,0:0:0:0:
254,175,35454,1,0,0:0:0:0:
254,175,35694,1,8,0:0:0:0:
254,175,35934,1,8,0:0:0:0:
254,175,36174,1,0,0:0:0:0:
254,175,36414,1,8,0:0:0:0:
254,175,36654,1,0,0:0:0:0:
254,175,37134,1,0,0:0:0:0:
254,175,37374,1,8,0:0:0:0:
254,175,37494,1,8,0:0:0:0:
254,175,37614,1,8,0:0:0:0:
254,175,37854,1,0,0:0:0:0:
254,175,38094,1,8,0:0:0:0:
254,175,38334,1,8,0:0:0:0:
254,175,38574,1,0,0:0:0:0:
254,175,38814,1,0,0:0:0:0:
254,175,39294,1,8,0:0:0:0:
254,175,39534,1,0,0:0:0:0:
254,175,39774,1,8,0:0:0:0:
254,175,40014,1,8,0:0:0:0:
254,175,40254,1,0,0:0:0:0:
254,175,40494,1,0,0:0:0:0:
254,175,40734,1,0,0:0:0:0:
254,175,40854,1,0,0:0:0:0:
254,175,40974,1,0,0:0:0:0:
254,175,41214,1,8,0:0:0:0:
254,175,41694,1,0,0:0:0:0:
254,175,41814,1,0,0:0:0:0:
254,175,41934,1,0,0:0:0:0:
254,175,42174,1,8,0:0:0:0:
254,175,42654,1,8,0:0:0:0:
254,175,43134,1,0,0:0:0:0:
254,175,43374,1,8,0:0:0:0:
254,175,43494,1,8,0:0:0:0:
254,175,43614,1,8,0:0:0:0:
254,175,43854,1,8,0:0:0:0:
254,175,44094,1,0,0:0:0:0:
254,175,44334,1,0,0:0:0:0:
254,175,44574,1,12,0:0:0:0:
