osu file format v14

[General]
AudioFilename: audio.mp3
AudioLeadIn: 0
PreviewTime: 174
Countdown: 0
SampleSet: Soft
StackLeniency: 0.5
Mode: 1
LetterboxInBreaks: 0
WidescreenStoryboard: 1

[Editor]
Bookmarks: 414,8094,23454,38814,44574
DistanceSpacing: 1.1
BeatDivisor: 4
GridSize: 8
TimelineZoom: 1.6

[Metadata]
Title:Neko Atsume no Thema
TitleUnicode:ねこあつめのテーマ
Artist:Shintani Ryo
ArtistUnicode:新谷亮
Creator:Dopaminos
Version:Futsuu
Source:ねこあつめ
Tags:cat kitty collector tema theme ryou hit-point hitpoint bgm background music video game electronic instrumental らぶ rabu
BeatmapID:2616349
BeatmapSetID:1257255

[Difficulty]
HPDrainRate:8
CircleSize:3.5
OverallDifficulty:3.5
ApproachRate:5
SliderMultiplier:1.4
SliderTickRate:1

[Events]
//Background and Video events
0,0,"nyan.jpg",0,-110
//Break Periods
//Storyboard Layer 0 (Background)
//Storyboard Layer 1 (Fail)
//Storyboard Layer 2 (Pass)
//Storyboard Layer 3 (Foreground)
//Storyboard Layer 4 (Overlay)
//Storyboard Sound Samples

[TimingPoints]
414,480,4,2,0,50,1,0

[Colours]
Combo1 : 207,207,207
Combo2 : 123,196,192
Combo3 : 156,210,123
Combo4 : 228,205,124

[HitObjects]
255,192,414,5,0,0:0:0:0:
255,192,1134,1,0,0:0:0:0:
255,192,1374,1,0,0:0:0:0:
255,192,1854,1,8,0:0:0:0:
255,192,2094,1,0,0:0:0:0:
257,192,2574,1,0,0:0:0:0:
257,192,2814,1,8,0:0:0:0:
257,192,3054,1,8,0:0:0:0:
255,192,3294,1,0,0:0:0:0:
257,192,3774,1,8,0:0:0:0:
257,192,4254,1,0,0:0:0:0:
255,192,4974,1,0,0:0:0:0:
255,192,5214,1,0,0:0:0:0:
255,192,5694,1,8,0:0:0:0:
255,192,5934,1,0,0:0:0:0:
255,192,6414,1,0,0:0:0:0:
255,192,6654,1,8,0:0:0:0:
255,192,6894,1,8,0:0:0:0:
255,192,7134,1,0,0:0:0:0:
255,192,8094,1,0,0:0:0:0:
255,192,8574,1,8,0:0:0:0:
255,192,8814,1,0,0:0:0:0:
255,192,9054,1,0,0:0:0:0:
255,192,9534,1,8,0:0:0:0:
255,192,9774,1,0,0:0:0:0:
255,192,10254,1,0,0:0:0:0:
255,192,10494,1,8,0:0:0:0:
255,192,10974,1,0,0:0:0:0:
255,192,11214,1,8,0:0:0:0:
255,192,11694,1,8,0:0:0:0:
255,192,11934,1,0,0:0:0:0:
255,192,12414,1,8,0:0:0:0:
255,192,12654,1,0,0:0:0:0:
255,192,12894,5,0,0:0:0:0:
255,192,13374,1,8,0:0:0:0:
255,192,13614,1,0,0:0:0:0:
255,192,14094,1,0,0:0:0:0:
255,192,14334,1,8,0:0:0:0:
255,192,14814,1,0,0:0:0:0:
255,192,15774,1,0,0:0:0:0:
255,192,16254,1,8,0:0:0:0:
255,192,16494,1,0,0:0:0:0:
255,192,16734,1,0,0:0:0:0:
255,192,17214,1,8,0:0:0:0:
255,192,17454,1,0,0:0:0:0:
257,192,17934,1,8,0:0:0:0:
257,192,18174,1,0,0:0:0:0:
257,192,18654,1,0,0:0:0:0:
257,192,18894,1,8,0:0:0:0:
257,192,19614,1,8,0:0:0:0:
257,192,20094,1,8,0:0:0:0:
257,192,20334,1,0,0:0:0:0:
257,192,20574,1,0,0:0:0:0:
255,192,21054,1,8,0:0:0:0:
255,192,21294,1,0,0:0:0:0:
255,192,21774,1,0,0:0:0:0:
257,192,22014,1,8,0:0:0:0:
257,192,22494,1,0,0:0:0:0:
257,192,22734,1,8,0:0:0:0:
257,192,23454,1,0,0:0:0:0:
257,192,23934,1,8,0:0:0:0:
257,192,24174,1,0,0:0:0:0:
257,192,24654,1,8,0:0:0:0:
257,192,25134,1,0,0:0:0:0:
257,192,25614,1,0,0:0:0:0:
257,192,25854,1,8,0:0:0:0:
257,192,26334,1,0,0:0:0:0:
257,192,26574,1,8,0:0:0:0:
257,192,27294,1,0,0:0:0:0:
257,192,27774,1,0,0:0:0:0:
257,192,28014,1,8,0:0:0:0:
257,192,28494,1,8,0:0:0:0:
257,192,28734,1,0,0:0:0:0:
257,192,28974,1,0,0:0:0:0:
257,192,29454,1,0,0:0:0:0:
257,192,29694,1,8,0:0:0:0:
257,192,29934,1,0,0:0:0:0:
257,192,30174,1,8,0:0:0:0:
257,192,30654,1,8,0:0:0:0:
257,192,31134,1,0,0:0:0:0:
257,192,31614,1,8,0:0:0:0:
257,192,31854,1,0,0:0:0:0:
257,192,32334,1,8,0:0:0:0:
257,192,32814,1,8,0:0:0:0:
257,192,33294,1,0,0:0:0:0:
257,192,33534,1,8,0:0:0:0:
257,192,33774,1,8,0:0:0:0:
257,192,34014,1,0,0:0:0:0:
257,192,34494,1,8,0:0:0:0:
257,192,34974,1,0,0:0:0:0:
257,192,35214,1,8,0:0:0:0:
257,192,35694,1,8,0:0:0:0:
257,192,36174,1,8,0:0:0:0:
257,192,36414,1,0,0:0:0:0:
257,192,36654,1,0,0:0:0:0:
257,192,37134,1,8,0:0:0:0:
257,192,37374,1,0,0:0:0:0:
257,192,37614,1,8,0:0:0:0:
257,192,38094,1,0,0:0:0:0:
257,192,38334,1,8,0:0:0:0:
257,192,38814,1,0,0:0:0:0:
257,192,39294,1,8,0:0:0:0:
257,192,39534,1,0,0:0:0:0:
257,192,39774,1,0,0:0:0:0:
257,192,40014,1,8,0:0:0:0:
257,192,40494,1,8,0:0:0:0:
257,192,40734,1,0,0:0:0:0:
257,192,41214,1,8,0:0:0:0:
257,192,41694,1,0,0:0:0:0:
257,192,42174,1,8,0:0:0:0:
257,192,42654,1,0,0:0:0:0:
257,192,43614,1,8,0:0:0:0:
257,192,43854,1,8,0:0:0:0:
257,192,44094,1,0,0:0:0:0:
257,192,44574,1,12,0:0:0:0:
