osu file format v14

[General]
AudioFilename: audio.mp3
AudioLeadIn: 0
PreviewTime: 415
Countdown: 0
SampleSet: Soft
StackLeniency: 0.7
Mode: 3
LetterboxInBreaks: 0
SpecialStyle: 0
WidescreenStoryboard: 1

[Editor]
DistanceSpacing: 1
BeatDivisor: 4
GridSize: 32
TimelineZoom: 1.9

[Metadata]
Title:Neko Atsume no Thema
TitleUnicode:ねこあつめのテーマ
Artist:Shintani Ryo
ArtistUnicode:新谷亮
Creator:-mint-
Version:Dynascape's 4K Intermediate
Source:ねこあつめ
Tags:cat collector kitty hit-point hitpoint ryou exit tunes エグジットチューンズ ねこあつめらぶ(ver.くろ) kuro black (ver.しろ) shiro white (ver.ちゃ) cha brown らぶ rabu love ver. version QWCE-00497 QWCE-00498 QWCE-00499 mobile vg vgm video game videogame bgm background music theme tema dynascape elexire red pocket _seth sunapple ballistic ballisticbubba fogershot rhymeswithmash bsm electronic instrumental
BeatmapID:4325969
BeatmapSetID:2067815

[Difficulty]
HPDrainRate:6.5
CircleSize:4
OverallDifficulty:6.5
ApproachRate:5.7
SliderMultiplier:1.5
SliderTickRate:1

[Events]
//Background and Video events
0,0,"rascal.jpg",0,0
//Break Periods
//Storyboard Layer 0 (Background)
//Storyboard Layer 1 (Fail)
//Storyboard Layer 2 (Pass)
//Storyboard Layer 3 (Foreground)
//Storyboard Layer 4 (Overlay)
//Storyboard Sound Samples

[TimingPoints]
415,480,4,2,1,50,1,0

[HitObjects]
320,192,415,5,0,0:0:0:0:
448,192,895,1,0,0:0:0:0:
64,192,1135,1,0,0:0:0:0:
320,192,1615,1,0,0:0:0:0:
192,192,1855,1,0,0:0:0:0:
64,192,2095,128,0,2575:0:0:0:0:
320,192,2575,1,0,0:0:0:0:
448,192,2815,1,0,0:0:0:0:
64,192,3055,1,0,0:0:0:0:
192,192,3295,1,0,0:0:0:0:
320,192,3535,128,0,4015:0:0:0:0:
64,192,4015,1,0,0:0:0:0:
192,192,4255,1,0,0:0:0:0:
64,192,4735,1,0,0:0:0:0:
448,192,4975,1,0,0:0:0:0:
192,192,5455,1,0,0:0:0:0:
320,192,5695,1,0,0:0:0:0:
448,192,5935,128,0,6415:0:0:0:0:
192,192,6415,1,0,0:0:0:0:
64,192,6655,1,0,0:0:0:0:
448,192,6895,1,0,0:0:0:0:
320,192,7135,1,0,0:0:0:0:
192,192,7375,128,0,7855:0:0:0:0:
448,192,7855,1,0,0:0:0:0:
64,192,8095,1,0,0:0:0:0:
192,192,8335,1,0,0:0:0:0:
320,192,8575,1,0,0:0:0:0:
64,192,8815,1,0,0:0:0:0:
192,192,9055,1,0,0:0:0:0:
320,192,9295,1,0,0:0:0:0:
64,192,9775,128,0,10255:0:0:0:0:
320,192,10255,1,0,0:0:0:0:
448,192,10495,1,0,0:0:0:0:
64,192,10735,1,0,0:0:0:0:
320,192,10975,1,0,0:0:0:0:
192,192,11215,128,0,11695:0:0:0:0:
448,192,11695,1,0,0:0:0:0:
64,192,11935,1,0,0:0:0:0:
192,192,12175,1,0,0:0:0:0:
448,192,12415,1,0,0:0:0:0:
64,192,12655,1,0,0:0:0:0:
192,192,12895,1,0,0:0:0:0:
448,192,13135,1,0,0:0:0:0:
64,192,13615,128,0,14095:0:0:0:0:
320,192,14095,1,0,0:0:0:0:
448,192,14335,1,0,0:0:0:0:
192,192,14575,1,0,0:0:0:0:
448,192,14815,1,0,0:0:0:0:
320,192,15055,1,0,0:0:0:0:
192,192,15295,1,0,0:0:0:0:
64,192,15535,1,0,0:0:0:0:
192,192,15775,1,0,0:0:0:0:
320,192,16015,1,0,0:0:0:0:
448,192,16255,1,0,0:0:0:0:
192,192,16495,1,0,0:0:0:0:
320,192,16735,1,0,0:0:0:0:
448,192,16975,1,0,0:0:0:0:
64,192,17455,128,0,17935:0:0:0:0:
320,192,17935,1,0,0:0:0:0:
448,192,18175,1,0,0:0:0:0:
64,192,18415,1,0,0:0:0:0:
320,192,18655,1,0,0:0:0:0:
192,192,18895,128,0,19375:0:0:0:0:
448,192,19375,1,0,0:0:0:0:
64,192,19615,1,0,0:0:0:0:
320,192,19855,1,0,0:0:0:0:
448,192,20095,1,0,0:0:0:0:
64,192,20335,1,0,0:0:0:0:
320,192,20575,1,0,0:0:0:0:
448,192,20815,1,0,0:0:0:0:
64,192,21295,128,0,21775:0:0:0:0:
320,192,21775,1,0,0:0:0:0:
448,192,22015,1,0,0:0:0:0:
192,192,22255,1,0,0:0:0:0:
448,192,22495,1,0,0:0:0:0:
64,192,22735,1,0,0:0:0:0:
320,192,22975,1,0,0:0:0:0:
448,192,23215,1,0,0:0:0:0:
64,192,23455,1,0,0:0:0:0:
320,192,23695,1,0,0:0:0:0:
192,192,23935,1,0,0:0:0:0:
64,192,24175,1,0,0:0:0:0:
448,192,24655,1,0,0:0:0:0:
192,192,25135,128,0,25615:0:0:0:0:
320,192,25615,1,0,0:0:0:0:
448,192,25855,1,0,0:0:0:0:
64,192,26095,1,0,0:0:0:0:
192,192,26335,1,0,0:0:0:0:
320,192,26575,1,0,0:0:0:0:
448,192,26815,1,0,0:0:0:0:
192,192,27055,1,0,0:0:0:0:
320,192,27295,1,0,0:0:0:0:
64,192,27535,1,0,0:0:0:0:
192,192,27775,1,0,0:0:0:0:
320,192,28015,1,0,0:0:0:0:
448,192,28495,1,0,0:0:0:0:
192,192,28975,128,0,29455:0:0:0:0:
320,192,29455,1,0,0:0:0:0:
448,192,29695,1,0,0:0:0:0:
64,192,29935,1,0,0:0:0:0:
320,192,30175,1,0,0:0:0:0:
192,192,30415,1,0,0:0:0:0:
448,192,30655,1,0,0:0:0:0:
192,192,30895,1,0,0:0:0:0:
64,192,31135,1,0,0:0:0:0:
320,192,31375,1,0,0:0:0:0:
192,192,31615,1,0,0:0:0:0:
64,192,31855,1,0,0:0:0:0:
448,192,32335,1,0,0:0:0:0:
192,192,32815,128,0,33295:0:0:0:0:
320,192,33295,1,0,0:0:0:0:
64,192,33535,1,0,0:0:0:0:
448,192,33775,1,0,0:0:0:0:
320,192,34015,1,0,0:0:0:0:
192,192,34255,1,0,0:0:0:0:
64,192,34495,1,0,0:0:0:0:
320,192,34735,1,0,0:0:0:0:
64,192,34975,1,0,0:0:0:0:
448,192,35215,1,0,0:0:0:0:
192,192,35455,1,0,0:0:0:0:
320,192,35695,1,0,0:0:0:0:
448,192,36175,1,0,0:0:0:0:
320,192,36655,128,0,37135:0:0:0:0:
192,192,37135,1,0,0:0:0:0:
64,192,37375,1,0,0:0:0:0:
448,192,37615,1,0,0:0:0:0:
320,192,38095,1,0,0:0:0:0:
64,192,38335,1,0,0:0:0:0:
448,192,38575,1,0,0:0:0:0:
192,192,38815,1,0,0:0:0:0:
64,192,39055,1,0,0:0:0:0:
192,192,39295,1,0,0:0:0:0:
320,192,39535,1,0,0:0:0:0:
448,192,39775,1,0,0:0:0:0:
320,192,40015,1,0,0:0:0:0:
192,192,40255,1,0,0:0:0:0:
64,192,40495,1,0,0:0:0:0:
320,192,40735,128,0,41215:0:0:0:0:
64,192,41215,1,0,0:0:0:0:
320,192,41455,1,0,0:0:0:0:
192,192,41695,128,0,42175:0:0:0:0:
448,192,42175,1,0,0:0:0:0:
192,192,42415,1,0,0:0:0:0:
64,192,42655,1,0,0:0:0:0:
320,192,43135,1,0,0:0:0:0:
192,192,43615,1,0,0:0:0:0:
448,192,43855,1,0,0:0:0:0:
64,192,44095,1,0,0:0:0:0:
192,192,44335,1,0,0:0:0:0:
320,192,44575,1,0,0:0:0:0:
