osu file format v14

[General]
AudioFilename: neko wint.mp3
AudioLeadIn: 0
PreviewTime: 156
Countdown: 0
SampleSet: Normal
StackLeniency: 0.7
Mode: 1
LetterboxInBreaks: 0
WidescreenStoryboard: 1

[Editor]
DistanceSpacing: 0.1
BeatDivisor: 16
GridSize: 32
TimelineZoom: 0.6999999

[Metadata]
Title:Neko Atsume Winter Theme
TitleUnicode:ねこあつめ冬のテーマ
Artist:Shintani Ryo
ArtistUnicode:新谷亮
Creator:Wanpachi
Version:Futsuu
Source:ねこあつめ
Tags:kitty cat collector christmas thema ryou ver. version bgm hit-point hitpoint fuyu no video game instrumental music box cycopton
BeatmapID:2242413
BeatmapSetID:1071283

[Difficulty]
HPDrainRate:8
CircleSize:2
OverallDifficulty:3
ApproachRate:3
SliderMultiplier:1.4
SliderTickRate:1

[Events]
//Background and Video events
0,0,"cute.png",0,0
//Break Periods
//Storyboard Layer 0 (Background)
//Storyboard Layer 1 (Fail)
//Storyboard Layer 2 (Pass)
//Storyboard Layer 3 (Foreground)
//Storyboard Layer 4 (Overlay)
//Storyboard Sound Samples

[TimingPoints]
306,600,4,1,0,30,1,0
19506,-95.2380952380952,4,1,0,30,0,0

[HitObjects]
256,192,306,5,0,0:0:0:0:
256,192,906,1,8,0:0:0:0:
256,192,1206,1,0,0:0:0:0:
256,192,1806,1,8,0:0:0:0:
256,192,2706,1,0,0:0:0:0:
256,192,3306,1,0,0:0:0:0:
256,192,3606,1,8,0:0:0:0:
256,192,3906,1,8,0:0:0:0:
256,192,4806,1,0,0:0:0:0:
256,192,5106,1,0,0:0:0:0:
256,192,5706,1,8,0:0:0:0:
256,192,6006,1,0,0:0:0:0:
256,192,6606,1,8,0:0:0:0:
256,192,7506,1,0,0:0:0:0:
256,192,8106,1,8,0:0:0:0:
256,192,8406,1,8,0:0:0:0:
256,192,8706,1,8,0:0:0:0:
256,192,9306,1,0,0:0:0:0:
256,192,9906,1,0,0:0:0:0:
256,192,10506,1,8,0:0:0:0:
256,192,10806,1,0,0:0:0:0:
256,192,11406,1,8,0:0:0:0:
256,192,12306,1,0,0:0:0:0:
256,192,12906,1,0,0:0:0:0:
256,192,13206,1,8,0:0:0:0:
256,192,13506,1,8,0:0:0:0:
256,192,14106,1,0,0:0:0:0:
256,192,14706,1,0,0:0:0:0:
256,192,15306,1,8,0:0:0:0:
256,192,15606,1,0,0:0:0:0:
256,192,16206,1,8,0:0:0:0:
256,192,17106,1,0,0:0:0:0:
256,192,17706,1,8,0:0:0:0:
256,192,18306,1,8,0:0:0:0:
256,192,18606,1,0,0:0:0:0:
256,192,18906,1,8,0:0:0:0:
256,192,19506,1,0,0:0:0:0:
256,192,20106,1,0,0:0:0:0:
256,192,20406,1,8,0:0:0:0:
256,192,21006,1,8,0:0:0:0:
256,192,21606,1,8,0:0:0:0:
256,192,21906,1,0,0:0:0:0:
256,192,22506,1,0,0:0:0:0:
256,192,23106,1,8,0:0:0:0:
256,192,23706,1,8,0:0:0:0:
256,192,24006,1,8,0:0:0:0:
256,192,24306,1,0,0:0:0:0:
256,192,24906,1,0,0:0:0:0:
256,192,25206,1,8,0:0:0:0:
256,192,25806,1,8,0:0:0:0:
256,192,26706,1,0,0:0:0:0:
256,192,27306,1,0,0:0:0:0:
256,192,27606,1,8,0:0:0:0:
256,192,27906,1,8,0:0:0:0:
256,192,28506,1,8,0:0:0:0:
256,192,29106,1,0,0:0:0:0:
256,192,29706,1,0,0:0:0:0:
256,192,30006,1,8,0:0:0:0:
256,192,30606,1,8,0:0:0:0:
256,192,31206,1,8,0:0:0:0:
256,192,31506,1,0,0:0:0:0:
256,192,32106,1,0,0:0:0:0:
256,192,32706,1,8,0:0:0:0:
256,192,33306,1,8,0:0:0:0:
256,192,33606,1,8,0:0:0:0:
256,192,33906,1,0,0:0:0:0:
256,192,34506,1,0,0:0:0:0:
256,192,34806,1,8,0:0:0:0:
256,192,35406,1,8,0:0:0:0:
256,192,36306,1,0,0:0:0:0:
256,192,36906,1,8,0:0:0:0:
256,192,37206,1,8,0:0:0:0:
256,192,37506,1,8,0:0:0:0:
256,192,38106,1,8,0:0:0:0:
256,192,38706,1,0,0:0:0:0:
256,192,39306,1,0,0:0:0:0:
256,192,39606,1,0,0:0:0:0:
256,192,39906,1,8,0:0:0:0:
256,192,40506,1,8,0:0:0:0:
256,192,40806,1,8,0:0:0:0:
256,192,41106,1,0,0:0:0:0:
256,192,41706,1,8,0:0:0:0:
256,192,42306,1,0,0:0:0:0:
256,192,42906,1,8,0:0:0:0:
256,192,43506,1,0,0:0:0:0:
256,192,44106,1,0,0:0:0:0:
256,192,44406,1,0,0:0:0:0:
256,192,44706,1,8,0:0:0:0:
