osu file format v14

[General]
AudioFilename: audio.mp3
AudioLeadIn: 0
PreviewTime: 306
Countdown: 0
SampleSet: Soft
StackLeniency: 0.7
Mode: 2
LetterboxInBreaks: 0
WidescreenStoryboard: 1

[Editor]
DistanceSpacing: 2.7
BeatDivisor: 4
GridSize: 32
TimelineZoom: 1

[Metadata]
Title:Neko Atsume Winter Theme
TitleUnicode:ねこあつめ冬のテーマ
Artist:Shintani Ryo
ArtistUnicode:新谷亮
Creator:-Joni-
Version:Salad
Source:ねこあつめ
Tags:kitty cat collector christmas ryou bgm hit-point hitpoint app android ios video instrumental music box game wonjae paranoid grapes
BeatmapID:2246035
BeatmapSetID:1073177

[Difficulty]
HPDrainRate:4
CircleSize:3
OverallDifficulty:6.6
ApproachRate:6.6
SliderMultiplier:1.8
SliderTickRate:1

[Events]
//Background and Video events
0,0,"cute.jpg",0,0
//Break Periods
//Storyboard Layer 0 (Background)
//Storyboard Layer 1 (Fail)
//Storyboard Layer 2 (Pass)
//Storyboard Layer 3 (Foreground)
//Storyboard Layer 4 (Overlay)
//Storyboard Sound Samples

[TimingPoints]
306,600,4,2,1,60,1,0

[Colours]
Combo1 : 212,212,212
Combo2 : 136,217,255
Combo3 : 255,198,140

[HitObjects]
171,295,306,6,0,B|113:222|113:222|211:174,1,180,2|2,0:0|0:0,0:0:0:0:
278,196,1206,2,0,L|382:196,1,90
187,62,1806,1,2,0:0:0:0:
334,226,2706,6,0,L|335:39,1,180,2|0,0:0|0:0,0:0:0:0:
243,89,3606,1,0,0:0:0:0:
152,87,3906,1,2,0:1:0:0:
415,188,4806,1,0,0:0:0:0:
156,189,5106,6,0,P|207:113|298:101,1,180,4|2,0:0|0:0,0:0:0:0:
421,220,6006,2,0,L|317:217,1,90
164,219,6606,1,2,0:0:0:0:
321,189,7506,6,0,P|359:137|274:109,1,180,2|0,0:0|0:0,0:0:0:0:
194,101,8406,2,0,L|89:100,1,90,0|2,0:0|0:1,0:0:0:0:
225,225,9006,1,0,0:0:0:0:
320,224,9306,1,2,0:1:0:0:
416,226,9606,1,0,0:0:0:0:
156,226,9906,6,0,P|104:147|189:138,1,180,6|2,0:0|0:0,0:0:0:0:
246,93,10806,2,0,L|342:93,1,90
161,96,11406,1,2,0:0:0:0:
287,161,12306,6,0,P|336:115|258:79,1,180,2|0,0:0|0:0,0:0:0:0:
173,68,13206,1,0,0:0:0:0:
254,59,13506,1,2,0:1:0:0:
464,216,14106,1,2,0:0:0:0:
90,220,14706,6,0,P|31:181|73:99,1,180,4|2,0:2|0:0,0:0:0:0:
183,84,15606,2,0,L|283:86,1,90
418,121,16206,1,2,0:0:0:0:
193,298,17106,6,0,P|127:279|111:174,1,180,2|0,0:0|0:0,0:0:0:0:
190,190,18006,2,0,L|289:190,1,90,0|2,0:0|0:1,0:0:0:0:
350,192,18606,1,0,0:0:0:0:
259,190,18906,1,2,0:0:0:0:
96,226,19506,6,0,L|76:45,1,180,4|2,0:0|0:0,0:0:0:0:
167,87,20406,2,0,L|262:87,1,90,2|0,0:0|0:0,0:0:0:0:
420,94,21006,1,2,0:0:0:0:
254,91,21606,1,2,0:0:0:0:
99,235,21906,6,0,L|98:48,1,180,2|2,0:0|0:0,0:0:0:0:
190,101,22806,2,0,L|287:103,1,90,0|2,0:0|0:1,0:0:0:0:
381,99,23406,1,0,0:0:0:0:
440,98,23706,1,2,0:0:0:0:
381,99,24006,1,0,0:0:0:0:
143,183,24306,6,0,P|114:114|196:83,1,180,4|2,0:0|0:0,0:0:0:0:
291,93,25206,1,2,0:1:0:0:
132,191,25806,1,2,0:1:0:0:
324,189,26406,1,0,0:0:0:0:
446,184,26706,6,0,L|387:101,1,90,4|0,0:0|0:0,0:0:0:0:
270,66,27306,1,0,0:0:0:0:
147,66,27606,1,0,0:0:0:0:
415,61,27906,1,2,0:0:0:0:
188,222,28506,1,2,0:1:0:0:
287,224,29106,6,0,L|470:206,1,180,6|2,0:0|0:0,0:0:0:0:
229,117,30006,2,0,L|44:106,1,180,2|2,0:1|0:0,0:0:0:0:
173,92,31206,1,0,0:0:0:0:
419,130,31506,6,0,L|402:41,1,90,6|0,0:0|0:0,0:0:0:0:
264,39,32106,1,2,0:0:0:0:
126,93,32406,1,0,0:0:0:0:
296,96,32706,1,2,0:0:0:0:
355,183,33006,1,0,0:0:0:0:
258,181,33306,1,2,0:0:0:0:
163,179,33606,1,0,0:0:0:0:
405,301,33906,6,0,P|466:246|394:187,1,180,6|0,0:0|0:0,0:0:0:0:
258,188,34806,2,0,L|446:194,1,180,2|2,0:1|0:1,0:0:0:0:
357,97,35706,1,0,0:0:0:0:
194,226,36306,5,6,0:0:0:0:
67,223,36606,1,0,0:0:0:0:
194,226,36906,1,0,0:0:0:0:
319,226,37206,1,0,0:0:0:0:
194,226,37506,1,2,0:1:0:0:
67,223,37806,1,0,0:0:0:0:
194,226,38106,1,2,0:1:0:0:
448,316,38706,6,0,L|421:122,1,180,4|0,0:2|0:0,0:0:0:0:
306,192,39606,1,0,0:0:0:0:
207,186,39906,2,0,P|174:123|260:112,1,180,2|2,0:1|0:1,0:0:0:0:
448,65,41106,6,0,L|264:68,1,180,2|0,0:1|0:0,0:0:0:0:
89,72,42306,2,0,L|54:258,1,180,2|0,0:1|0:0,0:0:0:0:
276,318,43506,6,0,L|91:320,1,180,2|2,0:1|0:0,0:0:0:0:
225,221,44406,1,0,0:0:0:0:
484,229,44706,1,6,0:0:0:0:
