osu file format v14

[General]
AudioFilename: audio.mp3
AudioLeadIn: 0
PreviewTime: 31893
Countdown: 0
SampleSet: Soft
StackLeniency: 0.4
Mode: 0
LetterboxInBreaks: 0
WidescreenStoryboard: 0

[Editor]
DistanceSpacing: 1
BeatDivisor: 4
GridSize: 4
TimelineZoom: 1.9

[Metadata]
Title:Yuugure no Tori
TitleUnicode:夕暮れの鳥
Artist:Shinsei Kamattechan
ArtistUnicode:神聖かまってちゃん
Creator:Monstrata
Version:Normal
Source:進撃の巨人
Tags:ascendance revo mikasa ackerman Shingeki no Kyojin Attack on Titan Season 2 two Ending TV size theme dusk bird
BeatmapID:1456885
BeatmapSetID:688427

[Difficulty]
HPDrainRate:3
CircleSize:3.1
OverallDifficulty:4
ApproachRate:5.5
SliderMultiplier:1.99999990463257
SliderTickRate:1

[Events]
//Background and Video events
0,0,"435907.jpg",0,0
//Break Periods
2,55098,61863
//Storyboard Layer 0 (Background)
//Storyboard Layer 1 (Fail)
//Storyboard Layer 2 (Pass)
//Storyboard Layer 3 (Foreground)
//Storyboard Sound Samples

[TimingPoints]
966,674.157303370787,4,2,1,75,1,0
11752,-100,4,2,1,65,0,0
33325,-100,4,2,1,85,0,0
54898,-100,4,2,1,65,0,0
62988,-100,4,2,1,85,0,0
65685,-100,4,2,1,85,0,0
87258,-100,4,2,1,65,0,0
88943,-100,4,2,1,5,0,0

[Colours]
Combo1 : 218,218,218
Combo2 : 255,128,128

[HitObjects]
66,166,966,6,0,B|81:135|129:120|155:130,1,99.9999952316285,6|0,1:2|3:0,0:0:0:0:
232,188,1640,2,0,B|261:222|261:222|265:227|265:227|304:277,1,99.9999952316285,8|0,0:0|0:0,0:0:0:0:
335,295,2146,1,0,0:0:0:0:
383,282,2314,6,0,B|407:278|424:282|442:293,2,49.9999976158143,0|0|0,0:0|0:0|1:0,0:0:0:0:
360,184,2988,2,0,B|346:140|353:108|385:82,1,99.9999952316285,10|0,0:0|0:0,0:0:0:0:
459,36,3662,6,0,P|420:6|358:3,1,99.9999952316285,2|0,0:2|1:0,0:0:0:0:
288,57,4337,2,0,B|220:60|220:60|212:60|212:60|171:66,1,99.9999952316285,8|0,0:0|0:0,0:0:0:0:
147,91,4842,1,0,0:0:0:0:
132,139,5011,6,0,B|108:124|77:128|72:129,2,49.9999976158143,0|0|0,0:0|0:0|1:0,0:0:0:0:
191,219,5685,2,0,B|204:259|166:279|202:324,1,99.9999952316285,10|0,0:0|0:0,0:0:0:0:
228,353,6191,1,0,0:0:0:0:
277,358,6359,6,0,B|325:379|371:357|386:328,1,99.9999952316285,2|0,0:0|1:0,0:0:0:0:
306,270,7033,2,0,B|301:216|313:203|337:175,1,99.9999952316285,8|0,0:0|0:0,0:0:0:0:
382,165,7539,1,0,0:0:0:0:
422,135,7707,6,0,B|428:104|421:93|411:69,2,49.9999976158143,0|0|0,0:0|0:0|1:0,0:0:0:0:
463,226,8382,2,0,B|478:255|495:293|472:334,1,99.9999952316285,10|0,0:0|0:0,0:0:0:0:
388,365,9056,6,0,P|362:374|326:373,2,49.9999976158143,2|0|0,0:0|0:0|1:0,0:0:0:0:
326,285,9730,2,0,B|279:277|274:325|217:313,1,99.9999952316285,8|0,0:0|0:0,0:0:0:0:
141,276,10404,6,0,P|114:255|104:229,1,49.9999976158143,2|0,3:2|3:0,0:0:0:0:
116,192,10741,2,0,P|95:165|92:137,1,49.9999976158143,0|0,1:0|1:0,0:0:0:0:
122,110,11078,2,0,B|122:85|122:85|124:80|126:42,2,49.9999976158143,10|0|0,0:0|0:0|0:0,0:0:0:0:
221,120,11752,6,0,B|258:147|291:137|330:118,1,99.999990463257,2|0,3:2|0:0,0:0:0:0:
369,40,12427,2,0,P|408:95|399:141,1,99.999990463257,2|0,0:0|0:0,0:0:0:0:
399,174,12932,2,0,B|378:242|457:219|430:332,1,149.999985694885,2|0,0:0|0:0,0:0:0:0:
338,282,13775,6,0,B|312:262|284:270|227:277,1,99.999990463257,2|0,0:0|0:0,0:0:0:0:
197,299,14280,1,0,0:0:0:0:
153,274,14449,6,0,B|133:240|132:206|168:163,1,99.999990463257,2|0,3:2|0:0,0:0:0:0:
242,132,15123,2,0,B|261:157|324:167|350:140,1,99.999990463257,2|0,0:0|0:0,0:0:0:0:
382,133,15629,1,0,0:0:0:0:
419,100,15797,6,0,B|455:152|455:152|458:158|458:158|485:193,1,99.999990463257,2|0,3:2|0:0,0:0:0:0:
411,257,16471,2,0,B|414:284|414:284|416:338|416:338|416:345|416:345|419:372,1,99.999990463257,2|0,0:0|0:0,0:0:0:0:
374,383,16977,1,0,0:0:0:0:
325,368,17146,6,0,B|286:348|267:387|214:354,1,99.999990463257,2|0,3:2|0:0,0:0:0:0:
273,272,17820,2,0,B|272:223|258:198|227:168,1,99.999990463257,2|0,0:0|0:0,0:0:0:0:
190,170,18325,1,0,0:0:0:0:
148,197,18494,6,0,B|109:216|88:215|32:204,1,99.999990463257,2|2,3:2|0:0,0:0:0:0:
17,113,19168,2,0,B|54:105|75:104|114:123,1,99.999990463257,2|0,0:0|0:0,0:0:0:0:
153,92,19674,1,0,0:0:0:0:
202,94,19842,6,0,B|234:118|273:79|301:110,1,99.999990463257,2|0,3:2|0:0,0:0:0:0:
371,173,20516,2,0,P|331:203|283:215,1,99.999990463257,2|0,0:0|0:0,0:0:0:0:
241,187,21022,1,0,0:0:0:0:
194,205,21191,6,0,B|202:272|202:272|205:276|205:276|211:315,1,99.999990463257,2|0,3:2|0:0,0:0:0:0:
308,293,21865,2,0,B|342:295|342:295|373:298|373:298|420:299,1,99.999990463257,2|0,0:0|0:0,0:0:0:0:
441,262,22370,1,0,0:0:0:0:
461,216,22539,6,0,B|442:185|436:160|440:109,1,99.999990463257,2|0,3:2|0:0,0:0:0:0:
408,25,23213,2,0,B|352:21|357:79|303:55,1,99.999990463257,2|0,0:0|0:0,0:0:0:0:
268,52,23719,1,0,0:0:0:0:
222,72,23887,6,0,B|175:81|168:30|120:47,1,99.999990463257,2|0,3:2|0:0,0:0:0:0:
129,145,24561,2,0,B|128:189|134:206|199:228,1,99.999990463257,2|0,0:0|0:0,0:0:0:0:
228,210,25067,1,0,0:0:0:0:
273,231,25236,6,0,B|314:242|314:242|323:246|323:246|372:259,1,99.999990463257,2|0,3:2|0:0,0:0:0:0:
420,172,25910,2,0,B|372:164|372:164|364:161|364:161|321:154,1,99.999990463257,2|0,0:0|0:0,0:0:0:0:
286,119,26415,1,0,0:0:0:0:
236,111,26584,6,0,B|196:108|170:144|168:184,1,99.999990463257,2|2,3:2|0:0,0:0:0:0:
109,252,27258,2,0,P|155:267|214:244,1,99.999990463257,2|0,0:0|0:0,0:0:0:0:
252,243,27764,1,0,0:0:0:0:
298,261,27932,6,0,B|324:297|323:326|298:364,1,99.999990463257,2|0,3:2|0:0,0:0:0:0:
208,383,28606,2,0,B|178:357|156:346|96:353,1,99.999990463257,2|0,0:0|0:0,0:0:0:0:
66,358,29112,1,0,0:0:0:0:
28,324,29280,6,0,B|8:280|34:238|56:223,1,99.999990463257,2|0,3:2|0:0,0:0:0:0:
127,172,29955,2,0,B|121:213|125:236|146:271,1,99.999990463257,6|0,0:0|0:0,0:0:0:0:
237,232,30629,5,2,3:2:0:0:
319,288,30966,1,0,3:2:0:0:
373,204,31303,1,8,0:2:0:0:
306,129,31640,1,8,0:2:0:0:
380,62,31977,6,0,B|413:39|447:42|485:71,1,99.999990463257,10|8,0:0|0:0,0:0:0:0:
438,156,32651,2,0,P|446:179|465:204,1,49.9999952316285,8|8,1:2|1:2,0:0:0:0:
498,233,32988,2,0,B|503:263|503:263|504:270|504:270|506:294,1,49.9999952316285,8|8,1:2|1:2,0:0:0:0:
490,330,33325,6,0,B|430:349|437:306|384:320,1,99.999990463257,14|0,0:0|0:0,0:0:0:0:
300,355,34000,2,0,B|259:364|220:359|196:328,1,99.999990463257,8|0,0:0|0:0,0:0:0:0:
174,299,34505,1,0,0:0:0:0:
185,250,34674,6,0,B|218:202|183:202|204:131,1,99.999990463257,2|0,1:2|0:0,0:0:0:0:
293,184,35348,2,0,B|370:184|370:184|375:183|375:183|401:182,1,99.999990463257,8|2,0:0|0:0,0:0:0:0:
440,165,35854,1,0,0:0:0:0:
471,126,36022,6,0,B|483:83|475:50|435:20,1,99.999990463257,2|0,1:2|0:0,0:0:0:0:
371,93,36696,2,0,B|334:107|297:98|272:80,1,99.999990463257,8|0,0:0|0:0,0:0:0:0:
232,56,37202,1,0,0:0:0:0:
183,67,37370,6,0,B|149:57|106:71|94:103,1,99.999990463257,2|0,1:2|0:0,0:0:0:0:
172,163,38045,2,0,B|195:212|143:223|176:262,1,99.999990463257,10|0,0:0|0:0,0:0:0:0:
267,225,38719,6,0,B|295:207|344:217|365:263,1,99.999990463257,2|0,1:2|0:0,0:0:0:0:
454,235,39393,2,0,B|459:274|446:313|405:323,1,99.999990463257,8|2,0:0|0:0,0:0:0:0:
372,343,39898,1,0,0:0:0:0:
326,363,40067,6,0,B|259:365|286:318|218:336,1,99.999990463257,2|0,1:2|0:0,0:0:0:0:
134,328,40741,2,0,B|138:290|152:259|212:245,1,99.999990463257,10|0,0:0|0:0,0:0:0:0:
237,238,41247,1,0,0:0:0:0:
259,193,41415,6,0,B|264:157|266:138|257:126|233:92,1,99.999990463257,2|0,1:2|0:0,0:0:0:0:
164,31,42089,2,0,B|123:1|108:34|67:14,1,99.999990463257,8|0,0:0|0:0,0:0:0:0:
14,99,42764,6,0,B|7:116|3:126|10:150,2,49.9999952316285,2|0|0,0:0|1:0|1:0,0:0:0:0:
102,145,43438,2,0,B|114:183|114:183|117:191|117:191|139:258,1,99.999990463257,10|2,0:0|0:0,0:0:0:0:
109,337,44112,6,0,B|155:350|183:337|210:298,1,99.999990463257,6|0,1:2|0:0,0:0:0:0:
269,241,44786,2,0,B|311:233|338:237|367:262,1,99.999990463257,8|0,0:0|0:0,0:0:0:0:
405,286,45292,1,0,0:0:0:0:
454,282,45460,6,0,B|484:247|442:210|469:175,1,99.999990463257,2|0,1:2|0:0,0:0:0:0:
497,92,46134,2,0,B|454:85|422:91|393:127,1,99.999990463257,8|2,0:0|0:0,0:0:0:0:
377,157,46640,1,0,0:0:0:0:
338,188,46809,6,0,B|283:207|307:168|229:183,1,99.999990463257,2|0,1:2|0:0,0:0:0:0:
150,138,47483,2,0,B|123:168|124:197|146:232,1,99.999990463257,8|0,0:0|0:0,0:0:0:0:
177,266,47988,1,0,0:0:0:0:
224,280,48157,6,0,B|221:306|221:306|219:316|219:316|218:345,2,49.9999952316285,2|0|0,1:2|1:0|1:0,0:0:0:0:
302,218,48831,2,0,B|341:199|364:197|411:210,1,99.999990463257,8|2,0:0|0:0,0:0:0:0:
467,133,49505,6,0,B|488:95|486:63|456:32,1,99.999990463257,2|0,1:2|0:0,0:0:0:0:
371,80,50179,2,0,B|332:123|334:74|270:133,1,99.999990463257,8|2,0:0|0:0,0:0:0:0:
258,165,50685,1,0,0:0:0:0:
260,215,50854,6,0,B|297:247|318:252|360:249,1,99.999990463257,2|0,1:2|0:0,0:0:0:0:
429,188,51528,2,0,B|452:227|452:245|426:297,1,99.999990463257,8|0,0:0|0:0,0:0:0:0:
349,336,52202,6,0,P|368:351|391:362,2,49.9999952316285,2|0|0,0:2|1:0|1:0,0:0:0:0:
254,304,52876,2,0,B|214:294|194:290|149:305,1,99.999990463257,12|0,0:0|0:0,0:0:0:0:
256,192,53550,12,2,54898,0:0:0:0:
221,167,62988,5,12,0:0:0:0:
261,197,63157,2,0,B|268:229|261:267|216:293,1,99.999990463257,8|8,0:0|0:3,0:0:0:0:
188,315,63662,2,0,B|152:304|119:298|73:322,2,99.999990463257,8|8|0,0:3|0:0|0:0,0:0:0:0:
275,363,64674,1,8,0:3:0:0:
369,328,65011,2,0,B|407:317|421:277|392:236,1,99.999990463257,8|8,0:3|0:3,0:0:0:0:
324,181,65685,6,0,B|315:145|316:114|328:82,1,99.999990463257,6|0,1:2|0:0,0:0:0:0:
419,42,66359,2,0,B|461:44|482:60|497:110,1,99.999990463257,8|0,0:0|0:0,0:0:0:0:
475,144,66865,1,0,0:0:0:0:
481,193,67033,6,0,B|486:224|486:224|488:249|488:249|489:278|489:278|491:311,1,99.999990463257,2|0,1:2|0:0,0:0:0:0:
402,340,67707,2,0,B|368:318|318:316|288:341,1,99.999990463257,8|0,0:0|0:0,0:0:0:0:
268,362,68213,1,0,0:0:0:0:
223,338,68382,6,0,B|198:305|198:305|196:299|196:299|157:246,1,99.999990463257,2|0,1:2|0:0,0:0:0:0:
109,173,69056,2,0,B|140:149|184:141|221:167,1,99.999990463257,8|0,0:0|0:0,0:0:0:0:
239,190,69561,1,0,0:0:0:0:
286,204,69730,6,0,B|331:210|365:195|386:161,1,99.999990463257,2|0,1:2|0:0,0:0:0:0:
311,98,70404,2,0,B|306:48|306:48|304:26|301:-8,1,99.999990463257,8|0,0:0|1:0,0:0:0:0:
201,3,71078,6,0,B|202:31|201:52|201:52|203:102,1,99.999990463257,2|0,1:2|0:0,0:0:0:0:
192,202,71752,2,0,B|144:194|126:170|115:136,1,99.999990463257,8|0,0:0|0:0,0:0:0:0:
78,112,72258,1,0,0:0:0:0:
28,120,72427,6,0,B|1:139|-16:170|-3:226,1,99.999990463257,2|0,1:2|0:0,0:0:0:0:
42,294,73100,2,0,B|76:321|106:326|144:310,1,99.999990463257,8|0,0:0|0:0,0:0:0:0:
175,283,73606,1,0,0:0:0:0:
197,238,73775,6,0,B|247:211|242:253|299:241,1,99.999990463257,2|0,1:2|0:0,0:0:0:0:
388,212,74449,2,0,B|424:227|438:259|440:302,1,99.999990463257,8|0,0:0|0:0,0:0:0:0:
424,339,74955,1,0,0:0:0:0:
388,373,75123,6,0,B|346:362|321:357|281:371,1,99.999990463257,2|0,1:2|0:0,0:0:0:0:
207,311,75797,2,0,B|169:284|131:288|100:318,1,99.999990463257,8|0,0:0|0:0,0:0:0:0:
76,273,76303,1,0,0:0:0:0:
53,230,76471,6,0,B|81:201|90:175|68:120,1,99.999990463257,6|0,1:2|0:0,0:0:0:0:
39,44,77146,2,0,B|86:28|116:42|146:80,1,99.999990463257,8|0,0:0|0:0,0:0:0:0:
156,106,77651,1,0,0:0:0:0:
197,133,77820,6,0,B|250:176|302:114,1,99.999990463257,2|0,1:2|0:0,0:0:0:0:
365,67,78494,2,0,B|397:97|397:97|403:105|403:105|441:147,1,99.999990463257,8|0,0:0|0:0,0:0:0:0:
453,185,79000,1,0,0:0:0:0:
422,224,79168,6,0,B|381:243|406:302|347:305,1,99.999990463257,2|0,1:2|0:0,0:0:0:0:
289,234,79842,2,0,B|267:206|224:204|186:220,1,99.999990463257,8|0,0:0|0:0,0:0:0:0:
163,253,80348,1,0,0:0:0:0:
114,263,80516,6,0,B|79:274|50:265|30:239|31:203,1,99.999990463257,2|0,1:2|0:0,0:0:0:0:
72,133,81191,2,0,B|83:85|45:63|89:21,1,99.999990463257,8|0,0:0|1:0,0:0:0:0:
119,10,81696,1,0,0:0:0:0:
164,31,81865,6,0,B|212:51|181:86|222:106,1,99.999990463257,2|0,1:2|0:0,0:0:0:0:
296,39,82539,2,0,B|306:33|377:42|395:64,1,99.999990463257,8|0,0:0|0:0,0:0:0:0:
412,105,83045,1,0,0:0:0:0:
394,151,83213,6,0,B|384:198|333:167|336:242,1,99.999990463257,2|0,1:2|0:0,0:0:0:0:
361,322,83887,2,0,B|354:348|326:372|281:371,1,99.999990463257,8|0,0:0|0:0,0:0:0:0:
235,355,84393,1,0,0:0:0:0:
221,306,84561,6,0,B|234:269|234:269|237:259|237:259|249:227|249:227|254:199,1,99.999990463257,2|0,1:2|0:0,0:0:0:0:
181,140,85236,2,0,B|190:101|190:101|191:91|191:91|200:58|200:58|202:30,1,99.999990463257,8|0,0:0|0:0,0:0:0:0:
104,18,85910,6,0,B|68:0|29:18|30:57,1,99.999990463257,6|0,1:2|0:0,0:0:0:0:
38,154,86584,2,0,B|47:176|43:192|31:224,2,49.9999952316285,8|0|8,0:0|0:0|3:0,0:0:0:0:
130,116,87258,6,0,B|210:138|181:252|181:252|231:177|321:168|355:185|378:223|371:265|338:308|291:307|269:272,1,499.999952316285,6|0,0:0|0:0,0:0:0:0:
