osu file format v14

[General]
AudioFilename: audio.mp3
AudioLeadIn: 0
PreviewTime: 31893
Countdown: 0
SampleSet: Soft
StackLeniency: 0.4
Mode: 0
LetterboxInBreaks: 0
WidescreenStoryboard: 0

[Editor]
DistanceSpacing: 1.3
BeatDivisor: 4
GridSize: 4
TimelineZoom: 1.9

[Metadata]
Title:Yuugure no Tori
TitleUnicode:夕暮れの鳥
Artist:Shinsei Kamattechan
ArtistUnicode:神聖かまってちゃん
Creator:Monstrata
Version:Hard
Source:進撃の巨人
Tags:ascendance revo mikasa ackerman Shingeki no Kyojin Attack on Titan Season 2 two Ending TV size theme dusk bird
BeatmapID:1456884
BeatmapSetID:688427

[Difficulty]
HPDrainRate:4
CircleSize:4
OverallDifficulty:5.5
ApproachRate:8
SliderMultiplier:2.59999990463257
SliderTickRate:1

[Events]
//Background and Video events
0,0,"435907.jpg",0,0
//Break Periods
//Storyboard Layer 0 (Background)
//Storyboard Layer 1 (Fail)
//Storyboard Layer 2 (Pass)
//Storyboard Layer 3 (Foreground)
//Storyboard Sound Samples

[TimingPoints]
966,674.157303370787,4,2,1,75,1,0
11752,-133.333333333333,4,2,1,65,0,0
33325,-100,4,2,1,85,0,0
54898,-133.333333333333,4,2,1,65,0,0
62988,-133.333333333333,4,2,1,85,0,0
65685,-100,4,2,1,85,0,0
87258,-133.333333333333,4,2,1,65,0,0
88943,-133.333333333333,4,2,1,5,0,0

[Colours]
Combo1 : 218,218,218
Combo2 : 255,128,128

[HitObjects]
162,151,966,6,0,P|154:121|155:61,1,64.9999976158143,6|0,1:2|0:0,0:0:0:0:
236,87,1303,2,0,P|266:79|326:80,1,64.9999976158143,0|0,3:0|0:0,0:0:0:0:
354,141,1640,2,0,B|345:187|380:228|450:233,1,129.999995231629,8|0,0:0|0:0,0:0:0:0:
436,145,2146,1,0,0:0:0:0:
404,66,2314,6,0,B|401:33|390:17|373:0,1,64.9999976158143,0|0,0:0|0:0,0:0:0:0:
316,63,2651,2,0,P|276:65|234:62,1,64.9999976158143,0|0,1:0|0:0,0:0:0:0:
97,83,2988,2,0,B|133:79|183:90|208:137,1,129.999995231629,10|0,0:0|0:0,0:0:0:0:
131,173,3494,1,0,0:0:0:0:
77,238,3662,6,0,B|62:259|59:274|67:316,1,64.9999976158143,2|0,0:2|0:0,0:0:0:0:
135,347,4000,2,0,B|150:326|153:311|145:269,1,64.9999976158143,0|0,1:0|0:0,0:0:0:0:
215,234,4337,2,0,B|286:209|276:282|345:271,1,129.999995231629,8|0,0:0|0:0,0:0:0:0:
344,188,4842,1,0,0:0:0:0:
316,107,5011,6,0,P|288:124|269:150,1,64.9999976158143,0|0,0:0|0:0,0:0:0:0:
399,127,5348,2,0,P|429:150|447:192,1,64.9999976158143,0|0,1:0|0:0,0:0:0:0:
331,272,5685,2,0,B|308:315|269:329|216:305,1,129.999995231629,10|0,0:0|0:0,0:0:0:0:
259,231,6191,1,0,0:0:0:0:
191,180,6359,6,0,B|170:178|170:178|115:176,1,64.9999976158143,2|0,0:0|0:0,0:0:0:0:
71,241,6696,2,0,B|49:240|49:240|-5:240,1,64.9999976158143,0|0,1:0|0:0,0:0:0:0:
56,146,7033,2,0,B|94:95|135:100|178:107,1,129.999995231629,8|0,0:0|0:0,0:0:0:0:
245,65,7539,1,0,0:0:0:0:
301,127,7707,6,0,B|321:147|331:154|369:170,1,64.9999976158143,0|0,0:0|0:0,0:0:0:0:
379,82,8045,2,0,B|415:91|433:88|463:70,1,64.9999976158143,0|0,1:0|0:0,0:0:0:0:
244,64,8382,2,0,B|206:112|207:149|252:204,1,129.999995231629,10|0,0:0|0:0,0:0:0:0:
299,238,8887,1,0,0:0:0:0:
359,297,9056,6,0,P|325:320|273:325,2,64.9999976158143,2|0|0,0:0|0:0|1:0,0:0:0:0:
132,211,9730,2,0,B|108:264|144:325|176:338,1,129.999995231629,8|0,0:0|0:0,0:0:0:0:
206,257,10236,1,0,0:0:0:0:
210,172,10404,6,0,B|216:135|216:135|218:131|218:131|222:108,1,64.9999976158143,2|0,3:2|3:0,0:0:0:0:
292,155,10741,2,0,B|301:119|301:119|303:114|303:114|309:92,1,64.9999976158143,0|0,1:0|1:0,0:0:0:0:
355,211,11078,1,10,0:0:0:0:
310,294,11247,1,0,0:0:0:0:
382,336,11415,2,0,B|401:319|428:319|454:340,1,64.9999976158143,0|0,0:0|0:0,0:0:0:0:
468,258,11752,6,0,B|448:194|488:233|459:151,1,97.4999965667724,2|0,3:2|0:0,0:0:0:0:
354,50,12427,2,0,P|269:65|243:64,1,97.4999965667724,2|0,0:0|0:0,0:0:0:0:
192,22,12932,6,0,B|235:77|187:131|216:162,1,146.249994850159,2|0,0:0|0:0,0:0:0:0:
316,281,13775,2,0,B|307:323|277:345|244:362,1,97.4999965667725,2|0,0:0|0:0,0:0:0:0:
189,316,14280,1,0,0:0:0:0:
115,342,14449,6,0,B|103:299|122:266|161:244,1,97.4999965667725,2|0,3:2|0:0,0:0:0:0:
231,126,15123,2,0,L|156:40,1,97.4999965667725,2|0,0:0|0:0,0:0:0:0:
92,76,15629,1,0,0:0:0:0:
28,110,15797,6,0,B|47:167|103:160|118:149,1,97.4999965667725,2|0,3:2|0:0,0:0:0:0:
231,246,16471,2,0,B|265:195|317:216|329:231,1,97.4999965667725,2|0,0:0|0:0,0:0:0:0:
371,279,16977,1,0,0:0:0:0:
344,368,17146,6,0,B|316:355|288:333|291:293,1,97.4999965667725,2|0,3:2|0:0,0:0:0:0:
412,200,17820,2,0,B|418:185|418:185|419:181|419:181|449:130|449:130|453:123|453:123|463:109,1,97.4999965667725,2|0,0:0|0:0,0:0:0:0:
422,46,18325,1,0,0:0:0:0:
354,84,18494,6,0,B|331:91|313:92|294:89,1,48.7499982833862,2|0,3:2|0:0,0:0:0:0:
235,56,18831,2,0,B|211:49|197:52|175:61,1,48.7499982833862,2|0,0:0|0:0,0:0:0:0:
126,106,19168,2,0,B|135:139|134:178|101:213,1,97.4999965667725,2|0,0:0|0:0,0:0:0:0:
54,251,19674,1,0,0:0:0:0:
18,319,19842,6,0,B|74:349|81:309|121:343,1,97.4999965667725,2|0,3:2|0:0,0:0:0:0:
266,357,20516,2,0,B|295:367|330:365|367:340,1,97.4999965667725,2|0,0:0|0:0,0:0:0:0:
300,289,21022,1,0,0:0:0:0:
225,252,21191,6,0,B|190:237|164:273|130:260,1,97.4999965667725,2|0,3:2|0:0,0:0:0:0:
165,108,21865,2,0,B|205:106|226:113|251:142,1,97.4999965667725,2|0,0:0|0:0,0:0:0:0:
298,204,22370,1,0,0:0:0:0:
373,185,22539,6,0,B|399:133|368:154|380:89,1,97.4999965667725,2|0,3:2|0:0,0:0:0:0:
510,5,23213,2,0,B|520:44|530:83|508:122,1,97.4999965667725,2|0,0:0|0:0,0:0:0:0:
492,175,23719,1,0,0:0:0:0:
445,236,23887,6,0,P|467:250|500:257,2,48.7499982833862,2|0|0,3:2|0:0|0:0,0:0:0:0:
294,278,24561,2,0,B|263:252|243:242|192:249,1,97.4999965667725,2|0,0:0|0:0,0:0:0:0:
143,296,25067,1,0,0:0:0:0:
106,365,25236,6,0,B|74:351|49:313|74:266,1,97.4999965667725,2|0,3:2|0:0,0:0:0:0:
149,153,25910,2,0,B|157:115|154:91|138:57,1,97.4999965667725,2|0,0:0|0:0,0:0:0:0:
62,44,26415,1,0,0:0:0:0:
30,115,26584,6,0,B|3:162|50:167|28:224,1,97.4999965667725,2|2,3:2|0:0,0:0:0:0:
173,275,27258,2,0,B|215:277|215:277|220:276|220:276|292:282,1,97.4999965667725,2|0,0:0|0:0,0:0:0:0:
328,228,27764,1,0,0:0:0:0:
405,224,27932,6,0,B|401:263|383:288|344:297,1,97.4999965667725,2|0,3:2|0:0,0:0:0:0:
258,168,28606,1,2,0:0:0:0:
266,90,28775,2,0,B|268:61|277:26|329:-5,1,97.4999965667725,2|0,0:0|0:0,0:0:0:0:
351,82,29280,6,0,B|404:79|404:79|407:79|407:79|449:79|449:79|458:76,1,97.4999965667725,2|0,3:2|0:0,0:0:0:0:
320,223,29955,2,0,B|333:262|332:304|315:332,1,97.4999965667725,6|0,0:0|0:0,0:0:0:0:
127,206,30629,6,0,P|98:210|60:220,1,48.7499982833862,2|0,3:2|0:0,0:0:0:0:
149,127,30966,2,0,P|119:123|80:123,1,48.7499982833862,0|0,3:2|0:0,0:0:0:0:
230,165,31303,2,0,L|244:101,1,48.7499982833862,8|0,0:2|0:0,0:0:0:0:
294,225,31640,2,0,P|298:204|308:161,1,48.7499982833862,8|0,0:2|0:0,0:0:0:0:
236,295,31977,6,0,P|196:307|173:324,1,48.7499982833862,10|0,0:0|0:0,0:0:0:0:
321,320,32314,2,0,P|342:342|379:354,1,48.7499982833862,8|0,0:0|0:0,0:0:0:0:
394,280,32651,1,8,1:2:0:0:
341,202,32820,1,8,1:2:0:0:
410,174,32988,1,8,1:2:0:0:
440,76,33157,1,8,1:2:0:0:
336,72,33325,6,0,B|314:23|267:3|200:41,2,129.999990463257,14|0|8,0:0|0:0|0:0,0:0:0:0:
258,106,34168,2,0,B|230:135|230:135|204:164,1,64.9999952316285,2|0,0:0|0:0,0:0:0:0:
199,237,34505,1,0,0:0:0:0:
222,318,34674,6,0,B|273:297|291:255|270:204,1,129.999990463257,2|0,1:2|0:0,0:0:0:0:
138,111,35348,2,0,B|110:71|125:10|193:-4,1,129.999990463257,8|2,0:0|0:0,0:0:0:0:
253,20,35854,1,0,0:0:0:0:
319,71,36022,6,0,B|414:71|345:122|454:127,2,129.999990463257,2|0|8,1:2|0:0|0:0,0:0:0:0:
324,155,36865,2,0,P|347:180|384:205,1,64.9999952316285,2|0,0:0|0:0,0:0:0:0:
455,213,37202,1,0,0:0:0:0:
495,286,37370,6,0,B|491:324|482:357|415:377,2,129.999990463257,2|0|10,1:2|0:0|0:0,0:0:0:0:
411,295,38213,2,0,L|316:288,1,64.9999952316285,0|0,0:0|0:0,0:0:0:0:
181,329,38719,6,0,B|141:289|91:286|43:335,2,129.999990463257,2|0|8,1:2|0:0|0:0,0:0:0:0:
219,164,39730,2,0,B|226:139|227:121|214:88,1,64.9999952316285,2|0,0:0|0:0,0:0:0:0:
138,127,40067,6,0,B|93:91|40:90|-6:138,2,129.999990463257,2|0|10,1:2|0:0|0:0,0:0:0:0:
78,186,40910,2,0,B|77:208|77:208|78:229|78:229|80:258,1,64.9999952316285,0|0,0:0|0:0,0:0:0:0:
152,293,41247,1,0,0:0:0:0:
225,252,41415,6,0,B|288:249|265:301|345:291,1,129.999990463257,2|0,1:2|0:0,0:0:0:0:
393,129,42089,2,0,B|471:138|448:86|511:89,1,129.999990463257,8|0,0:0|0:0,0:0:0:0:
348,41,42764,5,2,0:0:0:0:
302,111,42932,1,0,1:0:0:0:
335,195,43101,2,0,B|365:202|387:198|417:197,1,64.9999952316285,0|0,1:0|0:0,0:0:0:0:
252,172,43438,2,0,B|240:172|217:175|187:168,1,64.9999952316285,10|0,0:0|0:0,0:0:0:0:
268,253,43775,2,0,B|270:278|270:278|272:324,1,64.9999952316285,2|0,0:0|0:0,0:0:0:0:
302,111,44112,6,0,B|275:52|224:35|169:62,2,129.999990463257,6|0|8,1:2|0:0|0:0,0:0:0:0:
360,171,44955,2,0,B|364:202|364:202|365:212|365:212|370:249,1,64.9999952316285,2|0,0:0|0:0,0:0:0:0:
421,301,45292,1,0,0:0:0:0:
482,243,45460,6,0,B|497:190|445:199|484:109,2,129.999990463257,2|0|8,1:2|0:0|0:0,0:0:0:0:
324,304,46471,2,0,P|289:317|247:300,1,64.9999952316285,2|0,0:0|0:0,0:0:0:0:
195,259,46809,6,0,B|151:230|106:236|74:298,2,129.999990463257,2|0|8,1:2|0:0|0:0,0:0:0:0:
264,211,47651,2,0,B|266:199|271:187|271:176|269:168|269:156|265:153|264:142,1,64.9999952316285,2|0,0:0|0:0,0:0:0:0:
207,93,47988,1,0,0:0:0:0:
135,145,48157,6,0,P|163:165|213:168,1,64.9999952316285,2|0,1:2|1:0,0:0:0:0:
129,62,48494,2,0,B|106:52|91:46|51:51,1,64.9999952316285,0|0,1:0|0:0,0:0:0:0:
208,98,48831,2,0,L|283:64,1,64.9999952316285,8|0,0:0|0:0,0:0:0:0:
332,125,49168,2,0,P|363:138|402:162,1,64.9999952316285,2|0,0:0|0:0,0:0:0:0:
439,222,49505,6,0,B|502:195|454:142|523:110,2,129.999990463257,2|0|8,1:2|0:0|0:0,0:0:0:0:
378,281,50348,2,0,B|352:268|320:267|292:275,1,64.9999952316285,0|2,0:0|0:0,0:0:0:0:
257,332,50685,1,0,0:0:0:0:
171,355,50854,6,0,B|159:291|197:252|258:249,2,129.999990463257,2|0|8,1:2|0:0|0:0,0:0:0:0:
337,357,51865,1,0,0:0:0:0:
285,196,52202,6,0,B|283:155|283:155|282:147|282:147|285:110,2,64.9999952316285,2|0|0,0:2|1:0|1:0,0:0:0:0:
408,80,52876,2,0,B|431:62|450:58|487:55,1,64.9999952316285,12|0,0:0|0:0,0:0:0:0:
410,160,53213,2,0,B|427:161|446:165|469:183,1,64.9999952316285,0|0,0:0|0:0,0:0:0:0:
363,239,53550,6,0,B|367:264|367:264|369:273|369:273|377:324,1,64.9999952316285,0|0,3:0|3:0,0:0:0:0:
282,196,53887,2,0,B|277:221|277:221|276:230|276:230|268:281,1,64.9999952316285,0|0,1:0|1:0,0:0:0:0:
183,325,54224,1,8,0:0:0:0:
128,253,54393,1,8,0:0:0:0:
82,319,54561,1,8,0:0:0:0:
48,280,54730,1,8,0:0:0:0:
3,336,54898,6,0,B|-15:300|-16:284|-21:263|-20:226,1,97.4999965667725,2|0,0:0|0:0,0:0:0:0:
64,110,55573,2,0,B|88:86|139:80|175:98,1,97.4999965667725,8|0,0:0|0:0,0:0:0:0:
217,138,56078,1,0,0:0:0:0:
276,188,56247,6,0,B|340:205|337:160|388:183,1,97.4999965667725,2|0,0:0|0:0,0:0:0:0:
450,43,56921,2,0,B|398:29|399:54|338:42,1,97.4999965667725,8|0,0:0|0:0,0:0:0:0:
281,14,57427,1,0,0:0:0:0:
228,71,57595,6,0,B|205:107|201:131|217:181,1,97.4999965667725,2|0,0:0|0:0,0:0:0:0:
355,223,58269,2,0,B|394:239|410:257|425:308,1,97.4999965667725,8|0,0:0|0:0,0:0:0:0:
342,301,58775,1,0,0:0:0:0:
278,254,58943,6,0,B|252:235|212:230|182:252,1,97.4999965667725,2|0,0:0|0:0,0:0:0:0:
39,332,59618,2,0,B|71:351|113:325|98:277,1,97.4999965667725,8|0,0:0|0:0,0:0:0:0:
47,229,60123,1,0,0:0:0:0:
29,152,60292,6,0,B|40:104|84:117|110:73,1,97.4999965667725,2|0,0:0|0:0,0:0:0:0:
251,56,60966,2,0,B|286:43|318:50|351:73,1,97.4999965667725,8|0,0:0|0:0,0:0:0:0:
376,138,61471,1,0,0:0:0:0:
318,191,61640,6,0,B|281:233|300:265|328:292,1,97.4999965667725,2|0,0:0|0:0,0:0:0:0:
459,365,62314,2,0,B|465:347|465:333|459:305,1,48.7499982833862,8|0,0:0|0:0,0:0:0:0:
400,221,62651,2,0,B|393:238|394:253|397:269,1,48.7499982833862,0|0,0:0|0:0,0:0:0:0:
476,175,62988,5,12,0:0:0:0:
413,127,63157,2,0,B|400:104|400:104|386:73,1,48.7499982833862,8|0,0:0|0:0,0:0:0:0:
320,137,63494,1,8,0:3:0:0:
305,60,63662,2,0,P|326:32|347:20,1,48.7499982833862,8|0,0:3|0:0,0:0:0:0:
239,124,64000,1,8,0:0:0:0:
184,68,64168,1,8,0:0:0:0:
114,128,64337,6,0,P|109:151|109:175,1,48.7499982833862,0|8,0:0|0:3,0:0:0:0:
74,245,64674,2,0,P|68:268|68:292,1,48.7499982833862,8|0,0:3|0:0,0:0:0:0:
135,333,65011,2,0,B|154:325|191:328|196:329,2,48.7499982833862,8|0|8,0:3|0:0|0:3,0:0:0:0:
292,272,65685,6,0,B|342:260|368:214|327:160,1,129.999990463257,6|0,1:2|0:0,0:0:0:0:
177,113,66359,2,0,B|158:162|158:162|142:209|142:209|127:246,1,129.999990463257,8|0,0:0|0:0,0:0:0:0:
154,317,66865,1,0,0:0:0:0:
235,339,67033,6,0,B|286:361|303:278|380:326,1,129.999990463257,2|0,1:2|0:0,0:0:0:0:
475,194,67707,2,0,B|452:154|430:108|445:55,1,129.999990463257,8|0,0:0|0:0,0:0:0:0:
364,36,68213,1,0,0:0:0:0:
280,21,68382,6,0,B|282:78|307:116|378:123,1,129.999990463257,2|0,1:2|0:0,0:0:0:0:
458,245,69056,2,0,B|421:201|397:191|340:210,1,129.999990463257,8|0,0:0|0:0,0:0:0:0:
297,279,69561,1,0,0:0:0:0:
227,327,69730,6,0,B|169:328|193:270|96:273,1,129.999990463257,2|0,1:2|0:0,0:0:0:0:
49,116,70404,2,0,B|46:87|63:72|77:48,1,64.9999952316285,8|0,0:0|0:0,0:0:0:0:
153,34,70741,2,0,B|171:11|194:12|220:5,1,64.9999952316285,0|0,1:0|0:0,0:0:0:0:
283,38,71078,6,0,B|336:83|376:18|423:55,1,129.999990463257,2|0,1:2|0:0,0:0:0:0:
416,214,71752,2,0,B|443:269|443:269|447:276|447:276|476:341,1,129.999990463257,8|0,0:0|0:0,0:0:0:0:
375,315,72258,1,0,0:0:0:0:
301,357,72427,6,0,B|253:369|213:354|199:293,1,129.999990463257,2|0,1:2|0:0,0:0:0:0:
284,152,73101,2,0,P|285:217|275:282,1,129.999990463257,8|0,0:0|0:0,0:0:0:0:
207,232,73606,1,0,0:0:0:0:
135,278,73775,6,0,B|40:300|98:242|-1:258,1,129.999990463257,2|0,1:2|0:0,0:0:0:0:
14,87,74449,2,0,B|77:108|73:29|135:65,1,129.999990463257,8|0,0:0|0:0,0:0:0:0:
204,107,74955,1,0,0:0:0:0:
227,191,75123,6,0,B|179:197|141:183|117:137,2,129.999990463257,2|0|8,1:2|0:0|0:0,0:0:0:0:
390,149,76134,2,0,B|417:160|439:178|446:204,1,64.9999952316285,0|0,0:0|0:0,0:0:0:0:
391,295,76471,6,0,B|374:235|406:201|448:191,1,129.999990463257,6|0,1:2|0:0,0:0:0:0:
444,361,77146,2,0,B|381:387|347:355|296:390,1,129.999990463257,8|0,0:0|0:0,0:0:0:0:
239,345,77651,1,0,0:0:0:0:
273,267,77820,6,0,B|302:226|286:168|233:160,1,129.999990463257,2|0,1:2|0:0,0:0:0:0:
72,228,78494,2,0,B|126:256|185:243|209:219,1,129.999990463257,8|0,0:0|0:0,0:0:0:0:
238,154,79000,1,0,0:0:0:0:
210,79,79168,6,0,B|169:49|115:117|152:155,1,129.999990463257,2|0,1:2|0:0,0:0:0:0:
341,70,79842,2,0,B|398:59|398:59|406:58|406:58|456:48|456:48|478:46,1,129.999990463257,8|0,0:0|0:0,0:0:0:0:
454,130,80348,1,0,0:0:0:0:
417,205,80516,6,0,B|452:210|471:207|499:198,1,64.9999952316285,2|0,1:2|0:0,0:0:0:0:
373,276,80854,2,0,B|405:289|424:291|454:290,1,64.9999952316285,0|0,0:0|0:0,0:0:0:0:
304,234,81191,2,0,B|289:277|290:321|351:360,1,129.999990463257,8|0,0:0|1:0,0:0:0:0:
258,381,81696,1,0,0:0:0:0:
214,308,81865,6,0,B|234:266|234:216|212:159,1,129.999990463257,2|0,1:2|0:0,0:0:0:0:
85,78,82539,1,8,0:0:0:0:
31,143,82707,2,0,B|45:155|71:162|107:154,1,64.9999952316285,0|0,0:0|0:0,0:0:0:0:
169,119,83045,1,0,0:0:0:0:
239,72,83213,6,0,B|336:80|257:118|360:133,1,129.999990463257,2|0,1:2|0:0,0:0:0:0:
505,72,83887,1,8,0:0:0:0:
428,36,84056,2,0,B|414:78|428:128|490:154,1,129.999990463257,2|0,0:0|0:0,0:0:0:0:
490,279,84561,6,0,B|474:223|441:200|368:220,1,129.999990463257,2|0,1:2|0:0,0:0:0:0:
222,202,85236,2,0,B|238:258|271:281|344:261,1,129.999990463257,8|0,0:0|0:0,0:0:0:0:
319,97,85910,6,0,P|315:75|304:27,2,64.9999952316285,6|0|0,1:2|0:0|0:0,0:0:0:0:
305,180,86415,1,0,0:0:0:0:
237,128,86584,2,0,B|214:116|187:114|156:131,1,64.9999952316285,8|0,0:0|0:0,0:0:0:0:
117,185,86921,1,8,3:0:0:0:
244,344,87258,6,0,B|363:386|309:263|437:341|437:341|454:221|437:178|360:156|321:240|341:266|370:281,1,487.499982833862,6|0,0:0|0:0,0:0:0:0:
